osu file format v12

[General]
AudioFilename: [SDVX] Max Burning!! - EXH [__].mp3
AudioLeadIn: 0
PreviewTime: 21709
Countdown: 0
SampleSet: None
StackLeniency: 0.7
Mode: 3
LetterboxInBreaks: 0
SpecialStyle: 0
WidescreenStoryboard: 1

[Editor]
DistanceSpacing: 1
BeatDivisor: 4
GridSize: 16

[Metadata]
Title:Max Burning!!
TitleUnicode:Max Burning!!
Artist:BlackY
ArtistUnicode:BlackY
Creator:Skalim
Version:5K ADVANCED
Source:SOUND VOLTEX BOOTH
Tags:sdvx distortion asd123iii
BeatmapID:317022
BeatmapSetID:123431

[Difficulty]
HPDrainRate:7
CircleSize:5
OverallDifficulty:7
ApproachRate:5
SliderMultiplier:1.4
SliderTickRate:1

[Events]
//Background and Video events
0,0,"fuego1.jpg",0,0
//Break Periods
//Storyboard Layer 0 (Background)
//Storyboard Layer 1 (Fail)
//Storyboard Layer 2 (Pass)
//Storyboard Layer 3 (Foreground)
//Storyboard Sound Samples
//Background Colour Transformations
3,100,163,162,255

[TimingPoints]
1598,315.789473684211,4,3,1,75,1,0
4755,-100,4,3,1,75,0,0
5150,-100,4,3,1,75,0,0
6019,-66.6666666666667,4,3,1,75,0,0
6176,-133.333333333333,4,3,1,75,0,0
6255,-222.222222222221,4,3,1,75,0,0
6334,-66.6666666666667,4,3,1,75,0,0
6492,-133.333333333333,4,3,1,75,0,0
6571,-222.222222222221,4,3,1,75,0,0
6650,-100,4,3,1,75,0,0
9808,-100,4,3,1,75,0,0
10203,-100,4,3,1,75,0,0
11071,-66.6666666666667,4,3,1,75,0,0
11229,-133.333333333333,4,3,1,75,0,0
11308,-222.222222222221,4,3,1,75,0,0
11387,-66.6666666666667,4,3,1,75,0,0
11545,-133.333333333333,4,3,1,75,0,0
11624,-222.222222222221,4,3,1,75,0,0
11703,-100,4,3,1,75,0,0
16124,-66.6666666666667,4,3,1,75,0,0
16282,-133.333333333333,4,3,1,75,0,0
16361,-222.222222222221,4,3,1,75,0,0
16440,-66.6666666666667,4,3,1,75,0,0
16598,-133.333333333333,4,3,1,75,0,0
16676,-222.222222222221,4,3,1,75,0,0
16755,-100,4,3,1,75,0,0
20229,-222.222222222221,4,3,1,75,0,0
20308,-133.333333333333,4,3,1,75,0,0
20387,-55.5555555555556,4,3,1,75,0,0
20466,-166.666666666667,4,3,1,75,0,0
20545,-66.6666666666667,4,3,1,75,0,0
20676,-133.333333333333,4,3,1,75,0,0
20729,-222.222222222221,4,3,1,75,0,0
20782,-66.6666666666667,4,3,1,75,0,0
20913,-133.333333333333,4,3,1,75,0,0
20966,-222.222222222221,4,3,1,75,0,0
21019,-66.6666666666667,4,3,1,75,0,0
21150,-133.333333333333,4,3,1,75,0,0
21203,-222.222222222221,4,3,1,75,0,0
21255,-66.6666666666667,4,3,1,75,0,0
21387,-133.333333333333,4,3,1,75,0,0
21440,-222.222222222221,4,3,1,75,0,0
21492,-100,4,3,1,75,0,0
21808,-100,4,3,1,75,0,1
31282,-66.6666666666667,4,3,1,75,0,1
31440,-133.333333333333,4,3,1,75,0,1
31519,-222.222222222221,4,3,1,75,0,1
31598,-66.6666666666667,4,3,1,75,0,1
31755,-133.333333333333,4,3,1,75,0,1
31834,-222.222222222221,4,3,1,75,0,1
31913,-100,4,3,1,75,0,0
41071,-222.222222222221,4,3,1,75,0,0
41150,-133.333333333333,4,3,1,75,0,0
41229,-55.5555555555556,4,3,1,75,0,0
41308,-166.666666666667,4,3,1,75,0,0
41387,-100,4,3,1,75,0,0
52124,-66.6666666666667,4,3,1,75,0,1
52282,-133.333333333333,4,3,1,75,0,1
52361,-222.222222222221,4,3,1,75,0,1
52440,-100,4,3,1,75,0,1
61834,-222.222222222221,4,3,1,75,0,1
61913,-133.333333333333,4,3,1,75,0,1
61992,-66.6666666666667,4,3,1,75,0,1
62071,-55.5555555555556,4,3,1,75,0,1
62150,-181.818181818181,4,3,1,75,0,1
62229,-100,4,3,1,75,0,0
71071,-66.6666666666667,4,3,1,75,0,0
72019,-222.222222222221,4,3,1,75,0,0
72176,-133.333333333333,4,3,1,75,0,0
72334,-100,4,3,1,75,0,0
79282,-222.222222222221,4,3,1,75,0,0
79361,-66.6666666666667,4,3,1,75,0,0
79440,-222.222222222221,4,3,1,75,0,0
79519,-66.6666666666667,4,3,1,75,0,0
79598,-222.222222222221,4,3,1,75,0,0
79676,-66.6666666666667,4,3,1,75,0,0
79755,-222.222222222221,4,3,1,75,0,0
79834,-66.6666666666667,4,3,1,75,0,0
79913,-100,4,3,1,75,0,0
92229,-666.666666666658,4,3,1,75,0,0
92308,-222.222222222221,4,3,1,75,0,0
92387,-133.333333333333,4,3,1,75,0,0
92466,-55.5555555555556,4,3,1,75,0,0
92545,-153.846153846153,4,3,1,75,0,0
92604,315.789473684211,4,3,1,75,1,1
100120,315.789473684211,4,3,1,75,1,1
102646,-100,4,3,1,75,0,0

[HitObjects]
51,192,1598,1,0,0:0:0:0:
358,192,1598,1,0,0:0:0:0:
256,192,1755,1,0,0:0:0:0:
153,192,1913,1,0,0:0:0:0:
358,192,2071,1,0,0:0:0:0:
51,192,2229,1,0,0:0:0:0:
256,192,2387,1,0,0:0:0:0:
460,192,2545,1,0,0:0:0:0:
256,192,2703,1,0,0:0:0:0:
51,192,2861,1,0,0:0:0:0:
358,192,3019,1,0,0:0:0:0:
460,192,3176,128,0,3492:0:0:0:0:
153,192,3176,1,0,0:0:0:0:
256,192,3492,1,0,0:0:0:0:
51,192,3650,128,0,3808:0:0:0:0:
153,192,3650,1,0,0:0:0:0:
256,192,3808,1,0,0:0:0:0:
460,192,3966,128,0,4124:0:0:0:0:
358,192,3966,1,0,0:0:0:0:
256,192,4124,1,0,0:0:0:0:
51,192,4282,1,0,0:0:0:0:
358,192,4440,1,0,0:0:0:0:
153,192,4598,1,0,0:0:0:0:
256,192,4755,1,2,0:0:0:0:
153,192,4834,1,2,0:0:0:0:
358,192,4913,1,2,0:0:0:0:
51,192,4992,1,2,0:0:0:0:
460,192,5071,1,2,0:0:0:0:
358,192,5229,1,0,0:0:0:0:
51,192,5387,1,0,0:0:0:0:
358,192,5545,1,0,0:0:0:0:
460,192,5545,128,0,6019:0:0:0:0:
256,192,5703,1,0,0:0:0:0:
51,192,5703,1,0,0:0:0:0:
51,192,6019,128,8,6334:0:0:0:0:
358,192,6019,1,8,0:0:0:0:
460,192,6334,128,0,6650:0:0:0:0:
153,192,6334,1,8,0:0:0:0:
51,192,6650,1,0,0:0:0:0:
256,192,6650,1,0,0:0:0:0:
153,192,6808,1,0,0:0:0:0:
256,192,6966,1,2,0:0:0:0:
460,192,6966,1,0,0:0:0:0:
153,192,7124,1,0,0:0:0:0:
358,192,7282,1,0,0:0:0:0:
153,192,7440,1,0,0:0:0:0:
51,192,7598,1,2,0:0:0:0:
460,192,7598,1,0,0:0:0:0:
256,192,7755,1,0,0:0:0:0:
153,192,7913,1,0,0:0:0:0:
358,192,8071,1,0,0:0:0:0:
256,192,8229,128,2,8545:0:0:0:0:
51,192,8229,1,0,0:0:0:0:
460,192,8545,1,0,0:0:0:0:
51,192,8703,128,0,8861:0:0:0:0:
153,192,8703,1,0,0:0:0:0:
460,192,9019,128,0,9176:0:0:0:0:
358,192,9019,1,0,0:0:0:0:
153,192,9176,1,0,0:0:0:0:
256,192,9334,1,0,0:0:0:0:
51,192,9492,1,0,0:0:0:0:
358,192,9492,1,2,0:0:0:0:
460,192,9650,1,0,0:0:0:0:
358,192,9808,1,2,0:0:0:0:
153,192,9887,1,2,0:0:0:0:
460,192,9966,1,2,0:0:0:0:
51,192,10045,1,2,0:0:0:0:
256,192,10124,1,2,0:0:0:0:
153,192,10282,1,0,0:0:0:0:
256,192,10440,1,0,0:0:0:0:
460,192,10598,1,0,0:0:0:0:
358,192,10598,128,0,11071:0:0:0:0:
51,192,10755,1,2,0:0:0:0:
256,192,10755,1,0,0:0:0:0:
153,192,11071,128,8,11387:0:0:0:0:
51,192,11071,1,0,0:0:0:0:
358,192,11387,128,8,11703:0:0:0:0:
460,192,11387,1,8,0:0:0:0:
51,192,11703,1,0,0:0:0:0:
256,192,11703,1,0,0:0:0:0:
153,192,11861,1,0,0:0:0:0:
460,192,12019,1,0,0:0:0:0:
256,192,12019,1,0,0:0:0:0:
358,192,12176,1,0,0:0:0:0:
256,192,12334,1,8,0:0:0:0:
358,192,12492,1,0,0:0:0:0:
51,192,12650,1,0,0:0:0:0:
460,192,12650,1,8,0:0:0:0:
256,192,12808,1,0,0:0:0:0:
153,192,12966,1,8,0:0:0:0:
358,192,13124,1,0,0:0:0:0:
256,192,13282,128,0,13598:0:0:0:0:
51,192,13282,1,0,0:0:0:0:
460,192,13598,1,8,0:0:0:0:
51,192,13755,128,0,13913:0:0:0:0:
153,192,13755,1,0,0:0:0:0:
256,192,13913,1,8,0:0:0:0:
460,192,14071,128,0,14229:0:0:0:0:
358,192,14071,1,0,0:0:0:0:
256,192,14229,1,0,0:0:0:0:
153,192,14387,1,0,0:0:0:0:
51,192,14545,1,0,0:0:0:0:
460,192,14545,1,0,0:0:0:0:
256,192,14703,1,0,0:0:0:0:
51,192,14861,1,10,0:0:0:0:
153,192,14940,1,2,0:0:0:0:
460,192,15019,1,10,0:0:0:0:
358,192,15098,1,2,0:0:0:0:
256,192,15176,1,10,0:0:0:0:
153,192,15334,1,0,0:0:0:0:
460,192,15492,1,8,0:0:0:0:
51,192,15650,1,0,0:0:0:0:
256,192,15808,1,8,0:0:0:0:
358,192,15808,1,0,0:0:0:0:
51,192,16124,128,0,16440:0:0:0:0:
153,192,16124,1,8,0:0:0:0:
460,192,16440,128,0,16755:0:0:0:0:
358,192,16440,1,8,0:0:0:0:
256,192,16755,128,4,19282:0:0:0:0:
51,192,16755,1,0,0:0:0:0:
51,192,16913,1,4,0:0:0:0:
51,192,17071,1,4,0:0:0:0:
51,192,17229,1,4,0:0:0:0:
460,192,17387,1,4,0:0:0:0:
51,192,17545,1,4,0:0:0:0:
460,192,17703,1,4,0:0:0:0:
51,192,17861,1,4,0:0:0:0:
460,192,18019,1,4,0:0:0:0:
460,192,18176,1,4,0:0:0:0:
460,192,18334,1,4,0:0:0:0:
460,192,18492,1,4,0:0:0:0:
51,192,18650,1,4,0:0:0:0:
460,192,18808,1,4,0:0:0:0:
51,192,18966,1,4,0:0:0:0:
460,192,19282,1,8,0:0:0:0:
358,192,19361,1,8,0:0:0:0:
51,192,19440,1,8,0:0:0:0:
153,192,19519,1,8,0:0:0:0:
358,192,19598,1,8,0:0:0:0:
460,192,19676,1,8,0:0:0:0:
153,192,19755,1,8,0:0:0:0:
51,192,19834,1,8,0:0:0:0:
460,192,19913,1,8,0:0:0:0:
358,192,19992,1,8,0:0:0:0:
51,192,20071,1,8,0:0:0:0:
153,192,20150,1,8,0:0:0:0:
256,192,20229,128,0,20545:0:0:0:0:
153,192,20545,1,14,0:0:0:0:
358,192,20545,1,10,0:0:0:0:
51,192,20782,1,10,0:0:0:0:
460,192,20782,1,4,0:0:0:0:
153,192,21019,1,14,0:0:0:0:
358,192,21019,1,10,0:0:0:0:
51,192,21255,1,14,0:0:0:0:
460,192,21255,1,10,0:0:0:0:
153,192,21492,1,14,0:0:0:0:
358,192,21492,1,10,0:0:0:0:
51,192,21650,1,10,0:0:0:0:
460,192,21650,1,0,0:0:0:0:
358,192,21808,1,10,0:0:0:0:
153,192,21966,1,0,0:0:0:0:
256,192,22124,1,4,0:0:0:0:
358,192,22124,1,0,0:0:0:0:
51,192,22282,1,0,0:0:0:0:
460,192,22440,1,4,0:0:0:0:
256,192,22519,1,0,0:0:0:0:
153,192,22598,1,0,0:0:0:0:
51,192,22755,1,12,0:0:0:0:
256,192,22834,1,0,0:0:0:0:
358,192,22913,1,0,0:0:0:0:
153,192,23071,1,4,0:0:0:0:
256,192,23229,1,0,0:0:0:0:
153,192,23387,1,12,0:0:0:0:
460,192,23387,1,0,0:0:0:0:
256,192,23545,1,0,0:0:0:0:
51,192,23703,128,4,24019:0:0:0:0:
358,192,23703,1,4,0:0:0:0:
460,192,24019,128,4,24334:0:0:0:0:
153,192,24019,1,12,0:0:0:0:
358,192,24019,1,0,0:0:0:0:
153,192,24334,1,4,0:0:0:0:
256,192,24492,1,0,0:0:0:0:
256,192,24650,1,12,0:0:0:0:
153,192,24650,1,0,0:0:0:0:
460,192,24808,1,0,0:0:0:0:
256,192,24966,1,4,0:0:0:0:
153,192,25045,1,0,0:0:0:0:
460,192,25203,1,0,0:0:0:0:
153,192,25361,1,0,0:0:0:0:
256,192,25440,1,0,0:0:0:0:
51,192,25598,1,4,0:0:0:0:
460,192,25755,128,2,25913:0:0:0:0:
256,192,25913,1,12,0:0:0:0:
153,192,25992,1,8,0:0:0:0:
51,192,26071,1,8,0:0:0:0:
358,192,26229,1,0,0:0:0:0:
460,192,26229,1,0,0:0:0:0:
51,192,26387,1,0,0:0:0:0:
153,192,26387,1,0,0:0:0:0:
460,192,26545,1,0,0:0:0:0:
358,192,26624,1,0,0:0:0:0:
51,192,26703,1,8,0:0:0:0:
153,192,26782,1,8,0:0:0:0:
460,192,26861,1,4,0:0:0:0:
153,192,27019,1,0,0:0:0:0:
51,192,27176,1,12,0:0:0:0:
256,192,27176,1,12,0:0:0:0:
153,192,27334,1,0,0:0:0:0:
460,192,27492,1,4,0:0:0:0:
358,192,27571,1,0,0:0:0:0:
256,192,27650,1,0,0:0:0:0:
51,192,27808,1,12,0:0:0:0:
153,192,27887,1,0,0:0:0:0:
256,192,27966,1,0,0:0:0:0:
460,192,28124,1,4,0:0:0:0:
153,192,28282,1,0,0:0:0:0:
256,192,28440,1,12,0:0:0:0:
358,192,28440,1,0,0:0:0:0:
51,192,28598,1,0,0:0:0:0:
153,192,28755,1,2,0:0:0:0:
460,192,28755,1,8,0:0:0:0:
153,192,28913,1,2,0:0:0:0:
460,192,28913,1,8,0:0:0:0:
153,192,29071,1,2,0:0:0:0:
460,192,29071,1,8,0:0:0:0:
358,192,29150,1,0,0:0:0:0:
256,192,29229,1,0,0:0:0:0:
358,192,29308,1,0,0:0:0:0:
460,192,29387,1,4,0:0:0:0:
153,192,29387,1,4,0:0:0:0:
256,192,29545,1,0,0:0:0:0:
51,192,29703,1,12,0:0:0:0:
153,192,29703,1,4,0:0:0:0:
358,192,29861,1,0,0:0:0:0:
460,192,30019,1,4,0:0:0:0:
51,192,30098,1,0,0:0:0:0:
256,192,30255,1,0,0:0:0:0:
51,192,30413,1,0,0:0:0:0:
460,192,30492,1,0,0:0:0:0:
153,192,30650,1,0,0:0:0:0:
51,192,30808,128,8,30966:0:0:0:0:
256,192,30808,1,0,0:0:0:0:
358,192,30887,1,8,0:0:0:0:
460,192,30966,1,8,0:0:0:0:
460,192,31124,128,8,31282:0:0:0:0:
256,192,31124,1,8,0:0:0:0:
153,192,31203,1,8,0:0:0:0:
51,192,31282,128,8,31598:0:0:0:0:
460,192,31598,128,8,31913:0:0:0:0:
358,192,31598,1,8,0:0:0:0:
51,192,31913,1,4,0:0:0:0:
256,192,31913,1,0,0:0:0:0:
358,192,32071,1,0,0:0:0:0:
153,192,32229,1,12,0:0:0:0:
460,192,32229,1,0,0:0:0:0:
51,192,32387,1,0,0:0:0:0:
256,192,32545,1,4,0:0:0:0:
460,192,32624,1,0,0:0:0:0:
256,192,32782,1,0,0:0:0:0:
51,192,32940,1,0,0:0:0:0:
256,192,33019,1,0,0:0:0:0:
153,192,33176,1,4,0:0:0:0:
358,192,33334,1,0,0:0:0:0:
256,192,33492,1,12,0:0:0:0:
460,192,33492,1,0,0:0:0:0:
153,192,33650,1,0,0:0:0:0:
51,192,33808,128,4,34124:0:0:0:0:
358,192,33808,1,4,0:0:0:0:
256,192,33966,1,0,0:0:0:0:
460,192,34124,1,4,0:0:0:0:
358,192,34203,1,4,0:0:0:0:
51,192,34282,1,4,0:0:0:0:
153,192,34361,1,4,0:0:0:0:
460,192,34440,1,4,0:0:0:0:
256,192,34598,1,0,0:0:0:0:
51,192,34755,1,12,0:0:0:0:
358,192,34755,1,0,0:0:0:0:
256,192,34913,1,0,0:0:0:0:
358,192,35071,1,4,0:0:0:0:
153,192,35150,1,0,0:0:0:0:
256,192,35308,1,0,0:0:0:0:
51,192,35466,1,0,0:0:0:0:
460,192,35545,1,0,0:0:0:0:
153,192,35703,1,4,0:0:0:0:
256,192,35861,1,0,0:0:0:0:
358,192,36019,1,12,0:0:0:0:
460,192,36019,1,0,0:0:0:0:
153,192,36176,1,0,0:0:0:0:
51,192,36334,1,8,0:0:0:0:
460,192,36334,1,0,0:0:0:0:
460,192,36492,1,8,0:0:0:0:
51,192,36492,1,0,0:0:0:0:
256,192,36650,1,8,0:0:0:0:
358,192,36729,1,8,0:0:0:0:
153,192,36808,1,8,0:0:0:0:
256,192,36887,1,8,0:0:0:0:
51,192,36966,1,4,0:0:0:0:
358,192,37124,1,0,0:0:0:0:
153,192,37282,1,12,0:0:0:0:
460,192,37282,1,8,0:0:0:0:
358,192,37440,1,0,0:0:0:0:
153,192,37598,1,4,0:0:0:0:
358,192,37676,1,0,0:0:0:0:
460,192,37755,1,0,0:0:0:0:
358,192,37913,1,12,0:0:0:0:
153,192,37992,1,0,0:0:0:0:
51,192,38071,1,0,0:0:0:0:
256,192,38229,1,4,0:0:0:0:
460,192,38229,1,4,0:0:0:0:
153,192,38387,1,0,0:0:0:0:
51,192,38545,1,12,0:0:0:0:
358,192,38545,1,4,0:0:0:0:
256,192,38703,1,0,0:0:0:0:
460,192,38861,1,0,0:0:0:0:
358,192,38940,1,4,0:0:0:0:
51,192,39019,1,4,0:0:0:0:
153,192,39098,1,4,0:0:0:0:
460,192,39176,1,4,0:0:0:0:
51,192,39255,1,4,0:0:0:0:
358,192,39334,1,4,0:0:0:0:
153,192,39413,1,4,0:0:0:0:
256,192,39492,1,4,0:0:0:0:
256,192,39650,1,4,0:0:0:0:
358,192,39808,1,8,0:0:0:0:
358,192,39966,1,0,0:0:0:0:
153,192,40124,1,4,0:0:0:0:
153,192,40282,1,4,0:0:0:0:
460,192,40440,1,8,0:0:0:0:
460,192,40598,1,0,0:0:0:0:
51,192,40755,1,8,0:0:0:0:
51,192,40913,1,4,0:0:0:0:
256,192,41071,128,12,41387:0:0:0:0:
153,192,41387,128,2,41624:0:0:0:0:
358,192,41624,128,2,41861:0:0:0:0:
51,192,41861,1,2,0:0:0:0:
256,192,41861,1,0,0:0:0:0:
51,192,42019,128,0,42966:0:0:0:0:
460,192,42019,1,8,0:0:0:0:
460,192,42255,1,8,0:0:0:0:
256,192,42255,1,0,0:0:0:0:
358,192,42492,1,8,0:0:0:0:
460,192,42966,128,8,43913:0:0:0:0:
358,192,42966,1,8,0:0:0:0:
153,192,43203,1,8,0:0:0:0:
358,192,43203,1,0,0:0:0:0:
256,192,43440,1,8,0:0:0:0:
51,192,43676,1,8,0:0:0:0:
256,192,43676,1,0,0:0:0:0:
256,192,43913,128,0,44703:0:0:0:0:
51,192,43913,1,8,0:0:0:0:
51,192,44150,1,8,0:0:0:0:
153,192,44150,1,0,0:0:0:0:
460,192,44387,1,8,0:0:0:0:
51,192,44387,1,8,0:0:0:0:
153,192,44703,128,2,44861:0:0:0:0:
358,192,44703,128,2,44861:0:0:0:0:
51,192,44861,1,2,0:0:0:0:
460,192,44861,1,0,0:0:0:0:
51,192,45334,128,8,45571:0:0:0:0:
460,192,45334,1,0,0:0:0:0:
256,192,45571,128,8,45808:0:0:0:0:
358,192,45571,1,0,0:0:0:0:
460,192,45808,128,8,46045:0:0:0:0:
51,192,45808,1,0,0:0:0:0:
358,192,46045,128,8,46282:0:0:0:0:
153,192,46045,1,0,0:0:0:0:
153,192,46282,128,0,46519:0:0:0:0:
256,192,46282,1,8,0:0:0:0:
153,192,46755,1,10,0:0:0:0:
358,192,46755,1,2,0:0:0:0:
256,192,46913,1,10,0:0:0:0:
153,192,46992,1,10,0:0:0:0:
358,192,46992,1,0,0:0:0:0:
153,192,47229,128,10,47466:0:0:0:0:
358,192,47466,128,10,47703:0:0:0:0:
256,192,47703,128,8,47861:0:0:0:0:
460,192,47861,128,2,48098:0:0:0:0:
51,192,48098,128,8,48334:0:0:0:0:
358,192,48334,128,10,48571:0:0:0:0:
153,192,48571,128,10,48808:0:0:0:0:
256,192,48808,128,2,48966:0:0:0:0:
51,192,48966,1,10,0:0:0:0:
460,192,48966,1,2,0:0:0:0:
153,192,49203,1,8,0:0:0:0:
358,192,49203,1,0,0:0:0:0:
51,192,49440,1,8,0:0:0:0:
256,192,49440,1,2,0:0:0:0:
358,192,49676,1,10,0:0:0:0:
51,192,49676,128,8,50387:0:0:0:0:
153,192,49676,1,0,0:0:0:0:
460,192,49913,1,8,0:0:0:0:
256,192,49913,1,2,0:0:0:0:
256,192,50229,128,2,50387:0:0:0:0:
460,192,50387,1,10,0:0:0:0:
153,192,50624,1,8,0:0:0:0:
256,192,50624,1,0,0:0:0:0:
460,192,50861,128,8,51808:0:0:0:0:
51,192,50861,1,8,0:0:0:0:
358,192,50861,1,0,0:0:0:0:
153,192,51098,1,8,0:0:0:0:
358,192,51098,1,0,0:0:0:0:
51,192,51334,1,8,0:0:0:0:
256,192,51334,1,8,0:0:0:0:
256,192,51650,128,2,51808:0:0:0:0:
51,192,51808,1,10,0:0:0:0:
153,192,51887,1,2,0:0:0:0:
256,192,51966,1,2,0:0:0:0:
358,192,52045,1,2,0:0:0:0:
51,192,52124,128,2,52440:0:0:0:0:
460,192,52124,1,0,0:0:0:0:
256,192,52440,1,10,0:0:0:0:
358,192,52440,1,2,0:0:0:0:
460,192,52676,128,10,52913:0:0:0:0:
153,192,52676,1,2,0:0:0:0:
256,192,52913,1,8,0:0:0:0:
358,192,52913,1,0,0:0:0:0:
153,192,53071,128,10,53387:0:0:0:0:
460,192,53071,1,2,0:0:0:0:
51,192,53387,1,10,0:0:0:0:
256,192,53387,1,2,0:0:0:0:
358,192,53624,128,10,53861:0:0:0:0:
153,192,53624,1,2,0:0:0:0:
51,192,53861,1,10,0:0:0:0:
256,192,53861,1,2,0:0:0:0:
153,192,54098,128,10,54334:0:0:0:0:
358,192,54098,1,2,0:0:0:0:
256,192,54334,1,10,0:0:0:0:
460,192,54334,1,2,0:0:0:0:
358,192,54571,128,10,54808:0:0:0:0:
256,192,54571,1,2,0:0:0:0:
153,192,54808,1,10,0:0:0:0:
460,192,54808,1,2,0:0:0:0:
51,192,55045,128,10,55282:0:0:0:0:
153,192,55045,1,2,0:0:0:0:
256,192,55282,1,10,0:0:0:0:
460,192,55282,1,2,0:0:0:0:
460,192,55519,128,10,55755:0:0:0:0:
358,192,55519,1,2,0:0:0:0:
51,192,55755,1,10,0:0:0:0:
256,192,55755,1,2,0:0:0:0:
51,192,55992,128,10,56229:0:0:0:0:
358,192,55992,1,2,0:0:0:0:
153,192,56229,1,10,0:0:0:0:
256,192,56229,1,2,0:0:0:0:
460,192,56466,128,10,56703:0:0:0:0:
153,192,56466,1,2,0:0:0:0:
256,192,56703,1,8,0:0:0:0:
358,192,56703,1,0,0:0:0:0:
256,192,56861,128,10,57019:0:0:0:0:
51,192,57176,128,10,57413:0:0:0:0:
153,192,57176,1,8,0:0:0:0:
460,192,57413,128,10,57650:0:0:0:0:
256,192,57413,1,2,0:0:0:0:
153,192,57650,1,10,0:0:0:0:
358,192,57650,1,2,0:0:0:0:
51,192,57966,128,10,58124:0:0:0:0:
153,192,57966,1,2,0:0:0:0:
460,192,58124,128,10,58361:0:0:0:0:
358,192,58124,1,2,0:0:0:0:
51,192,58361,128,2,58598:0:0:0:0:
256,192,58361,1,0,0:0:0:0:
358,192,58598,128,10,58755:0:0:0:0:
460,192,58598,1,2,0:0:0:0:
153,192,58755,128,10,59071:0:0:0:0:
51,192,58755,1,2,0:0:0:0:
460,192,59071,1,10,0:0:0:0:
358,192,59071,1,8,0:0:0:0:
358,192,59308,128,10,59545:0:0:0:0:
256,192,59308,1,2,0:0:0:0:
153,192,59545,128,2,59782:0:0:0:0:
460,192,59545,1,0,0:0:0:0:
51,192,59782,1,10,0:0:0:0:
256,192,59782,1,2,0:0:0:0:
153,192,60019,128,10,60255:0:0:0:0:
256,192,60019,1,2,0:0:0:0:
358,192,60255,128,10,60492:0:0:0:0:
51,192,60255,1,2,0:0:0:0:
460,192,60492,1,10,0:0:0:0:
256,192,60492,1,2,0:0:0:0:
51,192,60808,1,10,0:0:0:0:
358,192,60808,1,2,0:0:0:0:
256,192,60887,1,0,0:0:0:0:
153,192,61124,1,10,0:0:0:0:
460,192,61124,1,2,0:0:0:0:
51,192,61282,1,10,0:0:0:0:
256,192,61282,1,2,0:0:0:0:
153,192,61440,1,10,0:0:0:0:
358,192,61440,1,8,0:0:0:0:
256,192,61519,1,10,0:0:0:0:
153,192,61755,1,8,0:0:0:0:
358,192,61755,1,0,0:0:0:0:
256,192,61834,128,0,62229:0:0:0:0:
51,192,62229,1,0,0:0:0:0:
460,192,62229,1,0,0:0:0:0:
51,192,64755,128,0,66019:0:0:0:0:
460,192,65387,128,0,66019:0:0:0:0:
358,192,66019,128,0,67282:0:0:0:0:
153,192,66650,128,0,67282:0:0:0:0:
51,192,67282,1,0,0:0:0:0:
51,192,67440,1,0,0:0:0:0:
153,192,67598,1,0,0:0:0:0:
153,192,67755,1,0,0:0:0:0:
256,192,67913,1,4,0:0:0:0:
256,192,68071,1,4,0:0:0:0:
358,192,68229,1,12,0:0:0:0:
153,192,68308,1,8,0:0:0:0:
460,192,68387,1,8,0:0:0:0:
51,192,68466,1,8,0:0:0:0:
460,192,68545,1,12,0:0:0:0:
460,192,68703,1,4,0:0:0:0:
358,192,68861,1,4,0:0:0:0:
358,192,69019,1,4,0:0:0:0:
256,192,69176,1,4,0:0:0:0:
256,192,69334,1,4,0:0:0:0:
153,192,69492,1,4,0:0:0:0:
358,192,69571,1,0,0:0:0:0:
51,192,69650,1,4,0:0:0:0:
460,192,69729,1,0,0:0:0:0:
256,192,69808,1,4,0:0:0:0:
51,192,69887,1,0,0:0:0:0:
256,192,69966,1,8,0:0:0:0:
460,192,70045,1,8,0:0:0:0:
358,192,70124,1,8,0:0:0:0:
153,192,70203,1,8,0:0:0:0:
51,192,70282,1,8,0:0:0:0:
358,192,70361,1,8,0:0:0:0:
460,192,70440,1,8,0:0:0:0:
51,192,70519,1,8,0:0:0:0:
153,192,70598,1,8,0:0:0:0:
256,192,70676,1,8,0:0:0:0:
153,192,70755,1,8,0:0:0:0:
460,192,70834,1,8,0:0:0:0:
358,192,70913,1,8,0:0:0:0:
256,192,70992,1,8,0:0:0:0:
153,192,71071,1,4,0:0:0:0:
358,192,71071,1,4,0:0:0:0:
51,192,72334,1,12,0:0:0:0:
358,192,72334,1,0,0:0:0:0:
153,192,72492,1,0,0:0:0:0:
460,192,72650,1,12,0:0:0:0:
256,192,72650,1,0,0:0:0:0:
153,192,72808,1,0,0:0:0:0:
51,192,72966,128,4,73282:0:0:0:0:
460,192,72966,1,4,0:0:0:0:
256,192,73124,1,0,0:0:0:0:
358,192,73282,1,12,0:0:0:0:
256,192,73440,128,0,73598:0:0:0:0:
51,192,73598,1,0,0:0:0:0:
153,192,73676,1,0,0:0:0:0:
51,192,73755,1,0,0:0:0:0:
153,192,73913,1,4,0:0:0:0:
256,192,74071,128,0,74229:0:0:0:0:
460,192,74229,1,0,0:0:0:0:
358,192,74308,1,0,0:0:0:0:
460,192,74387,1,0,0:0:0:0:
358,192,74545,1,4,0:0:0:0:
256,192,74703,128,0,74861:0:0:0:0:
51,192,74861,1,4,0:0:0:0:
358,192,74861,1,4,0:0:0:0:
153,192,75019,1,0,0:0:0:0:
358,192,75176,1,12,0:0:0:0:
51,192,75176,1,0,0:0:0:0:
256,192,75334,1,0,0:0:0:0:
460,192,75492,128,4,75729:0:0:0:0:
153,192,75492,1,0,0:0:0:0:
358,192,75729,128,0,75966:0:0:0:0:
51,192,75808,1,12,0:0:0:0:
256,192,75966,128,0,76124:0:0:0:0:
153,192,76124,1,4,0:0:0:0:
358,192,76282,1,0,0:0:0:0:
51,192,76440,1,8,0:0:0:0:
256,192,76440,1,4,0:0:0:0:
51,192,76598,1,8,0:0:0:0:
256,192,76598,1,4,0:0:0:0:
460,192,76755,1,4,0:0:0:0:
358,192,76834,1,4,0:0:0:0:
460,192,76913,1,4,0:0:0:0:
51,192,76992,1,4,0:0:0:0:
153,192,77071,1,4,0:0:0:0:
51,192,77150,1,4,0:0:0:0:
256,192,77229,1,10,0:0:0:0:
153,192,77387,1,4,0:0:0:0:
460,192,77387,1,4,0:0:0:0:
256,192,77545,1,0,0:0:0:0:
51,192,77703,1,12,0:0:0:0:
358,192,77703,1,0,0:0:0:0:
460,192,77861,1,0,0:0:0:0:
256,192,78019,128,4,78334:0:0:0:0:
51,192,78019,1,4,0:0:0:0:
358,192,78176,1,0,0:0:0:0:
460,192,78334,1,12,0:0:0:0:
153,192,78492,1,0,0:0:0:0:
256,192,78650,1,4,0:0:0:0:
51,192,78650,1,4,0:0:0:0:
460,192,78808,1,0,0:0:0:0:
51,192,78966,1,12,0:0:0:0:
358,192,78966,1,0,0:0:0:0:
153,192,79124,1,0,0:0:0:0:
51,192,79282,128,0,79440:0:0:0:0:
460,192,79282,128,0,79440:0:0:0:0:
256,192,79440,128,0,79598:0:0:0:0:
51,192,79598,128,0,79755:0:0:0:0:
460,192,79598,128,0,79755:0:0:0:0:
256,192,79755,128,0,79913:0:0:0:0:
153,192,79913,1,4,0:0:0:0:
358,192,79913,1,4,0:0:0:0:
51,192,80071,1,0,0:0:0:0:
460,192,80229,1,4,0:0:0:0:
256,192,80308,1,4,0:0:0:0:
460,192,80387,1,4,0:0:0:0:
256,192,80466,1,4,0:0:0:0:
358,192,80545,1,12,0:0:0:0:
460,192,80703,1,0,0:0:0:0:
51,192,80861,1,4,0:0:0:0:
256,192,80940,1,4,0:0:0:0:
51,192,81019,1,4,0:0:0:0:
256,192,81098,1,4,0:0:0:0:
153,192,81176,1,12,0:0:0:0:
256,192,81334,1,8,0:0:0:0:
460,192,81334,1,8,0:0:0:0:
153,192,81492,1,8,0:0:0:0:
358,192,81492,1,0,0:0:0:0:
256,192,81729,1,8,0:0:0:0:
153,192,81808,1,8,0:0:0:0:
358,192,81808,1,0,0:0:0:0:
256,192,81966,1,8,0:0:0:0:
51,192,82045,1,8,0:0:0:0:
460,192,82045,1,0,0:0:0:0:
256,192,82124,1,8,0:0:0:0:
51,192,82203,1,8,0:0:0:0:
460,192,82203,1,0,0:0:0:0:
256,192,82282,1,8,0:0:0:0:
51,192,82361,1,8,0:0:0:0:
460,192,82361,1,0,0:0:0:0:
256,192,82440,1,8,0:0:0:0:
51,192,82598,1,0,0:0:0:0:
460,192,82755,1,12,0:0:0:0:
358,192,82913,1,0,0:0:0:0:
51,192,83071,1,0,0:0:0:0:
153,192,83150,1,0,0:0:0:0:
460,192,83229,1,0,0:0:0:0:
358,192,83308,1,0,0:0:0:0:
153,192,83387,1,4,0:0:0:0:
51,192,83466,1,4,0:0:0:0:
358,192,83545,1,4,0:0:0:0:
460,192,83624,1,4,0:0:0:0:
51,192,83703,1,12,0:0:0:0:
256,192,83703,1,0,0:0:0:0:
358,192,83861,128,0,84019:0:0:0:0:
460,192,83861,1,0,0:0:0:0:
153,192,84019,1,12,0:0:0:0:
256,192,84176,1,0,0:0:0:0:
51,192,84334,1,10,0:0:0:0:
153,192,84492,128,10,84650:0:0:0:0:
460,192,84492,1,10,0:0:0:0:
358,192,84650,1,10,0:0:0:0:
460,192,84808,1,10,0:0:0:0:
51,192,84808,1,2,0:0:0:0:
358,192,84966,1,4,0:0:0:0:
51,192,85124,1,0,0:0:0:0:
460,192,85282,1,12,0:0:0:0:
256,192,85282,1,12,0:0:0:0:
358,192,85440,1,0,0:0:0:0:
256,192,85598,1,0,0:0:0:0:
51,192,85676,1,0,0:0:0:0:
460,192,85755,1,0,0:0:0:0:
256,192,85834,1,0,0:0:0:0:
153,192,85913,1,4,0:0:0:0:
358,192,85992,1,4,0:0:0:0:
153,192,86071,1,4,0:0:0:0:
358,192,86150,1,4,0:0:0:0:
153,192,86229,1,12,0:0:0:0:
460,192,86387,1,0,0:0:0:0:
51,192,86387,128,0,86545:0:0:0:0:
256,192,86545,1,12,0:0:0:0:
358,192,86703,1,0,0:0:0:0:
256,192,86861,1,10,0:0:0:0:
460,192,87019,128,10,87176:0:0:0:0:
153,192,87019,1,8,0:0:0:0:
256,192,87176,1,10,0:0:0:0:
358,192,87334,1,8,0:0:0:0:
153,192,87334,1,2,0:0:0:0:
51,192,87492,1,4,0:0:0:0:
460,192,87650,1,0,0:0:0:0:
51,192,87808,1,12,0:0:0:0:
256,192,87808,1,4,0:0:0:0:
358,192,87966,1,0,0:0:0:0:
51,192,88124,1,0,0:0:0:0:
153,192,88203,1,0,0:0:0:0:
460,192,88282,1,0,0:0:0:0:
358,192,88361,1,0,0:0:0:0:
51,192,88440,1,4,0:0:0:0:
153,192,88519,1,4,0:0:0:0:
460,192,88598,1,4,0:0:0:0:
358,192,88676,1,4,0:0:0:0:
51,192,88755,1,12,0:0:0:0:
256,192,88913,1,0,0:0:0:0:
460,192,89071,1,12,0:0:0:0:
358,192,89071,1,0,0:0:0:0:
256,192,89229,1,0,0:0:0:0:
51,192,89387,128,8,89545:0:0:0:0:
460,192,89387,128,2,89545:0:0:0:0:
153,192,89545,1,8,0:0:0:0:
358,192,89545,1,0,0:0:0:0:
51,192,89703,128,8,89861:0:0:0:0:
460,192,89703,128,2,89861:0:0:0:0:
153,192,89861,1,10,0:0:0:0:
358,192,89861,1,2,0:0:0:0:
51,192,90019,128,10,90650:0:0:0:0:
256,192,90019,1,0,0:0:0:0:
460,192,90650,128,2,91282:0:0:0:0:
256,192,90650,1,0,0:0:0:0:
153,192,91282,128,10,91598:0:0:0:0:
51,192,91282,1,2,0:0:0:0:
358,192,91598,128,10,91913:0:0:0:0:
460,192,91598,1,2,0:0:0:0:
153,192,91913,128,10,92071:0:0:0:0:
51,192,91913,1,2,0:0:0:0:
358,192,92071,128,4,92229:0:0:0:0:
460,192,92071,1,0,0:0:0:0:
256,192,92229,128,0,92604:0:0:0:0:
51,192,92604,128,4,93551:0:0:0:0:
153,192,92761,1,0,0:0:0:0:
460,192,92919,128,12,93551:0:0:0:0:
358,192,93077,1,0,0:0:0:0:
256,192,93235,128,4,93551:0:0:0:0:
51,192,93867,1,4,0:0:0:0:
358,192,93867,1,4,0:0:0:0:
256,192,94025,1,0,0:0:0:0:
358,192,94182,1,12,0:0:0:0:
460,192,94182,1,0,0:0:0:0:
256,192,94340,1,0,0:0:0:0:
51,192,94498,1,4,0:0:0:0:
358,192,94498,1,4,0:0:0:0:
256,192,94656,1,4,0:0:0:0:
460,192,94656,1,0,0:0:0:0:
153,192,94814,1,8,0:0:0:0:
51,192,94814,1,12,0:0:0:0:
256,192,94972,1,4,0:0:0:0:
358,192,94972,1,4,0:0:0:0:
460,192,95130,128,4,96077:0:0:0:0:
358,192,95288,1,0,0:0:0:0:
51,192,95446,128,12,96077:0:0:0:0:
153,192,95604,1,0,0:0:0:0:
256,192,95761,128,0,96077:0:0:0:0:
153,192,96393,1,4,0:0:0:0:
256,192,96393,1,4,0:0:0:0:
358,192,96551,1,0,0:0:0:0:
51,192,96709,1,12,0:0:0:0:
460,192,96709,1,12,0:0:0:0:
358,192,96867,1,0,0:0:0:0:
153,192,97025,1,4,0:0:0:0:
256,192,97025,1,4,0:0:0:0:
358,192,97182,1,4,0:0:0:0:
460,192,97182,1,4,0:0:0:0:
153,192,97340,1,8,0:0:0:0:
51,192,97340,1,4,0:0:0:0:
256,192,97498,1,4,0:0:0:0:
358,192,97498,1,4,0:0:0:0:
51,192,97656,128,4,97972:0:0:0:0:
153,192,97656,1,4,0:0:0:0:
256,192,97814,1,0,0:0:0:0:
460,192,97972,128,4,98288:0:0:0:0:
153,192,97972,1,12,0:0:0:0:
256,192,98130,1,0,0:0:0:0:
51,192,98288,128,4,98446:0:0:0:0:
153,192,98288,1,4,0:0:0:0:
256,192,98604,1,4,0:0:0:0:
358,192,98604,1,12,0:0:0:0:
51,192,98761,1,0,0:0:0:0:
460,192,98919,128,4,99235:0:0:0:0:
256,192,98919,1,4,0:0:0:0:
153,192,98919,1,0,0:0:0:0:
358,192,99077,1,0,0:0:0:0:
51,192,99235,128,12,99551:0:0:0:0:
256,192,99235,1,4,0:0:0:0:
358,192,99393,1,0,0:0:0:0:
460,192,99551,128,0,99788:0:0:0:0:
256,192,99551,1,0,0:0:0:0:
51,192,99788,1,8,0:0:0:0:
153,192,99788,1,8,0:0:0:0:
51,192,100120,128,4,100751:0:0:0:0:
256,192,100120,1,4,0:0:0:0:
256,192,100277,1,4,0:0:0:0:
358,192,100435,1,8,0:0:0:0:
358,192,100593,1,4,0:0:0:0:
460,192,100751,128,0,101383:0:0:0:0:
256,192,100751,1,4,0:0:0:0:
256,192,100909,1,4,0:0:0:0:
153,192,101067,1,8,0:0:0:0:
153,192,101225,1,4,0:0:0:0:
51,192,101383,128,4,102014:0:0:0:0:
358,192,101383,1,4,0:0:0:0:
358,192,101541,1,4,0:0:0:0:
153,192,101698,1,12,0:0:0:0:
153,192,101856,1,4,0:0:0:0:
256,192,102014,1,8,0:0:0:0:
256,192,102172,1,8,0:0:0:0:
460,192,102330,1,4,0:0:0:0:
358,192,102330,1,4,0:0:0:0:
256,192,102409,1,4,0:0:0:0:
153,192,102488,1,4,0:0:0:0:
51,192,102488,1,4,0:0:0:0:
256,192,102646,1,4,0:0:0:0:
460,192,102646,1,0,0:0:0:0:
153,192,102883,1,0,0:0:0:0:
51,192,102962,1,0,0:0:0:0:
256,192,102962,1,0,0:0:0:0:
358,192,103120,1,0,0:0:0:0:
460,192,103120,1,0,0:0:0:0:
153,192,103277,1,0,0:0:0:0:
358,192,103277,1,0,0:0:0:0:
51,192,103435,1,0,0:0:0:0:
153,192,103435,1,0,0:0:0:0:
256,192,103593,1,0,0:0:0:0:
460,192,103593,1,0,0:0:0:0:
51,192,103751,1,0,0:0:0:0:
358,192,103751,1,0,0:0:0:0:
460,192,103909,128,0,104225:0:0:0:0:
153,192,103909,1,0,0:0:0:0:
153,192,104067,1,0,0:0:0:0:
51,192,104225,128,0,104541:0:0:0:0:
358,192,104225,1,0,0:0:0:0:
358,192,104383,1,0,0:0:0:0:
460,192,104541,128,0,105172:0:0:0:0:
153,192,104541,1,0,0:0:0:0:
358,192,104698,1,0,0:0:0:0:
256,192,104856,1,4,0:0:0:0:
51,192,104935,1,4,0:0:0:0:
256,192,105014,1,4,0:0:0:0:
153,192,105172,1,8,0:0:0:0:
358,192,105172,1,8,0:0:0:0:
153,192,105330,1,8,0:0:0:0:
358,192,105330,1,8,0:0:0:0:
51,192,105567,1,6,0:0:0:0:
256,192,105567,1,2,0:0:0:0:
256,192,105804,1,6,0:0:0:0:
460,192,105804,1,0,0:0:0:0:
51,192,106041,1,6,0:0:0:0:
153,192,106041,1,2,0:0:0:0:
358,192,106277,1,6,0:0:0:0:
460,192,106277,1,0,0:0:0:0:
153,192,106514,1,6,0:0:0:0:
256,192,106514,1,6,0:0:0:0:
256,192,106751,1,6,0:0:0:0:
358,192,106751,1,6,0:0:0:0:
51,192,106988,1,6,0:0:0:0:
358,192,106988,1,4,0:0:0:0:
153,192,107225,1,6,0:0:0:0:
460,192,107225,1,0,0:0:0:0:
358,192,107383,1,0,0:0:0:0:
153,192,107462,1,6,0:0:0:0:
358,192,107541,1,0,0:0:0:0:
153,192,107620,1,0,0:0:0:0:
358,192,107698,1,4,0:0:0:0:
51,192,107856,1,4,0:0:0:0:
256,192,107856,1,0,0:0:0:0:
358,192,108014,1,4,0:0:0:0:
460,192,108014,1,0,0:0:0:0:
153,192,108172,1,4,0:0:0:0:
256,192,108172,1,0,0:0:0:0:
460,192,108330,128,4,108646:0:0:0:0:
51,192,108330,1,0,0:0:0:0:
256,192,108488,1,4,0:0:0:0:
153,192,108646,1,4,0:0:0:0:
256,192,108804,1,4,0:0:0:0:
358,192,108804,1,0,0:0:0:0:
153,192,108962,1,4,0:0:0:0:
460,192,108962,1,4,0:0:0:0:
51,192,109120,1,4,0:0:0:0:
358,192,109120,1,4,0:0:0:0:
153,192,109277,1,4,0:0:0:0:
256,192,109277,1,4,0:0:0:0:
358,192,109435,1,4,0:0:0:0:
51,192,109435,1,4,0:0:0:0:
51,192,109593,128,4,109909:0:0:0:0:
153,192,109593,1,0,0:0:0:0:
358,192,109751,1,4,0:0:0:0:
460,192,109909,1,8,0:0:0:0:
153,192,109988,1,8,0:0:0:0:
358,192,110067,1,8,0:0:0:0:
51,192,110146,1,8,0:0:0:0:
358,192,110225,1,14,0:0:0:0:
256,192,110225,1,0,0:0:0:0:
51,192,110541,128,6,110777:0:0:0:0:
358,192,110541,1,6,0:0:0:0:
153,192,110777,1,6,0:0:0:0:
256,192,110777,1,6,0:0:0:0:
460,192,111014,128,6,111251:0:0:0:0:
153,192,111014,1,6,0:0:0:0:
358,192,111251,1,4,0:0:0:0:
256,192,111251,1,2,0:0:0:0:
153,192,111488,128,6,111725:0:0:0:0:
51,192,111488,1,6,0:0:0:0:
460,192,111725,1,6,0:0:0:0:
256,192,111725,1,2,0:0:0:0:
358,192,111962,128,6,112277:0:0:0:0:
460,192,111962,1,6,0:0:0:0:
51,192,112277,1,6,0:0:0:0:
256,192,112277,1,4,0:0:0:0:
51,192,112514,128,4,112751:0:0:0:0:
153,192,112514,1,2,0:0:0:0:
460,192,112751,128,6,112988:0:0:0:0:
358,192,112751,1,4,0:0:0:0:
153,192,112988,128,6,113225:0:0:0:0:
256,192,112988,1,6,0:0:0:0:
358,192,113225,128,6,113462:0:0:0:0:
51,192,113225,1,6,0:0:0:0:
460,192,113462,1,6,0:0:0:0:
51,192,113698,1,6,0:0:0:0:
460,192,113698,1,6,0:0:0:0:
256,192,113856,1,4,0:0:0:0:
51,192,114014,1,4,0:0:0:0:
460,192,114014,1,4,0:0:0:0:
153,192,114172,1,6,0:0:0:0:
358,192,114172,1,6,0:0:0:0:
