osu file format v12

[General]
AudioFilename: Max Burning!!SDVX.mp3
AudioLeadIn: 0
PreviewTime: 73617
Countdown: 1
SampleSet: Normal
StackLeniency: 0.7
Mode: 0
LetterboxInBreaks: 1
WidescreenStoryboard: 0

[Editor]
Bookmarks: 20407,89722
DistanceSpacing: 0.6
BeatDivisor: 4
GridSize: 4

[Metadata]
Title:Max Burning!!
TitleUnicode:Max Burning!!
Artist:BlackY
ArtistUnicode:BlackY
Creator:BluOxy
Version:Extra
Source:SOUND VOLTEX
Tags:
BeatmapID:271534
BeatmapSetID:102893

[Difficulty]
HPDrainRate:7
CircleSize:4
OverallDifficulty:7
ApproachRate:9
SliderMultiplier:1.8
SliderTickRate:1

[Events]
//Background and Video events
0,0,"15729180_b.jpg",0,0
//Break Periods
//Storyboard Layer 0 (Background)
//Storyboard Layer 1 (Fail)
//Storyboard Layer 2 (Pass)
//Storyboard Layer 3 (Foreground)
//Storyboard Sound Samples
//Background Colour Transformations
3,100,163,162,255

[TimingPoints]
2881,315.789473684211,4,1,1,43,1,0
7302,-100,4,1,1,90,0,1
7933,-100,4,1,1,43,0,0
12354,-66.6666666666667,4,1,1,90,0,1
12986,-100,4,1,1,65,0,0
18038,-100,4,1,1,75,0,0
20565,-100,4,1,1,70,0,0
21828,-100,4,1,1,90,0,1
23091,-100,4,1,1,60,0,0
25144,-66.6666666666667,4,1,1,80,0,0
25617,-100,4,1,1,60,0,0
30196,-66.6666666666667,4,1,1,80,0,0
30512,-100,4,1,1,60,0,0
31933,-100,4,1,1,80,0,0
33196,-100,4,1,1,80,0,1
38249,-100,4,1,1,80,0,0
40144,-50,4,1,1,80,0,0
40775,-100,4,1,1,80,0,0
43302,-100,4,1,1,100,0,1
43402,-100,4,1,1,70,0,1
45986,-100,4,1,1,80,0,1
47328,-100,4,1,1,70,0,1
47565,-100,4,1,1,60,0,1
48196,-100,4,1,1,70,0,1
50959,-100,4,1,1,75,0,1
52933,-100,4,1,1,50,0,0
53407,-50,4,1,2,70,0,1
56565,-50,4,1,2,73,0,1
58459,-50,4,1,2,75,0,1
60828,-50,4,1,2,78,0,1
63512,-100,4,1,1,70,0,0
63512,-100,4,1,1,90,0,0
66038,-100,4,1,1,60,0,0
67302,-100,4,1,1,60,0,0
68565,-100,4,1,1,70,0,0
69828,-100,4,1,1,73,0,0
70617,-100,4,1,1,75,0,0
71091,-100,4,1,1,78,0,0
71723,-100,4,1,1,80,0,0
73302,-100,4,1,1,83,0,0
73617,-83.3333333333333,4,1,1,80,0,1
81196,-100,4,1,1,70,0,0
81828,-100,4,1,1,60,0,0
82459,-100,4,1,1,58,0,0
83091,-100,4,1,1,55,0,0
83248,-100,4,1,1,63,0,0
83406,-100,4,1,1,71,0,0
83564,-100,4,1,1,80,0,1
83723,-83.3333333333333,4,1,1,80,0,1
91302,-100,4,1,1,75,0,0
91933,-100,4,1,1,70,0,0
92565,-100,4,1,1,65,0,0
93196,-100,4,1,1,60,0,0
93512,4000,4,1,1,80,1,0
93748,-100,4,1,1,5,0,0
93827,315.789473684211,4,1,1,100,1,1
93827,-62.5,4,1,1,80,0,1
95090,-71.4285714285714,4,1,1,80,0,1
98879,-62.5,4,1,1,80,0,1
101405,-55.5555555555556,4,1,1,83,0,1
102037,-55.5555555555556,4,1,1,85,0,1
102669,-55.5555555555556,4,1,1,88,0,1
103300,-55.5555555555556,4,1,1,90,0,1
103932,-50,4,1,1,90,0,1
106458,-50,4,1,1,80,0,1
108669,-50,4,1,1,90,0,1
108984,-50,4,1,1,80,0,1
110248,-50,4,1,1,86,0,1
110879,-50,4,1,1,93,0,1
111511,-50,4,1,1,100,0,1
113248,-50,4,1,1,85,0,1
113563,-50,4,1,1,100,0,1
114511,-50,4,1,1,90,0,1
114984,-50,4,1,1,80,0,1
115300,-50,4,1,1,90,0,1
115458,-50,4,1,1,100,0,1
115537,-50,4,1,1,5,0,0

[Colours]
Combo1 : 255,0,0
Combo2 : 255,128,64
Combo3 : 255,128,0
Combo4 : 255,68,68

[HitObjects]
348,172,2881,1,4,0:0:0:0:
312,56,3038,1,0,0:0:0:0:
392,96,3196,1,0,0:0:0:0:
268,132,3354,1,0,0:0:0:0:
392,96,3512,2,0,B|432:72|432:72|496:72,1,90
268,132,3828,2,0,B|228:156|228:156|168:156,1,90
124,224,4144,5,0,0:0:0:0:
104,320,4302,1,0,0:0:0:0:
40,260,4459,1,0,0:0:0:0:
188,284,4617,1,0,0:0:0:0:
40,260,4775,2,0,B|40:196|40:196|64:172,1,90
188,284,5091,2,0,B|188:352|188:352|168:376,1,90
128,120,5407,5,0,0:0:0:0:
164,92,5565,1,0,0:0:0:0:
200,64,5723,1,0,0:0:0:0:
236,36,5881,1,0,0:0:0:0:
392,64,6038,1,0,0:0:0:0:
356,90,6196,1,0,0:0:0:0:
320,116,6354,1,0,0:0:0:0:
284,144,6512,1,0,0:0:0:0:
144,260,6670,6,0,B|148:236|148:236|172:240|172:240|224:204,1,90
220,304,6986,2,0,B|220:328|220:328|192:328|192:328|152:360,1,90
336,264,7302,6,2,B|348:276|348:276|460:276,1,90
220,140,7617,2,2,B|208:128|208:128|96:128,1,90
216,264,7933,6,0,P|180:308|136:320,2,90,8|0|0,0:0|0:0|0:0,0:0:0:0:
276,200,8407,1,0,0:0:0:0:
344,140,8565,2,0,P|372:104|420:84,1,90,8|0,0:0|0:0,0:0:0:0:
164,164,8881,2,0,P|204:132|224:84,1,90
72,192,9196,5,8,0:0:0:0:
100,104,9354,1,0,0:0:0:0:
164,164,9512,1,8,0:0:0:0:
72,192,9670,1,0,0:0:0:0:
124,20,9828,1,8,0:0:0:0:
264,136,9986,1,0,0:0:0:0:
72,192,10144,1,10,0:0:0:0:
72,192,10223,1,2,0:0:0:0:
72,192,10302,1,2,0:0:0:0:
212,308,10459,6,0,P|256:304|296:276,2,90,8|0|0,0:0|0:0|0:0,0:0:0:0:
256,192,10933,1,0,0:0:0:0:
296,60,11091,2,0,P|244:68|212:100,1,90,8|0,0:0|0:0,0:0:0:0:
364,172,11407,2,0,P|416:160|448:132,1,90
296,276,11723,5,8,0:0:0:0:
216,92,11881,1,0,0:0:0:0:
212,200,12038,1,8,0:0:0:0:
256,192,12117,1,0,0:0:0:0:
300,184,12196,1,0,0:0:0:0:
120,216,12354,6,2,B|120:104|120:104|96:80,1,135.000005149842,2|2,0:0|0:0,0:0:0:0:
404,168,12670,2,2,B|404:280|404:280|424:300,1,135.000005149842
296,220,12986,5,12,0:0:0:0:
88,48,13302,1,8,0:0:0:0:
220,324,13617,1,8,0:0:0:0:
452,124,13933,1,8,0:0:0:0:
152,188,14249,1,8,0:0:0:0:
360,52,14565,1,8,0:0:0:0:
384,336,14881,1,8,0:0:0:0:
60,264,15196,1,8,0:0:0:0:
336,132,15512,5,12,0:0:0:0:
104,332,15828,1,8,0:0:0:0:
144,32,16144,1,8,0:0:0:0:
296,296,16459,1,8,0:0:0:0:
16,180,16775,1,8,0:0:0:0:
296,56,17091,1,8,0:0:0:0:
468,308,17407,1,8,0:0:0:0:
164,348,17723,1,8,0:0:0:0:
76,192,18038,5,12,0:0:0:0:
104,116,18196,1,0,0:0:0:0:
176,60,18354,1,8,0:0:0:0:
256,108,18512,1,0,0:0:0:0:
328,56,18670,1,8,0:0:0:0:
400,108,18828,1,0,0:0:0:0:
424,196,18986,2,0,L|468:196,2,45,8|0|8,0:0|0:0|0:0,0:0:0:0:
392,280,19302,5,8,0:0:0:0:
316,232,19459,1,0,0:0:0:0:
256,300,19617,1,8,0:0:0:0:
256,164,19775,5,2,0:0:0:0:
192,228,19933,5,8,0:0:0:0:
116,180,20091,1,0,0:0:0:0:
68,252,20249,1,8,0:0:0:0:
68,252,20328,1,0,0:0:0:0:
68,252,20407,1,8,0:0:0:0:
140,308,20565,5,12,0:0:0:0:
164,304,20644,1,8,0:0:0:0:
188,300,20723,1,8,0:0:0:0:
212,296,20802,1,8,0:0:0:0:
236,292,20881,1,8,0:0:0:0:
260,288,20959,1,8,0:0:0:0:
284,284,21038,1,8,0:0:0:0:
304,280,21117,1,8,0:0:0:0:
340,256,21196,5,12,0:0:0:0:
344,232,21275,1,8,0:0:0:0:
348,208,21354,1,8,0:0:0:0:
352,184,21433,1,8,0:0:0:0:
356,160,21512,1,8,0:0:0:0:
360,136,21591,1,8,0:0:0:0:
364,112,21670,1,8,0:0:0:0:
368,92,21749,1,8,0:0:0:0:
352,48,21828,5,4,0:0:0:0:
408,272,22065,1,4,0:0:0:0:
184,228,22302,1,4,0:0:0:0:
284,104,22538,1,4,0:0:0:0:
80,192,22775,5,4,0:0:0:0:
240,320,22933,1,4,0:0:0:0:
440,264,23091,5,14,0:0:0:0:
468,180,23249,1,0,0:0:0:0:
436,96,23407,2,0,L|396:56,2,45,8|0|0,0:0|0:0|0:0,0:0:0:0:
364,148,23723,1,8,0:0:0:0:
324,164,23802,1,0,0:0:0:0:
280,168,23881,1,0,0:0:0:0:
236,164,23959,1,0,0:0:0:0:
176,100,24117,1,0,0:0:0:0:
128,104,24196,1,0,0:0:0:0:
52,152,24354,5,2,0:0:0:0:
28,240,24512,1,0,0:0:0:0:
112,292,24670,2,0,P|136:276|148:240,2,45,8|0|0,0:0|0:0|0:0,0:0:0:0:
240,340,24986,1,10,0:0:0:0:
376,300,25144,2,0,L|480:268,1,67.5000025749208,2|0,0:0|0:0,0:0:0:0:
200,232,25381,2,0,L|116:200,1,67.5000025749208,2|0,0:0|0:0,0:0:0:0:
248,148,25617,5,10,0:0:0:0:
328,188,25775,1,0,0:0:0:0:
412,152,25933,1,8,0:0:0:0:
432,120,26012,1,0,0:0:0:0:
412,88,26091,1,0,0:0:0:0:
340,36,26249,2,0,B|328:16|328:16|296:16,1,45,8|0,0:0|0:0,0:0:0:0:
224,80,26486,1,0,0:0:0:0:
152,28,26644,1,0,0:0:0:0:
108,40,26723,1,0,0:0:0:0:
92,80,26802,1,0,0:0:0:0:
80,120,26881,6,0,B|28:160|28:160|24:192,1,90,10|0,0:0|0:0,0:0:0:0:
80,316,27196,2,0,B|132:284|132:284|148:248,1,90,8|0,0:0|0:0,0:0:0:0:
232,248,27512,1,10,0:0:0:0:
272,228,27591,1,0,0:0:0:0:
272,120,27749,1,2,0:0:0:0:
352,48,27907,1,2,0:0:0:0:
392,76,27986,1,2,0:0:0:0:
404,120,28065,1,2,0:0:0:0:
400,164,28144,6,0,B|444:196|444:196|424:224|448:264,1,90,10|0,0:0|0:0,0:0:0:0:
200,200,28459,2,0,B|152:164|152:164|184:136|144:112,1,90,8|0,0:0|0:0,0:0:0:0:
120,40,28775,1,8,0:0:0:0:
80,56,28854,1,0,0:0:0:0:
56,96,28933,1,0,0:0:0:0:
56,140,29012,1,0,0:0:0:0:
56,232,29170,2,0,B|84:244|84:244|100:264,1,45
164,320,29407,5,10,0:0:0:0:
228,256,29565,1,0,0:0:0:0:
364,260,29723,1,8,0:0:0:0:
364,260,29802,1,0,0:0:0:0:
364,260,29881,1,0,0:0:0:0:
440,144,30038,1,10,0:0:0:0:
320,88,30196,1,2,0:0:0:0:
288,92,30275,1,0,0:0:0:0:
256,88,30354,1,0,0:0:0:0:
224,84,30433,1,2,0:0:0:0:
200,88,30512,1,0,0:0:0:0:
56,92,30670,5,10,0:0:0:0:
96,12,30828,1,0,0:0:0:0:
92,176,30986,1,8,0:0:0:0:
136,252,31144,1,0,0:0:0:0:
224,252,31302,2,0,L|272:252,1,45,8|0,0:0|0:0,0:0:0:0:
324,324,31538,1,0,0:0:0:0:
400,252,31696,2,0,L|448:252,1,45
440,120,31933,5,10,0:0:0:0:
344,216,32091,1,2,0:0:0:0:
244,124,32249,1,10,0:0:0:0:
140,40,32407,1,2,0:0:0:0:
36,124,32565,2,0,L|88:176,1,45,8|0,0:0|0:0,0:0:0:0:
184,260,32802,1,0,0:0:0:0:
296,152,32959,2,0,L|332:116,1,45
452,40,33196,5,14,0:0:0:0:
364,80,33354,1,0,0:0:0:0:
344,172,33512,1,8,0:0:0:0:
428,232,33670,1,0,0:0:0:0:
328,284,33828,2,0,L|272:268,1,45,10|0,0:0|0:0,0:0:0:0:
216,196,34065,1,0,0:0:0:0:
132,128,34223,2,0,L|68:144,1,45
60,220,34459,5,10,0:0:0:0:
112,316,34617,1,0,0:0:0:0:
216,340,34775,1,8,0:0:0:0:
320,320,34933,1,0,0:0:0:0:
364,220,35091,2,0,L|384:168,1,45,10|2,0:0|0:0,0:0:0:0:
360,60,35249,2,0,L|336:116,1,45,2|2,0:0|0:0,0:0:0:0:
236,192,35407,2,0,L|260:144,1,45,2|2,0:0|0:0,0:0:0:0:
232,32,35565,2,0,L|208:88,1,45,2|0,0:0|0:0,0:0:0:0:
144,144,35723,5,10,0:0:0:0:
80,80,35881,1,0,0:0:0:0:
76,208,36038,1,8,0:0:0:0:
140,264,36196,1,0,0:0:0:0:
220,308,36354,2,0,L|288:284,1,45,10|0,0:0|0:0,0:0:0:0:
312,204,36591,1,0,0:0:0:0:
384,120,36749,2,0,L|436:140,1,45
456,252,36986,5,10,0:0:0:0:
400,344,37144,1,0,0:0:0:0:
296,376,37302,1,8,0:0:0:0:
196,340,37459,1,0,0:0:0:0:
140,248,37617,6,0,L|104:200,1,45,10|2,0:0|0:0,0:0:0:0:
144,120,37775,2,0,L|200:84,1,45,2|2,0:0|0:0,0:0:0:0:
56,156,37933,6,0,L|56:112,1,45,2|2,0:0|0:0,0:0:0:0:
216,172,38091,2,0,L|264:140,1,45,2|0,0:0|0:0,0:0:0:0:
372,164,38249,5,10,0:0:0:0:
424,240,38407,1,0,0:0:0:0:
368,312,38565,1,8,0:0:0:0:
344,312,38644,1,0,0:0:0:0:
320,312,38723,1,0,0:0:0:0:
256,164,38881,2,8,L|196:164,1,45,10|0,0:0|0:0,0:0:0:0:
192,312,39117,1,0,0:0:0:0:
108,164,39275,2,0,L|160:164,1,45
40,312,39512,5,10,0:0:0:0:
108,164,39670,1,0,0:0:0:0:
192,312,39828,1,8,0:0:0:0:
256,164,39986,1,0,0:0:0:0:
348,316,40144,2,0,P|428:296|444:168,1,180,10|0,0:0|0:0,0:0:0:0:
464,120,40381,2,0,P|436:48|316:24,1,180,2|0,0:0|0:0,0:0:0:0:
256,20,40617,1,2,0:0:0:0:
176,56,40775,5,10,0:0:0:0:
116,120,40933,1,0,0:0:0:0:
164,196,41091,1,8,0:0:0:0:
252,180,41249,1,0,0:0:0:0:
264,92,41407,5,10,0:0:0:0:
348,56,41565,1,0,0:0:0:0:
400,136,41723,1,8,0:0:0:0:
340,200,41881,1,0,0:0:0:0:
160,292,42038,5,10,0:0:0:0:
204,308,42117,1,0,0:0:0:0:
248,312,42196,1,0,0:0:0:0:
292,308,42275,1,0,0:0:0:0:
336,292,42354,1,8,0:0:0:0:
88,108,42670,5,12,0:0:0:0:
428,112,42907,1,12,0:0:0:0:
256,316,43144,1,12,0:0:0:0:
140,244,43302,5,14,0:0:0:0:
256,108,43459,1,8,0:0:0:0:
256,108,43538,1,0,0:0:0:0:
372,244,43696,1,8,0:0:0:0:
372,244,43775,1,0,0:0:0:0:
104,240,44249,5,14,0:0:0:0:
104,240,44328,1,0,0:0:0:0:
168,72,44486,1,8,0:0:0:0:
172,72,44565,1,0,0:0:0:0:
348,72,44723,1,8,0:0:0:0:
352,80,44802,1,0,0:0:0:0:
400,244,44959,1,12,0:0:0:0:
388,252,45038,1,0,0:0:0:0:
256,336,45196,5,10,0:0:0:0:
240,324,45275,1,0,0:0:0:0:
112,188,45433,1,8,0:0:0:0:
132,168,45512,1,0,0:0:0:0:
256,52,45670,1,12,0:0:0:0:
104,308,45986,5,6,0:0:0:0:
400,312,46144,1,6,0:0:0:0:
256,52,46617,5,14,0:0:0:0:
232,72,46696,1,0,0:0:0:0:
112,188,46854,1,8,0:0:0:0:
124,224,46933,1,0,0:0:0:0:
160,316,47091,1,8,0:0:0:0:
200,316,47170,1,0,0:0:0:0:
324,316,47328,1,12,0:0:0:0:
344,284,47407,1,0,0:0:0:0:
396,184,47565,1,6,0:0:0:0:
360,148,47644,1,0,0:0:0:0:
52,224,48038,5,14,0:0:0:0:
160,56,48196,2,0,L|160:-20,2,45,8|0|0,0:0|0:0|0:0,0:0:0:0:
360,96,48512,1,8,0:0:0:0:
360,96,48591,1,0,0:0:0:0:
148,280,48749,1,12,0:0:0:0:
148,280,48828,1,0,0:0:0:0:
364,312,48986,1,14,0:0:0:0:
396,312,49065,1,0,0:0:0:0:
424,284,49144,1,8,0:0:0:0:
416,248,49223,1,0,0:0:0:0:
256,192,49381,1,4,0:0:0:0:
256,192,49459,1,0,0:0:0:0:
188,96,49617,5,12,0:0:0:0:
208,84,49696,1,0,0:0:0:0:
332,280,49854,1,4,0:0:0:0:
316,292,49933,1,0,0:0:0:0:
76,192,50091,2,12,L|32:192,2,45,14|0|0,0:0|0:0|0:0,0:0:0:0:
436,192,50407,2,0,L|480:192,2,45,12|0|0,0:0|0:0|0:0,0:0:0:0:
168,44,50723,1,14,0:0:0:0:
168,44,50802,1,0,0:0:0:0:
368,320,50959,1,14,0:0:0:0:
368,320,51038,1,0,0:0:0:0:
256,192,51196,5,14,0:0:0:0:
396,80,51512,5,12,0:0:0:0:
316,128,51670,1,8,0:0:0:0:
272,128,51749,1,0,0:0:0:0:
368,172,51907,1,8,0:0:0:0:
356,208,51986,1,0,0:0:0:0:
244,100,52144,5,12,0:0:0:0:
184,100,52223,1,0,0:0:0:0:
364,240,52381,1,8,0:0:0:0:
344,296,52459,1,0,0:0:0:0:
224,172,52617,1,8,0:0:0:0:
152,172,52696,1,0,0:0:0:0:
72,316,52933,5,8,0:0:0:0:
116,328,53012,1,8,0:0:0:0:
160,336,53091,1,8,0:0:0:0:
204,340,53170,1,8,0:0:0:0:
248,336,53249,1,8,0:0:0:0:
292,328,53328,1,8,0:0:0:0:
332,316,53407,6,0,P|416:292|448:200,1,180,14|0,0:0|0:0,0:0:0:0:
448,156,53644,2,0,P|416:76|316:52,1,180,4|0,0:0|0:0,0:0:0:0:
280,48,53881,2,0,B|272:40|272:40|96:40,1,180,4|0,0:0|0:0,0:0:0:0:
172,168,54196,1,4,0:0:0:0:
44,296,54354,2,0,B|56:308|56:308|240:308,1,180,12|0,0:0|0:0,0:0:0:0:
360,76,54670,6,0,B|252:32|252:32|224:88,1,180,14|0,0:0|0:0,0:0:0:0:
140,52,54907,2,0,B|76:152|76:152|128:184,1,180,4|0,0:0|0:0,0:0:0:0:
88,268,55144,2,0,B|196:320|196:320|228:264,1,180,4|0,0:0|0:0,0:0:0:0:
312,300,55381,2,0,B|376:192|376:192|320:160,1,180,6|0,0:0|0:0,0:0:0:0:
256,220,55617,6,0,B|220:196|220:196|248:148|248:148|244:108|300:88|300:88|304:76,1,180,14|0,0:0|0:0,0:0:0:0:
228,28,55854,2,0,B|160:56|168:108|168:108|144:160|144:160|152:184,1,180,4|0,0:0|0:0,0:0:0:0:
140,260,56091,2,0,B|108:264|84:248|84:248|44:240|44:240|44:136,1,180,4|0,0:0|0:0,0:0:0:0:
148,172,56328,2,0,B|184:164|212:184|212:184|240:192|240:192|244:280,1,180,4|0,0:0|0:0,0:0:0:0:
332,288,56565,6,0,B|392:264|412:200|412:200|440:160|440:160|432:136,1,180,14|0,0:0|0:0,0:0:0:0:
368,92,56802,2,0,B|336:136|336:136|324:216|252:220,1,180,4|0,0:0|0:0,0:0:0:0:
204,152,57038,2,0,P|116:80|32:108,1,180,4|0,0:0|0:0,0:0:0:0:
84,176,57275,2,0,P|76:268|144:336,1,180,4|0,0:0|0:0,0:0:0:0:
168,248,57512,6,0,B|208:280|208:280|256:300|300:264|316:216,1,180,14|0,0:0|0:0,0:0:0:0:
268,136,57749,2,0,P|296:44|380:44,1,180,6|0,0:0|0:0,0:0:0:0:
408,72,57986,1,12,0:0:0:0:
432,220,58144,5,10,0:0:0:0:
412,260,58223,1,2,0:0:0:0:
372,284,58302,1,10,0:0:0:0:
332,300,58381,1,2,0:0:0:0:
288,308,58459,2,0,P|132:280|84:288,1,180,14|0,0:0|0:0,0:0:0:0:
44,224,58696,2,0,B|140:200|140:200|148:128|212:112,1,180
260,84,58933,1,6,0:0:0:0:
408,72,59249,5,14,0:0:0:0:
408,72,59407,2,0,P|280:60|176:76,1,180,6|0,0:0|0:0,0:0:0:0:
140,72,59644,2,8,P|136:192|148:256,1,180,4|0,0:0|0:0,0:0:0:0:
216,312,59881,2,0,B|260:260|260:260|320:272|368:228,1,180,4|0,0:0|0:0,0:0:0:0:
68,324,60354,1,14,0:0:0:0:
68,324,60433,1,0,0:0:0:0:
408,72,60591,1,12,0:0:0:0:
124,88,60828,6,0,B|160:136|160:136|164:192|212:208|212:208|236:228|232:256,1,180,14|0,0:0|0:0,0:0:0:0:
264,128,61065,2,0,P|356:88|444:68,1,180,4|0,0:0|0:0,0:0:0:0:
396,152,61302,2,0,B|416:208|416:208|448:232|448:276|448:276|472:304|468:340,1,180,6|0,0:0|0:0,0:0:0:0:
332,296,61538,2,0,P|224:340|128:340,1,180,4|0,0:0|0:0,0:0:0:0:
80,236,61775,6,0,P|108:100|240:48,1,270,14|0,0:0|0:0,0:0:0:0:
308,60,62091,1,4,0:0:0:0:
112,312,62407,6,0,L|276:276,1,90,12|8,0:0|0:0,0:0:0:0:
412,256,62644,2,0,L|280:216,1,90,12|8,0:0|0:0,0:0:0:0:
104,120,62881,1,12,0:0:0:0:
168,60,62959,1,8,0:0:0:0:
256,40,63038,1,12,0:0:0:0:
344,60,63117,1,8,0:0:0:0:
412,120,63196,1,6,0:0:0:0:
256,192,63512,5,4,0:0:0:0:
256,76,66038,6,0,B|196:92|200:140|120:168|96:172,1,180
256,264,66670,2,0,B|316:248|344:192|396:168|436:164,1,180
368,344,67302,5,8,0:0:0:0:
412,268,67459,1,0,0:0:0:0:
380,184,67617,1,0,0:0:0:0:
296,152,67775,2,0,L|288:88,2,45,0|0|0,0:0|0:0|0:0,0:0:0:0:
208,184,68091,1,0,0:0:0:0:
164,264,68249,1,0,0:0:0:0:
128,288,68328,1,0,0:0:0:0:
84,284,68407,1,0,0:0:0:0:
56,248,68486,1,0,0:0:0:0:
64,204,68565,5,8,0:0:0:0:
108,124,68723,1,0,0:0:0:0:
188,88,68881,1,0,0:0:0:0:
272,124,69038,1,0,0:0:0:0:
316,204,69196,2,0,P|304:280|276:296,1,90
220,220,69433,2,0,P|172:228|136:200,1,90
108,124,69670,1,0,0:0:0:0:
64,204,69828,5,8,0:0:0:0:
128,268,69986,1,0,0:0:0:0:
220,220,70144,1,0,0:0:0:0:
272,124,70302,1,0,0:0:0:0:
356,88,70459,1,8,0:0:0:0:
412,160,70617,5,0,0:0:0:0:
408,192,70696,1,0,0:0:0:0:
404,224,70775,1,0,0:0:0:0:
400,256,70854,1,0,0:0:0:0:
396,288,70933,1,0,0:0:0:0:
392,320,71012,1,0,0:0:0:0:
348,304,71091,5,8,0:0:0:0:
316,300,71170,1,0,0:0:0:0:
284,296,71249,1,0,0:0:0:0:
252,292,71328,1,0,0:0:0:0:
220,288,71407,1,8,0:0:0:0:
188,284,71486,1,0,0:0:0:0:
156,280,71565,1,0,0:0:0:0:
124,276,71644,1,0,0:0:0:0:
92,232,71723,5,10,0:0:0:0:
84,180,71802,1,2,0:0:0:0:
104,128,71881,1,10,0:0:0:0:
148,96,71959,1,2,0:0:0:0:
200,84,72038,1,10,0:0:0:0:
252,92,72117,1,10,0:0:0:0:
304,108,72196,1,10,0:0:0:0:
256,192,72354,12,0,73302,0:0:0:0:
384,140,73617,5,14,0:0:0:0:
308,64,73775,1,0,0:0:0:0:
200,44,73933,1,8,0:0:0:0:
104,92,74091,1,0,0:0:0:0:
60,196,74249,2,0,P|88:256|148:284,1,107.999996704102,10|0,0:0|0:0,0:0:0:0:
116,332,74486,2,0,P|188:332|236:364,1,107.999996704102
256,308,74723,1,0,0:0:0:0:
376,276,74881,5,10,0:0:0:0:
488,160,75038,1,2,0:0:0:0:
364,56,75196,1,10,0:0:0:0:
256,176,75354,1,2,0:0:0:0:
428,108,75512,5,10,0:0:0:0:
296,236,75670,1,2,0:0:0:0:
272,52,75828,1,10,0:0:0:0:
144,180,75986,1,2,0:0:0:0:
88,88,76144,6,0,P|144:56|200:44,1,107.999996704102,6|0,0:0|0:0,0:0:0:0:
200,272,76459,2,0,P|136:304|64:312,1,107.999996704102,8|0,0:0|0:0,0:0:0:0:
292,116,76775,2,0,P|332:176|344:224,1,107.999996704102,10|0,0:0|0:0,0:0:0:0:
376,252,77012,2,0,P|384:184|368:144,1,107.999996704102
364,96,77249,1,0,0:0:0:0:
212,44,77407,5,10,0:0:0:0:
76,132,77565,1,2,0:0:0:0:
296,60,77723,1,2,0:0:0:0:
276,244,77881,1,10,0:0:0:0:
112,48,78038,5,10,0:0:0:0:
184,248,78196,1,10,0:0:0:0:
92,220,78354,1,2,0:0:0:0:
312,156,78512,1,2,0:0:0:0:
212,44,78670,6,0,P|184:104|188:160,1,107.999996704102,14|0,0:0|0:0,0:0:0:0:
276,244,78986,2,0,P|264:316|232:360,1,107.999996704102,8|0,0:0|0:0,0:0:0:0:
156,272,79302,1,10,0:0:0:0:
220,188,79459,1,0,0:0:0:0:
268,164,79538,2,0,P|360:160|416:192,1,107.999996704102
424,188,79775,1,0,0:0:0:0:
444,292,79933,5,10,0:0:0:0:
324,244,80091,1,0,0:0:0:0:
244,116,80249,1,8,0:0:0:0:
80,56,80407,1,0,0:0:0:0:
164,244,80565,5,14,0:0:0:0:
344,208,80723,1,4,0:0:0:0:
164,164,80881,1,12,0:0:0:0:
344,124,81038,1,4,0:0:0:0:
164,80,81196,5,10,0:0:0:0:
80,220,81354,1,0,0:0:0:0:
168,332,81512,1,8,0:0:0:0:
288,328,81670,1,0,0:0:0:0:
384,312,81828,5,10,0:0:0:0:
456,284,81986,1,0,0:0:0:0:
428,212,82144,1,8,0:0:0:0:
356,240,82302,1,0,0:0:0:0:
360,104,82459,5,10,0:0:0:0:
428,132,82617,1,0,0:0:0:0:
456,60,82775,1,8,0:0:0:0:
388,28,82933,1,0,0:0:0:0:
256,40,83091,5,10,0:0:0:0:
100,192,83249,1,2,0:0:0:0:
412,192,83407,1,2,0:0:0:0:
256,340,83565,1,10,0:0:0:0:
148,340,83723,6,0,P|172:288|224:260,1,107.999996704102,14|0,0:0|0:0,0:0:0:0:
356,340,84038,2,0,P|328:280|272:260,1,107.999996704102,8|0,0:0|0:0,0:0:0:0:
208,196,84354,1,10,0:0:0:0:
128,120,84512,1,10,0:0:0:0:
132,92,84591,1,0,0:0:0:0:
148,72,84669,1,8,0:0:0:0:
172,60,84749,1,0,0:0:0:0:
200,56,84828,1,0,0:0:0:0:
308,124,84986,5,10,0:0:0:0:
424,12,85144,1,2,0:0:0:0:
472,168,85302,1,10,0:0:0:0:
360,284,85459,1,2,0:0:0:0:
396,104,85617,5,10,0:0:0:0:
232,188,85775,1,2,0:0:0:0:
412,220,85933,1,10,0:0:0:0:
244,296,86091,1,2,0:0:0:0:
64,260,86249,6,0,P|88:180|136:152,1,107.999996704102,14|0,0:0|0:0,0:0:0:0:
144,64,86565,2,0,B|176:68|184:96|184:96|268:96,1,107.999996704102,8|0,0:0|0:0,0:0:0:0:
340,68,86881,1,10,0:0:0:0:
444,100,87038,1,0,0:0:0:0:
444,100,87117,2,0,B|448:144|448:144|472:184|444:228|444:232,1,107.999996704102
448,260,87354,1,0,0:0:0:0:
372,184,87512,5,10,0:0:0:0:
216,148,87670,1,2,0:0:0:0:
316,16,87828,1,10,0:0:0:0:
352,232,87986,1,2,0:0:0:0:
212,120,88144,5,10,0:0:0:0:
456,132,88302,1,2,0:0:0:0:
144,248,88459,1,10,0:0:0:0:
300,288,88617,1,2,0:0:0:0:
452,232,88775,6,0,B|404:188|404:188|376:188|376:188|376:160,1,107.999996704102,14|0,0:0|0:0,0:0:0:0:
296,100,89091,1,8,0:0:0:0:
204,156,89249,1,0,0:0:0:0:
116,92,89407,2,0,P|112:164|92:200,1,107.999996704102,10|0,0:0|0:0,0:0:0:0:
48,232,89644,2,0,P|64:160|56:124,1,107.999996704102
36,76,89881,1,0,0:0:0:0:
132,124,90038,5,10,0:0:0:0:
228,256,90196,1,2,0:0:0:0:
356,160,90354,1,10,0:0:0:0:
260,28,90512,1,2,0:0:0:0:
116,236,90670,5,10,0:0:0:0:
344,276,90828,1,2,0:0:0:0:
376,44,90986,1,10,0:0:0:0:
144,12,91144,1,2,0:0:0:0:
68,104,91302,5,10,0:0:0:0:
64,224,91459,1,2,0:0:0:0:
140,316,91617,1,10,0:0:0:0:
260,328,91775,1,2,0:0:0:0:
360,264,91933,1,10,0:0:0:0:
376,148,92091,1,2,0:0:0:0:
300,56,92249,1,10,0:0:0:0:
180,40,92407,1,2,0:0:0:0:
68,104,92565,5,10,0:0:0:0:
64,224,92723,1,2,0:0:0:0:
184,232,92881,1,10,0:0:0:0:
188,112,93038,1,2,0:0:0:0:
56,164,93196,5,10,0:0:0:0:
188,276,93354,1,2,0:0:0:0:
344,152,93512,2,0,L|356:152,1,11.25,0|0,0:0|0:0,0:0:0:0:
364,152,93827,6,0,P|412:200|400:280,1,144,10|0,0:0|0:0,0:0:0:0:
260,272,94142,2,0,P|216:332|140:328,1,144,8|0,0:0|0:0,0:0:0:0:
72,212,94458,1,10,0:0:0:0:
152,92,94616,1,0,0:0:0:0:
188,100,94695,1,0,0:0:0:0:
220,116,94774,1,0,0:0:0:0:
244,140,94853,1,0,0:0:0:0:
252,176,94932,1,0,0:0:0:0:
396,76,95090,5,10,0:0:0:0:
448,256,95248,1,2,0:0:0:0:
392,188,95405,1,10,0:0:0:0:
280,340,95563,1,2,0:0:0:0:
396,328,95721,5,10,0:0:0:0:
192,268,95879,1,2,0:0:0:0:
344,116,96037,1,10,0:0:0:0:
140,180,96195,1,2,0:0:0:0:
64,252,96353,6,0,B|68:332|68:332|92:352|140:332,1,125.999996154785,10|0,0:0|0:0,0:0:0:0:
224,120,96669,2,0,B|224:44|224:44|200:20|172:48,1,125.999996154785,8|0,0:0|0:0,0:0:0:0:
80,120,96984,1,10,0:0:0:0:
332,56,97142,1,0,0:0:0:0:
364,48,97221,1,0,0:0:0:0:
396,52,97300,1,8,0:0:0:0:
424,68,97379,1,0,0:0:0:0:
436,96,97458,1,0,0:0:0:0:
416,220,97616,5,10,0:0:0:0:
280,200,97774,1,2,0:0:0:0:
440,244,97932,1,10,0:0:0:0:
264,176,98090,1,2,0:0:0:0:
408,336,98248,1,10,0:0:0:0:
384,124,98405,1,2,0:0:0:0:
276,308,98563,1,10,0:0:0:0:
236,96,98721,1,2,0:0:0:0:
144,164,98879,6,0,B|124:148|124:148|144:132|144:132|128:92|148:40,1,144,10|0,0:0|0:0,0:0:0:0:
212,172,99195,2,0,B|220:148|220:148|244:152|244:152|272:116|340:112,1,144,8|0,0:0|0:0,0:0:0:0:
456,176,99511,1,10,0:0:0:0:
388,304,99669,1,0,0:0:0:0:
356,320,99748,1,0,0:0:0:0:
324,332,99827,1,10,0:0:0:0:
288,336,99905,1,0,0:0:0:0:
252,328,99984,1,0,0:0:0:0:
128,256,100142,6,0,P|180:196|256:184,1,144,10|0,0:0|0:0,0:0:0:0:
380,100,100458,2,0,P|332:164|260:180,1,144,8|0,0:0|0:0,0:0:0:0:
296,312,100774,1,10,0:0:0:0:
220,80,100932,1,2,0:0:0:0:
188,312,101090,1,10,0:0:0:0:
332,80,101248,1,2,0:0:0:0:
116,148,101405,6,0,L|76:316,1,161.999995056153,10|0,0:0|0:0,0:0:0:0:
80,304,101721,1,10,0:0:0:0:
80,304,101879,1,0,0:0:0:0:
396,236,102037,2,0,L|436:68,1,161.999995056153,10|0,0:0|0:0,0:0:0:0:
432,80,102353,1,10,0:0:0:0:
432,80,102511,1,0,0:0:0:0:
260,308,102669,5,10,0:0:0:0:
260,144,102827,1,0,0:0:0:0:
260,308,102984,1,10,0:0:0:0:
260,144,103142,1,0,0:0:0:0:
172,284,103300,5,10,0:0:0:0:
80,120,103458,1,0,0:0:0:0:
248,48,103616,1,10,0:0:0:0:
312,44,103695,1,0,0:0:0:0:
372,64,103774,1,0,0:0:0:0:
420,108,103853,1,0,0:0:0:0:
440,172,103932,6,0,P|432:272|288:336,1,270,10|0,0:0|0:0,0:0:0:0:
220,324,104248,1,10,0:0:0:0:
52,264,104405,1,0,0:0:0:0:
60,108,104563,2,0,B|132:96|132:96|160:60|196:56|240:88|240:88|296:92,1,180,10|0,0:0|0:0,0:0:0:0:
192,220,104879,2,0,B|188:264|188:264|224:296|268:292|292:276|292:276|356:316,1,180,10|0,0:0|0:0,0:0:0:0:
456,180,105195,6,0,B|424:160|424:160|384:184|328:156|328:156|340:100,1,180,10|0,0:0|0:0,0:0:0:0:
164,56,105511,2,0,B|120:72|104:120|104:120|76:180|100:216,1,180,10|0,0:0|0:0,0:0:0:0:
224,332,105827,1,10,0:0:0:0:
384,252,105984,1,0,0:0:0:0:
228,160,106142,1,10,0:0:0:0:
388,80,106300,1,0,0:0:0:0:
116,100,106458,5,4,0:0:0:0:
72,156,106537,1,4,0:0:0:0:
56,224,106616,2,0,P|88:320|200:332,1,180,6|0,0:0|0:0,0:0:0:0:
240,344,106853,2,0,P|324:308|344:216,1,180,4|0,0:0|0:0,0:0:0:0:
436,224,107090,2,0,B|440:168|384:152|384:152|380:108|336:76,1,180,4|0,0:0|0:0,0:0:0:0:
288,12,107327,2,0,B|240:64|272:128|272:128|148:132,1,180,4|0,0:0|0:0,0:0:0:0:
156,196,107563,6,0,P|104:132|156:60,1,180,6|0,0:0|0:0,0:0:0:0:
252,208,107800,2,0,B|216:288|128:284|128:284|80:328,1,180,4|0,0:0|0:0,0:0:0:0:
184,352,108037,2,0,B|284:344|320:240|320:240|376:196,1,180,4|0,0:0|0:0,0:0:0:0:
392,196,108274,2,0,P|384:104|292:48,1,180,4|0,0:0|0:0,0:0:0:0:
228,44,108511,1,2,0:0:0:0:
80,64,108669,5,8,0:0:0:0:
44,116,108748,1,8,0:0:0:0:
36,180,108827,1,8,0:0:0:0:
48,240,108905,1,10,0:0:0:0:
72,300,108984,2,0,P|148:360|256:352,1,180,2|0,0:0|0:0,0:0:0:0:
352,336,109300,1,10,0:0:0:0:
444,180,109458,1,0,0:0:0:0:
256,244,109616,1,10,0:0:0:0:
256,64,109774,1,0,0:0:0:0:
168,336,109932,1,10,0:0:0:0:
80,180,110090,1,0,0:0:0:0:
244,108,110248,5,10,0:0:0:0:
376,268,110405,1,0,0:0:0:0:
160,272,110563,1,10,0:0:0:0:
368,176,110721,1,0,0:0:0:0:
112,180,110879,5,10,0:0:0:0:
340,356,111037,1,0,0:0:0:0:
452,60,111195,1,10,0:0:0:0:
76,60,111353,1,8,0:0:0:0:
352,48,111511,6,0,P|328:192|216:224,1,270,6|0,0:0|0:0,0:0:0:0:
220,116,111827,2,0,B|132:136|104:220|104:220|108:260,1,180,4|0,0:0|0:0,0:0:0:0:
52,332,112063,2,0,B|92:360|160:328|160:328|228:328,1,180,4|0,0:0|0:0,0:0:0:0:
280,232,112300,2,0,B|320:252|340:300|340:300|420:248,1,180,4|0,0:0|0:0,0:0:0:0:
356,160,112537,6,0,P|272:100|160:84,1,180,6|0,0:0|0:0,0:0:0:0:
108,24,112774,2,0,B|64:72|96:124|96:124|72:220,1,180,4|0,0:0|0:0,0:0:0:0:
40,296,113011,2,0,B|140:292|156:252|156:252|216:296,1,180,4|0,0:0|0:0,0:0:0:0:
280,352,113248,2,0,B|316:308|296:256|296:256|348:184|312:88,1,270,6|0,0:0|0:0,0:0:0:0:
232,28,113563,6,0,B|200:48|196:96|196:96|116:164,1,180,6|0,0:0|0:0,0:0:0:0:
204,200,113800,2,0,B|128:268|76:240|76:240|44:280,1,180,4|0,0:0|0:0,0:0:0:0:
152,340,114037,2,0,B|180:312|180:312|216:336|272:344|332:328,1,180,0|0,0:0|0:0,0:0:0:0:
328,224,114274,2,0,B|412:184|412:184|436:128|412:88,1,180,6|0,0:0|0:0,0:0:0:0:
308,112,114511,6,0,B|296:44|296:44|224:32|176:76,1,180,4|0,0:0|0:0,0:0:0:0:
216,172,114748,2,0,B|176:184|144:160|144:160|76:164|48:212,1,180,6|0,0:0|0:0,0:0:0:0:
64,312,114984,1,6,0:0:0:0:
244,328,115142,1,4,0:0:0:0:
384,212,115300,1,4,0:0:0:0:
400,32,115458,1,4,0:0:0:0:
256,192,115616,12,0,117827,0:0:0:0:
