osu file format v14

[General]
AudioFilename: False Cross.mp3
AudioLeadIn: 0
PreviewTime: 48733
Countdown: 0
SampleSet: Soft
StackLeniency: 0.7
Mode: 3
LetterboxInBreaks: 0
SpecialStyle: 0
WidescreenStoryboard: 1

[Editor]
DistanceSpacing: 1.1
BeatDivisor: 4
GridSize: 4
TimelineZoom: 1.5

[Metadata]
Title:False Cross
TitleUnicode:False Cross
Artist:BlackY
ArtistUnicode:BlackY
Creator:LevPrism-
Version:NOV
Source:SOUND VOLTEX III GRAVITY WARS
Tags:SDVX BlackY Cross Starry-
BeatmapID:776104
BeatmapSetID:281913

[Difficulty]
HPDrainRate:7
CircleSize:4
OverallDifficulty:7
ApproachRate:5
SliderMultiplier:1.4
SliderTickRate:1

[Events]
//Background and Video events
0,0,"IMG_20150101_223535.jpg",0,0
//Break Periods
//Storyboard Layer 0 (Background)
//Storyboard Layer 1 (Fail)
//Storyboard Layer 2 (Pass)
//Storyboard Layer 3 (Foreground)
//Storyboard Sound Samples

[TimingPoints]
1326,370.37037037037,4,2,1,30,1,0
48733,-100,4,2,1,30,0,1
66511,-100,4,2,1,30,0,0
85770,-100,4,2,1,30,0,1
109474,-100,4,2,1,30,0,0

[HitObjects]
64,192,1140,5,0,0:0:0:0:
320,192,1326,128,0,2066:0:0:0:0:
448,192,1326,1,0,0:0:0:0:
192,192,2066,128,0,2807:0:0:0:0:
320,192,2807,1,0,0:0:0:0:
448,192,2807,128,0,3548:0:0:0:0:
64,192,3548,1,0,0:0:0:0:
192,192,3825,1,0,0:0:0:0:
320,192,4103,1,0,0:0:0:0:
448,192,4288,128,0,5029:0:0:0:0:
320,192,5029,128,0,5770:0:0:0:0:
192,192,5770,1,0,0:0:0:0:
64,192,5770,128,0,6511:0:0:0:0:
448,192,6511,1,0,0:0:0:0:
320,192,6788,1,0,0:0:0:0:
192,192,7066,1,0,0:0:0:0:
448,192,7251,1,0,0:0:0:0:
64,192,7251,128,0,8363:0:0:0:0:
320,192,8363,1,0,0:0:0:0:
448,192,8548,1,0,0:0:0:0:
192,192,8733,1,0,0:0:0:0:
64,192,8733,128,0,9474:0:0:0:0:
448,192,9474,1,0,0:0:0:0:
320,192,9751,1,0,0:0:0:0:
192,192,10029,1,0,0:0:0:0:
320,192,10214,128,0,10955:0:0:0:0:
64,192,10214,1,0,0:0:0:0:
448,192,10955,128,0,11788:0:0:0:0:
192,192,10955,1,0,0:0:0:0:
64,192,11788,1,8,0:0:0:0:
320,192,11788,1,0,0:0:0:0:
192,192,12066,1,0,0:0:0:0:
64,192,12344,1,8,0:0:0:0:
320,192,12344,1,0,0:0:0:0:
192,192,12622,1,0,0:0:0:0:
448,192,12807,128,0,13177:0:0:0:0:
64,192,13177,1,8,0:0:0:0:
320,192,13177,1,0,0:0:0:0:
192,192,13455,1,0,0:0:0:0:
64,192,13733,1,8,0:0:0:0:
448,192,13733,1,8,0:0:0:0:
320,192,14103,1,0,0:0:0:0:
192,192,14288,1,0,0:0:0:0:
64,192,14474,1,8,0:0:0:0:
448,192,14474,1,0,0:0:0:0:
320,192,14659,1,0,0:0:0:0:
192,192,14844,1,0,0:0:0:0:
448,192,15029,128,0,15307:0:0:0:0:
192,192,15307,1,0,0:0:0:0:
192,192,15770,1,0,0:0:0:0:
320,192,15955,1,0,0:0:0:0:
448,192,16140,1,8,1:0:0:0:
64,192,16140,1,8,1:0:0:0:
448,192,16696,1,0,0:0:0:0:
320,192,16881,1,0,0:0:0:0:
192,192,17066,1,0,0:0:0:0:
320,192,17251,1,0,0:0:0:0:
192,192,17437,1,0,0:0:0:0:
448,192,17622,1,8,2:0:0:0:
64,192,17622,1,8,2:0:0:0:
192,192,17900,1,8,2:0:0:0:
320,192,17900,1,8,2:0:0:0:
64,192,18177,1,8,2:0:0:0:
448,192,18177,1,8,2:0:0:0:
192,192,18455,1,8,2:0:0:0:
320,192,18455,1,8,2:0:0:0:
448,192,18733,1,0,0:0:0:0:
320,192,18918,1,0,0:0:0:0:
64,192,19103,1,0,0:0:0:0:
192,192,19103,1,0,0:0:0:0:
320,192,19381,1,0,0:0:0:0:
448,192,19659,128,0,20029:0:0:0:0:
192,192,20029,1,0,0:0:0:0:
320,192,20214,1,0,0:0:0:0:
448,192,20400,1,0,0:0:0:0:
64,192,20585,1,0,0:0:0:0:
192,192,20770,1,0,0:0:0:0:
448,192,20955,128,0,21233:0:0:0:0:
192,192,21233,1,0,0:0:0:0:
64,192,21418,1,0,0:0:0:0:
192,192,21511,1,0,0:0:0:0:
320,192,21603,1,0,0:0:0:0:
448,192,21696,1,0,0:0:0:0:
320,192,21881,1,0,0:0:0:0:
64,192,22066,128,0,22529:0:0:0:0:
192,192,22066,1,0,0:0:0:0:
320,192,22529,1,0,0:0:0:0:
192,192,22807,1,0,0:0:0:0:
320,192,23085,1,0,0:0:0:0:
448,192,23363,1,0,0:0:0:0:
192,192,23548,128,0,24288:0:0:0:0:
448,192,24288,1,0,0:0:0:0:
320,192,24474,1,0,0:0:0:0:
192,192,24659,1,0,0:0:0:0:
64,192,24844,1,0,0:0:0:0:
448,192,25029,128,0,25400:0:0:0:0:
192,192,25400,1,8,0:0:0:0:
64,192,25770,1,8,0:0:0:0:
320,192,26140,1,8,0:0:0:0:
448,192,26511,1,8,0:0:0:0:
192,192,26881,1,8,0:0:0:0:
64,192,27251,1,8,0:0:0:0:
320,192,27622,1,8,0:0:0:0:
192,192,27992,1,8,0:0:0:0:
320,192,28363,1,8,0:0:0:0:
64,192,28733,1,8,0:0:0:0:
448,192,29103,1,8,0:0:0:0:
192,192,29474,1,8,0:0:0:0:
320,192,29844,1,8,0:0:0:0:
64,192,30122,1,12,0:0:0:0:
448,192,30400,1,12,0:0:0:0:
64,192,30677,1,12,0:0:0:0:
448,192,30955,1,8,0:0:0:0:
320,192,31325,1,8,0:0:0:0:
64,192,31696,1,8,0:0:0:0:
192,192,32066,1,8,0:0:0:0:
448,192,32437,1,8,0:0:0:0:
320,192,32807,1,8,0:0:0:0:
64,192,33177,1,8,0:0:0:0:
192,192,33548,1,8,0:0:0:0:
320,192,33918,1,8,0:0:0:0:
192,192,34288,1,8,0:0:0:0:
448,192,34659,1,8,0:0:0:0:
64,192,35029,1,8,0:0:0:0:
320,192,35400,1,8,0:0:0:0:
192,192,35770,1,8,0:0:0:0:
448,192,36048,1,0,0:0:0:0:
64,192,36140,1,0,0:0:0:0:
192,192,36325,1,8,0:0:0:0:
448,192,36511,1,8,0:0:0:0:
320,192,36603,1,8,0:0:0:0:
192,192,36696,1,8,0:0:0:0:
64,192,36788,1,8,0:0:0:0:
448,192,36881,128,4,37251:0:0:0:0:
320,192,37251,1,0,0:0:0:0:
192,192,37622,128,4,37992:0:0:0:0:
320,192,37992,1,0,0:0:0:0:
64,192,38363,128,4,38733:0:0:0:0:
448,192,38733,1,0,0:0:0:0:
192,192,39103,128,4,39474:0:0:0:0:
64,192,39474,128,2,39844:0:0:0:0:
448,192,39474,128,2,39844:0:0:0:0:
320,192,39844,1,4,0:0:0:0:
192,192,40214,1,4,0:0:0:0:
448,192,40585,1,4,0:0:0:0:
64,192,40955,1,4,0:0:0:0:
448,192,41325,1,4,0:0:0:0:
320,192,41696,1,4,0:0:0:0:
192,192,41974,1,8,0:0:0:0:
192,192,42251,1,8,0:0:0:0:
64,192,42529,1,8,0:0:0:0:
320,192,42807,128,0,43918:0:0:0:0:
192,192,44103,1,0,0:0:0:0:
64,192,44288,1,0,0:0:0:0:
192,192,44474,1,0,0:0:0:0:
320,192,44659,1,0,0:0:0:0:
448,192,44844,1,0,0:0:0:0:
320,192,45029,1,0,0:0:0:0:
192,192,45214,1,0,0:0:0:0:
64,192,45400,1,0,0:0:0:0:
192,192,45585,1,0,0:0:0:0:
448,192,45770,1,0,0:0:0:0:
320,192,45770,1,8,0:0:0:0:
192,192,46048,1,0,0:0:0:0:
320,192,46325,1,8,0:0:0:0:
448,192,46325,1,0,0:0:0:0:
64,192,46603,1,0,0:0:0:0:
192,192,46788,1,8,0:0:0:0:
320,192,46881,1,8,0:0:0:0:
448,192,46974,1,8,0:0:0:0:
320,192,47066,1,8,0:0:0:0:
192,192,47159,1,8,0:0:0:0:
448,192,47251,1,0,0:0:0:0:
320,192,47437,1,0,0:0:0:0:
192,192,47622,1,0,0:0:0:0:
64,192,47807,1,0,0:0:0:0:
320,192,47992,1,0,0:0:0:0:
192,192,48177,1,0,0:0:0:0:
64,192,48363,128,2,48733:0:0:0:0:
448,192,48733,1,0,0:0:0:0:
192,192,48733,1,0,0:0:0:0:
320,192,49011,1,0,0:0:0:0:
64,192,49288,1,0,0:0:0:0:
192,192,49288,1,0,0:0:0:0:
64,192,49659,1,0,0:0:0:0:
320,192,49844,1,0,0:0:0:0:
448,192,50029,1,0,0:0:0:0:
64,192,50214,1,0,0:0:0:0:
192,192,50400,1,0,0:0:0:0:
448,192,50585,1,0,0:0:0:0:
320,192,50677,1,0,0:0:0:0:
64,192,50863,1,0,0:0:0:0:
448,192,51325,1,0,0:0:0:0:
320,192,51511,1,0,0:0:0:0:
448,192,51696,128,8,52251:0:0:0:0:
64,192,52251,1,0,0:0:0:0:
192,192,52437,1,0,0:0:0:0:
320,192,52622,1,0,0:0:0:0:
192,192,52807,1,0,0:0:0:0:
320,192,52992,1,0,0:0:0:0:
64,192,53177,128,4,53455:0:0:0:0:
192,192,53455,1,2,0:0:0:0:
448,192,53733,128,4,54011:0:0:0:0:
320,192,54011,1,2,0:0:0:0:
192,192,54288,1,8,0:0:0:0:
64,192,54288,1,0,0:0:0:0:
320,192,54474,1,8,0:0:0:0:
448,192,54474,1,0,0:0:0:0:
192,192,54659,1,0,0:0:0:0:
64,192,54937,1,0,0:0:0:0:
320,192,55214,1,0,0:0:0:0:
448,192,55214,1,0,0:0:0:0:
192,192,55585,1,0,0:0:0:0:
448,192,55770,1,0,0:0:0:0:
320,192,55955,1,0,0:0:0:0:
192,192,56140,1,0,0:0:0:0:
320,192,56325,1,0,0:0:0:0:
64,192,56511,1,0,0:0:0:0:
192,192,56603,1,0,0:0:0:0:
320,192,56788,1,0,0:0:0:0:
192,192,57066,1,0,0:0:0:0:
320,192,57251,1,0,0:0:0:0:
448,192,57437,1,0,0:0:0:0:
192,192,57622,1,8,0:0:0:0:
64,192,57622,1,8,0:0:0:0:
320,192,57992,128,0,58363:0:0:0:0:
192,192,58363,1,0,0:0:0:0:
192,192,58640,1,0,0:0:0:0:
448,192,58825,1,0,0:0:0:0:
320,192,59011,1,0,0:0:0:0:
64,192,59288,1,8,0:0:0:0:
64,192,59566,1,8,0:0:0:0:
64,192,59844,1,8,0:0:0:0:
448,192,59844,1,0,0:0:0:0:
320,192,60029,1,0,0:0:0:0:
192,192,60214,1,0,0:0:0:0:
64,192,60400,1,0,0:0:0:0:
448,192,60585,128,0,60955:0:0:0:0:
64,192,60955,1,0,0:0:0:0:
320,192,60955,1,0,0:0:0:0:
192,192,61325,1,4,0:0:0:0:
320,192,61696,1,4,0:0:0:0:
64,192,62066,1,4,0:0:0:0:
448,192,62437,1,4,0:0:0:0:
64,192,62807,1,4,0:0:0:0:
448,192,63177,1,0,0:0:0:0:
320,192,63363,1,0,0:0:0:0:
192,192,63548,128,0,64103:0:0:0:0:
320,192,64103,1,0,0:0:0:0:
448,192,64288,1,0,0:0:0:0:
320,192,64474,1,0,0:0:0:0:
192,192,64659,1,0,0:0:0:0:
64,192,64844,1,0,0:0:0:0:
448,192,65029,128,4,65307:0:0:0:0:
320,192,65307,1,2,0:0:0:0:
64,192,65585,128,4,65863:0:0:0:0:
192,192,65863,1,2,0:0:0:0:
320,192,66140,1,0,0:0:0:0:
192,192,66325,1,0,0:0:0:0:
448,192,66511,128,8,67066:0:0:0:0:
320,192,66511,1,0,0:0:0:0:
64,192,67066,128,8,67807:0:0:0:0:
192,192,67066,1,0,0:0:0:0:
448,192,67807,128,8,68640:0:0:0:0:
320,192,68177,1,0,0:0:0:0:
64,192,68363,1,0,0:0:0:0:
192,192,68455,1,0,0:0:0:0:
320,192,68640,1,0,0:0:0:0:
64,192,68825,1,0,0:0:0:0:
320,192,69011,1,0,0:0:0:0:
192,192,69196,1,0,0:0:0:0:
448,192,69381,1,0,0:0:0:0:
64,192,69474,128,0,69937:0:0:0:0:
192,192,69937,1,0,0:0:0:0:
320,192,70214,1,0,0:0:0:0:
192,192,70492,1,0,0:0:0:0:
448,192,70677,1,0,0:0:0:0:
320,192,70770,1,0,0:0:0:0:
192,192,70863,1,0,0:0:0:0:
64,192,70955,1,2,0:0:0:0:
64,192,71233,1,2,0:0:0:0:
64,192,71511,1,2,0:0:0:0:
320,192,71696,1,0,0:0:0:0:
448,192,71881,1,0,0:0:0:0:
192,192,72066,1,0,0:0:0:0:
64,192,72251,1,0,0:0:0:0:
448,192,72437,128,0,72992:0:0:0:0:
320,192,72992,128,0,73548:0:0:0:0:
192,192,73548,128,0,73733:0:0:0:0:
320,192,73733,128,0,73918:0:0:0:0:
64,192,73918,128,0,74103:0:0:0:0:
192,192,74103,128,0,74288:0:0:0:0:
320,192,74288,128,0,74566:0:0:0:0:
192,192,74566,1,0,0:0:0:0:
448,192,74751,1,0,0:0:0:0:
320,192,74844,1,0,0:0:0:0:
192,192,74937,1,0,0:0:0:0:
64,192,75029,1,0,0:0:0:0:
192,192,75122,1,0,0:0:0:0:
320,192,75214,1,0,0:0:0:0:
448,192,75307,1,0,0:0:0:0:
64,192,75400,1,0,0:0:0:0:
192,192,75677,1,0,0:0:0:0:
64,192,75955,1,0,0:0:0:0:
192,192,76233,1,0,0:0:0:0:
320,192,76511,128,0,76881:0:0:0:0:
64,192,76881,1,0,0:0:0:0:
192,192,77066,1,0,0:0:0:0:
320,192,77251,1,0,0:0:0:0:
448,192,77437,1,0,0:0:0:0:
64,192,77622,1,0,0:0:0:0:
192,192,77807,1,0,0:0:0:0:
320,192,77992,1,0,0:0:0:0:
448,192,78177,1,0,0:0:0:0:
64,192,78363,1,8,0:0:0:0:
320,192,78363,1,8,0:0:0:0:
192,192,78918,1,8,0:0:0:0:
448,192,78918,1,8,0:0:0:0:
320,192,79659,1,8,0:0:0:0:
448,192,79659,1,8,0:0:0:0:
64,192,80029,1,8,0:0:0:0:
192,192,80307,1,8,0:0:0:0:
64,192,80492,1,8,0:0:0:0:
448,192,80770,1,8,0:0:0:0:
448,192,81140,1,8,0:0:0:0:
64,192,81325,1,2,0:0:0:0:
320,192,81603,1,2,0:0:0:0:
64,192,81881,1,2,0:0:0:0:
320,192,82159,1,2,0:0:0:0:
64,192,82437,1,2,0:0:0:0:
448,192,82622,1,2,0:0:0:0:
192,192,82807,128,0,83548:0:0:0:0:
320,192,82807,128,0,83548:0:0:0:0:
448,192,83548,128,0,84288:0:0:0:0:
64,192,83918,128,0,84288:0:0:0:0:
192,192,84288,1,8,0:0:0:0:
320,192,84288,1,8,0:0:0:0:
448,192,85029,1,0,0:0:0:0:
320,192,85214,1,0,0:0:0:0:
192,192,85400,1,0,0:0:0:0:
64,192,85585,1,0,0:0:0:0:
320,192,85770,1,0,0:0:0:0:
448,192,85770,1,0,0:0:0:0:
448,192,86048,1,0,0:0:0:0:
192,192,86325,1,0,0:0:0:0:
64,192,86325,1,0,0:0:0:0:
64,192,86696,1,0,0:0:0:0:
320,192,86881,1,0,0:0:0:0:
448,192,87066,1,0,0:0:0:0:
64,192,87251,1,8,0:0:0:0:
320,192,87251,1,0,0:0:0:0:
192,192,87437,1,0,0:0:0:0:
448,192,87622,128,0,87900:0:0:0:0:
320,192,87900,1,0,0:0:0:0:
64,192,88177,1,0,0:0:0:0:
192,192,88363,1,0,0:0:0:0:
320,192,88548,1,0,0:0:0:0:
448,192,88733,1,8,0:0:0:0:
192,192,89103,1,8,0:0:0:0:
320,192,89474,1,8,0:0:0:0:
64,192,89844,1,8,0:0:0:0:
448,192,90214,1,8,0:0:0:0:
448,192,90585,1,8,0:0:0:0:
448,192,90863,1,8,0:0:0:0:
320,192,91140,1,0,0:0:0:0:
64,192,91325,1,8,0:0:0:0:
192,192,91418,1,8,0:0:0:0:
320,192,91511,1,8,0:0:0:0:
448,192,91603,1,8,0:0:0:0:
64,192,91696,1,8,0:0:0:0:
192,192,92066,1,8,0:0:0:0:
320,192,92437,1,8,0:0:0:0:
192,192,92807,1,8,0:0:0:0:
448,192,93177,1,8,0:0:0:0:
320,192,93548,1,8,0:0:0:0:
192,192,93918,1,8,0:0:0:0:
64,192,94288,1,8,0:0:0:0:
64,192,94474,1,8,0:0:0:0:
448,192,94659,128,4,94844:0:0:0:0:
320,192,95029,128,4,95214:0:0:0:0:
192,192,95400,128,4,95585:0:0:0:0:
64,192,95770,128,4,95955:0:0:0:0:
448,192,96140,1,0,0:0:0:0:
320,192,96325,1,0,0:0:0:0:
192,192,96511,1,0,0:0:0:0:
64,192,96696,1,0,0:0:0:0:
320,192,96881,1,0,0:0:0:0:
192,192,97066,1,0,0:0:0:0:
64,192,97251,1,0,0:0:0:0:
192,192,97437,1,0,0:0:0:0:
448,192,97622,1,0,0:0:0:0:
320,192,97900,1,0,0:0:0:0:
64,192,98177,1,8,0:0:0:0:
192,192,98177,1,8,0:0:0:0:
448,192,98548,1,0,0:0:0:0:
320,192,98733,1,0,0:0:0:0:
192,192,98918,1,0,0:0:0:0:
64,192,99103,1,0,0:0:0:0:
448,192,99103,1,8,0:0:0:0:
320,192,99288,1,0,0:0:0:0:
64,192,99474,1,0,0:0:0:0:
192,192,99566,1,0,0:0:0:0:
448,192,99751,1,0,0:0:0:0:
64,192,100029,1,0,0:0:0:0:
192,192,100214,1,0,0:0:0:0:
320,192,100400,1,0,0:0:0:0:
64,192,100585,1,0,0:0:0:0:
320,192,100770,1,0,0:0:0:0:
192,192,100955,1,0,0:0:0:0:
448,192,101140,1,0,0:0:0:0:
320,192,101325,1,0,0:0:0:0:
192,192,101511,1,0,0:0:0:0:
64,192,101696,1,0,0:0:0:0:
192,192,101881,1,0,0:0:0:0:
448,192,102066,128,0,102437:0:0:0:0:
320,192,102437,1,0,0:0:0:0:
192,192,102714,1,0,0:0:0:0:
64,192,102714,1,0,0:0:0:0:
448,192,102992,1,0,0:0:0:0:
320,192,103177,1,0,0:0:0:0:
192,192,103363,1,0,0:0:0:0:
64,192,103548,128,10,104011:0:0:0:0:
192,192,104011,128,10,104844:0:0:0:0:
320,192,104844,128,10,105677:0:0:0:0:
448,192,105214,1,8,0:0:0:0:
192,192,105400,1,8,0:0:0:0:
64,192,105492,1,8,0:0:0:0:
192,192,105677,1,8,0:0:0:0:
448,192,105863,128,0,106325:0:0:0:0:
64,192,106511,128,6,106696:0:0:0:0:
192,192,106881,128,6,107066:0:0:0:0:
320,192,107251,128,6,107437:0:0:0:0:
448,192,107622,128,6,107807:0:0:0:0:
64,192,107992,1,0,0:0:0:0:
192,192,108177,1,0,0:0:0:0:
320,192,108363,1,0,0:0:0:0:
448,192,108548,1,0,0:0:0:0:
192,192,108733,1,0,0:0:0:0:
320,192,108918,1,0,0:0:0:0:
448,192,109103,1,0,0:0:0:0:
320,192,109288,1,0,0:0:0:0:
64,192,109474,128,0,110029:0:0:0:0:
320,192,110029,128,0,110585:0:0:0:0:
192,192,110585,128,0,110955:0:0:0:0:
320,192,110955,1,0,0:0:0:0:
448,192,111140,128,0,111696:0:0:0:0:
64,192,111696,128,0,112251:0:0:0:0:
448,192,112251,1,8,0:0:0:0:
320,192,112437,1,8,0:0:0:0:
448,192,112622,1,8,0:0:0:0:
192,192,112900,1,8,0:0:0:0:
320,192,113177,1,8,0:0:0:0:
192,192,113455,1,8,0:0:0:0:
192,192,113733,1,8,0:0:0:0:
64,192,113825,1,8,0:0:0:0:
320,192,114011,1,8,0:0:0:0:
64,192,114196,1,8,0:0:0:0:
192,192,114474,1,8,0:0:0:0:
320,192,114659,1,8,0:0:0:0:
448,192,114751,1,8,0:0:0:0:
64,192,114937,1,8,0:0:0:0:
192,192,115029,128,0,115400:0:0:0:0:
320,192,115400,128,0,115955:0:0:0:0:
64,192,115955,128,2,118363:0:0:0:0:
448,192,115955,1,2,0:0:0:0:
