osu file format v10

[General]
AudioFilename: BlackY - Euryale.mp3
AudioLeadIn: 1000
PreviewTime: 47043
Countdown: 0
SampleSet: Normal
StackLeniency: 0.7
Mode: 1
LetterboxInBreaks: 1

[Editor]
DistanceSpacing: 0.8
BeatDivisor: 4
GridSize: 32

[Metadata]
Title:Euryale
TitleUnicode:Euryale
Artist:BlackY
ArtistUnicode:BlackY
Creator:glalucard
Version:Oni
Source:
Tags:
BeatmapID:197824
BeatmapSetID:68333

[Difficulty]
HPDrainRate:5
CircleSize:2
OverallDifficulty:5
ApproachRate:5
SliderMultiplier:1.4
SliderTickRate:1

[Events]
//Background and Video events
0,0,"20100305171537-51300710.jpg"
//Break Periods
//Storyboard Layer 0 (Background)
//Storyboard Layer 1 (Fail)
//Storyboard Layer 2 (Pass)
//Storyboard Layer 3 (Foreground)
//Storyboard Sound Samples
//Background Colour Transformations
3,100,163,162,255

[TimingPoints]
341,324.324324324324,4,1,0,5,1,0
341,-200,4,1,0,5,0,0
10719,-133.333333333333,4,1,0,50,0,0
21089,-100,4,1,0,80,0,0
41854,-100,4,1,0,40,0,0
46395,-100,4,1,0,60,0,0
47043,-100,4,1,0,80,0,1
67800,-100,4,1,0,60,0,0
88557,-100,4,1,0,30,0,0
93097,-100,4,1,0,60,0,0
93746,-100,4,1,0,80,0,1
114503,-100,4,1,0,80,0,0
114827,-50,4,1,0,100,0,0

[Colours]
Combo1 : 5,5,240
Combo2 : 255,0,0

[HitObjects]
256,192,341,1,0,0:0:0
256,192,503,5,8,0:0:0
256,192,665,1,8,0:0:0
256,192,989,5,0,0:0:0
256,192,1151,5,8,0:0:0
256,192,1476,1,8,0:0:0
256,192,1638,5,0,0:0:0
256,192,1962,1,0,0:0:0
256,192,2124,5,8,0:0:0
256,192,2449,1,8,0:0:0
256,192,2611,5,0,0:0:0
256,192,2773,5,8,0:0:0
256,192,2935,1,8,0:0:0
256,192,3097,5,0,0:0:0
256,192,3259,5,8,0:0:0
256,192,3422,1,8,0:0:0
256,192,3746,5,0,0:0:0
256,192,3908,5,8,0:0:0
256,192,4232,5,0,0:0:0
256,192,4395,5,8,0:0:0
256,192,4719,1,8,0:0:0
256,192,4881,5,0,0:0:0
256,192,5043,5,8,0:0:0
256,192,5205,1,8,0:0:0
256,192,5530,5,0,0:0:0
256,192,5692,5,8,0:0:0
256,192,5854,1,8,0:0:0
256,192,6178,5,0,0:0:0
256,192,6340,5,8,0:0:0
256,192,6665,1,8,0:0:0
256,192,6827,5,0,0:0:0
256,192,7151,5,8,0:0:0
256,192,7313,1,8,0:0:0
256,192,7476,5,0,0:0:0
256,192,7638,5,8,0:0:0
256,192,7800,5,0,0:0:0
256,192,7962,5,8,0:0:0
256,192,8124,1,8,0:0:0
256,192,8286,5,0,0:0:0
256,192,8449,5,8,0:0:0
256,192,8611,1,8,0:0:0
256,192,8935,5,0,0:0:0
256,192,9097,5,8,0:0:0
256,192,9422,5,0,0:0:0
256,192,9584,5,8,0:0:0
256,192,9908,1,8,0:0:0
256,192,10070,5,0,0:0:0
256,192,10232,5,8,0:0:0
256,192,10395,1,8,0:0:0
256,192,10557,5,0,0:0:0
256,192,10719,1,0,0:0:0
256,192,10881,5,8,0:0:0
256,192,11043,1,8,0:0:0
256,192,11205,5,0,0:0:0
256,192,11368,5,8,0:0:0
256,192,11530,1,8,0:0:0
256,192,11692,5,0,0:0:0
256,192,11854,5,8,0:0:0
256,192,12016,5,0,0:0:0
256,192,12178,1,0,0:0:0
256,192,12340,5,8,0:0:0
256,192,12503,1,8,0:0:0
256,192,12665,5,0,0:0:0
256,192,12827,5,8,0:0:0
256,192,12989,5,0,0:0:0
256,192,13151,5,8,0:0:0
256,192,13313,1,8,0:0:0
256,192,13476,5,0,0:0:0
256,192,13638,5,8,0:0:0
256,192,13800,1,8,0:0:0
256,192,13962,5,0,0:0:0
256,192,14124,5,8,0:0:0
256,192,14286,1,8,0:0:0
256,192,14449,5,0,0:0:0
256,192,14611,5,8,0:0:0
256,192,14773,1,8,0:0:0
256,192,14935,5,0,0:0:0
256,192,15097,5,8,0:0:0
256,192,15259,5,0,0:0:0
256,192,15422,5,8,0:0:0
256,192,15584,1,8,0:0:0
256,192,15746,5,0,0:0:0
256,192,15908,1,0,0:0:0
256,192,16070,5,8,0:0:0
256,192,16232,1,8,0:0:0
256,192,16394,5,0,0:0:0
256,192,16557,5,8,0:0:0
256,192,16719,1,8,0:0:0
256,192,16881,5,0,0:0:0
256,192,17043,5,8,0:0:0
256,192,17205,5,0,0:0:0
256,192,17367,1,0,0:0:0
256,192,17529,5,8,0:0:0
256,192,17692,1,8,0:0:0
256,192,17854,5,0,0:0:0
256,192,18016,5,8,0:0:0
256,192,18178,5,0,0:0:0
256,192,18340,5,8,0:0:0
256,192,18502,1,8,0:0:0
256,192,18665,5,0,0:0:0
256,192,18827,5,8,0:0:0
256,192,18989,1,8,0:0:0
256,192,19151,5,0,0:0:0
256,192,19313,5,8,0:0:0
256,192,19475,1,8,0:0:0
256,192,19638,5,0,0:0:0
256,192,19800,5,8,0:0:0
256,192,19962,1,8,0:0:0
256,192,20124,5,0,0:0:0
256,192,20286,5,8,0:0:0
256,192,20448,5,0,0:0:0
256,192,20611,5,8,0:0:0
256,192,20773,1,8,0:0:0
256,192,20935,5,0,0:0:0
256,192,21097,1,0,0:0:0
256,192,21422,5,8,0:0:0
256,192,21908,5,0,0:0:0
256,192,22070,5,8,0:0:0
256,192,22395,5,0,0:0:0
256,192,22719,5,8,0:0:0
256,192,22881,5,0,0:0:0
256,192,23205,1,0,0:0:0
256,192,23368,5,8,0:0:0
256,192,23692,5,0,0:0:0
256,192,24016,5,8,0:0:0
256,192,24503,5,0,0:0:0
256,192,24665,5,8,0:0:0
256,192,24989,5,0,0:0:0
256,192,25313,5,8,0:0:0
256,192,25476,5,0,0:0:0
256,192,25800,1,0,0:0:0
256,192,25962,5,8,0:0:0
256,192,26124,5,0,0:0:0
256,192,26286,1,0,0:0:0
256,192,26611,5,8,0:0:0
256,192,27097,5,0,0:0:0
256,192,27259,5,8,0:0:0
256,192,27584,5,0,0:0:0
256,192,27908,5,8,0:0:0
256,192,28070,5,0,0:0:0
256,192,28395,1,0,0:0:0
256,192,28557,5,8,0:0:0
256,192,28881,5,0,0:0:0
256,192,29205,5,8,0:0:0
256,192,29692,5,0,0:0:0
256,192,29854,5,8,0:0:0
256,192,30178,5,0,0:0:0
256,192,30503,5,8,0:0:0
256,192,30665,5,0,0:0:0
256,192,30989,1,0,0:0:0
256,192,31151,5,8,0:0:0
256,192,31232,5,0,0:0:0
256,192,31313,1,0,0:0:0
256,192,31395,1,0,0:0:0
256,192,31476,1,0,0:0:0
256,192,31638,1,0,0:0:0
256,192,31801,5,8,0:0:0
256,192,31962,5,0,0:0:0
256,192,32287,1,0,0:0:0
256,192,32449,5,8,0:0:0
256,192,32774,5,0,0:0:0
256,192,33098,5,8,0:0:0
256,192,33260,5,0,0:0:0
256,192,33584,1,0,0:0:0
256,192,33665,1,0,0:0:0
256,192,33747,5,8,0:0:0
256,192,33908,5,0,0:0:0
256,192,34070,1,0,0:0:0
256,192,34232,1,0,0:0:0
256,192,34395,5,8,0:0:0
256,192,34557,5,0,0:0:0
256,192,34881,1,0,0:0:0
256,192,35044,5,8,0:0:0
256,192,35368,5,0,0:0:0
256,192,35692,5,8,0:0:0
256,192,35855,5,0,0:0:0
256,192,36179,1,0,0:0:0
256,192,36259,1,0,0:0:0
256,192,36341,5,8,0:0:0
256,192,36503,5,0,0:0:0
256,192,36665,1,0,0:0:0
256,192,36827,1,0,0:0:0
256,192,36990,5,8,0:0:0
256,192,37151,5,0,0:0:0
256,192,37476,1,0,0:0:0
256,192,37638,5,8,0:0:0
256,192,37963,5,0,0:0:0
256,192,38287,5,8,0:0:0
256,192,38449,5,0,0:0:0
256,192,38774,1,0,0:0:0
256,192,38854,1,0,0:0:0
256,192,38936,5,8,0:0:0
256,192,39097,5,0,0:0:0
256,192,39259,1,0,0:0:0
256,192,39584,1,0,0:0:0
256,192,39908,1,0,0:0:0
256,192,40124,1,0,0:0:0
256,192,40340,1,0,0:0:0
256,192,40557,1,0,0:0:0
256,192,40719,1,0,0:0:0
256,192,40881,1,0,0:0:0
256,192,41043,1,0,0:0:0
256,192,41205,1,0,0:0:0
256,192,41286,1,0,0:0:0
256,192,41368,1,0,0:0:0
256,192,41449,1,0,0:0:0
256,192,41530,1,0,0:0:0
256,192,41611,1,0,0:0:0
256,192,41692,1,0,0:0:0
256,192,41773,1,0,0:0:0
256,192,41854,1,0,0:0:0
256,192,41935,1,0,0:0:0
256,192,42016,5,8,0:0:0
256,192,42097,1,8,0:0:0
256,192,42178,5,0,0:0:0
256,192,42259,5,8,0:0:0
256,192,42340,5,0,0:0:0
256,192,42422,5,8,0:0:0
256,192,42503,5,0,0:0:0
256,192,42584,1,0,0:0:0
256,192,42665,5,8,0:0:0
256,192,42746,1,8,0:0:0
256,192,42827,5,0,0:0:0
256,192,42908,5,8,0:0:0
256,192,42989,5,0,0:0:0
256,192,43070,5,8,0:0:0
256,192,43151,1,8,0:0:0
256,192,43232,5,0,0:0:0
256,192,43314,5,8,0:0:0
256,192,43395,1,8,0:0:0
256,192,43476,1,8,0:0:0
256,192,43557,5,0,0:0:0
256,192,43638,5,8,0:0:0
256,192,43719,1,8,0:0:0
256,192,43800,1,8,0:0:0
256,192,43881,5,0,0:0:0
256,192,43962,5,8,0:0:0
256,192,44043,1,8,0:0:0
256,192,44124,1,8,0:0:0
256,192,44205,5,0,0:0:0
256,192,44286,5,8,0:0:0
256,192,44368,1,8,0:0:0
256,192,44449,1,8,0:0:0
256,192,44530,1,8,0:0:0
256,192,44611,5,0,0:0:0
256,192,44692,1,0,0:0:0
256,192,44773,5,8,0:0:0
256,192,44854,1,8,0:0:0
256,192,44935,5,0,0:0:0
256,192,45016,1,0,0:0:0
256,192,45097,5,8,0:0:0
256,192,45178,1,8,0:0:0
256,192,45259,5,0,0:0:0
256,192,45340,1,0,0:0:0
256,192,45422,5,8,0:0:0
256,192,45503,1,8,0:0:0
256,192,45584,5,0,0:0:0
256,192,45665,1,0,0:0:0
256,192,45746,1,0,0:0:0
256,192,45827,5,8,0:0:0
256,192,45908,5,0,0:0:0
256,192,45989,1,0,0:0:0
256,192,46070,1,0,0:0:0
256,192,46151,5,8,0:0:0
256,192,46232,5,0,0:0:0
256,192,46313,5,8,0:0:0
256,192,46395,5,0,0:0:0
256,192,46476,5,8,0:0:0
256,192,46638,5,0,0:0:0
256,192,46719,5,8,0:0:0
256,192,46881,5,0,0:0:0
256,192,46962,5,8,0:0:0
256,192,47043,5,0,0:0:0
256,192,47124,5,8,0:0:0
256,192,47205,1,8,0:0:0
256,192,47286,1,8,0:0:0
256,192,47368,5,0,0:0:0
256,192,47449,5,8,0:0:0
256,192,47530,1,8,0:0:0
256,192,47611,5,0,0:0:0
256,192,47692,5,8,0:0:0
256,192,47773,1,8,0:0:0
256,192,47854,5,0,0:0:0
256,192,47935,5,8,0:0:0
256,192,48016,5,0,0:0:0
256,192,48097,5,8,0:0:0
256,192,48178,5,0,0:0:0
256,192,48259,5,8,0:0:0
256,192,48340,5,0,0:0:0
256,192,48422,1,0,0:0:0
256,192,48503,5,8,0:0:0
256,192,48584,1,8,0:0:0
256,192,48665,5,0,0:0:0
256,192,48746,5,8,0:0:0
256,192,48827,1,8,0:0:0
256,192,48908,5,0,0:0:0
256,192,48989,5,8,0:0:0
256,192,49070,1,8,0:0:0
256,192,49151,5,0,0:0:0
256,192,49232,5,8,0:0:0
256,192,49313,5,0,0:0:0
256,192,49395,5,8,0:0:0
256,192,49476,5,0,0:0:0
256,192,49557,1,0,0:0:0
256,192,49638,1,0,0:0:0
256,192,49719,5,8,0:0:0
256,192,49800,1,8,0:0:0
256,192,49881,5,0,0:0:0
256,192,49962,5,8,0:0:0
256,192,50043,1,8,0:0:0
256,192,50124,5,0,0:0:0
256,192,50205,5,8,0:0:0
256,192,50286,1,8,0:0:0
256,192,50368,5,0,0:0:0
256,192,50449,5,8,0:0:0
256,192,50530,1,8,0:0:0
256,192,50611,5,0,0:0:0
256,192,50692,5,8,0:0:0
256,192,50773,5,0,0:0:0
256,192,50854,5,8,0:0:0
256,192,50935,5,0,0:0:0
256,192,51016,5,8,0:0:0
256,192,51097,1,8,0:0:0
256,192,51178,5,0,0:0:0
256,192,51259,5,8,0:0:0
256,192,51340,1,8,0:0:0
256,192,51422,5,0,0:0:0
256,192,51503,5,8,0:0:0
256,192,51584,1,8,0:0:0
256,192,51665,5,0,0:0:0
256,192,51746,5,8,0:0:0
256,192,51827,1,8,0:0:0
256,192,51908,5,0,0:0:0
256,192,51989,5,8,0:0:0
256,192,52070,5,0,0:0:0
256,192,52151,1,0,0:0:0
256,192,52232,5,8,0:0:0
256,192,52313,5,0,0:0:0
256,192,52395,5,8,0:0:0
256,192,52476,1,8,0:0:0
256,192,52557,5,0,0:0:0
256,192,52638,5,8,0:0:0
256,192,52719,1,8,0:0:0
256,192,52800,5,0,0:0:0
256,192,52881,5,8,0:0:0
256,192,52962,5,0,0:0:0
256,192,53043,5,8,0:0:0
256,192,53124,1,8,0:0:0
256,192,53205,5,0,0:0:0
256,192,53286,5,8,0:0:0
256,192,53368,5,0,0:0:0
256,192,53449,1,0,0:0:0
256,192,53530,5,8,0:0:0
256,192,53611,5,0,0:0:0
256,192,53692,5,8,0:0:0
256,192,53773,1,8,0:0:0
256,192,53854,5,0,0:0:0
256,192,53935,5,8,0:0:0
256,192,54016,1,8,0:0:0
256,192,54097,5,0,0:0:0
256,192,54178,5,8,0:0:0
256,192,54259,5,0,0:0:0
256,192,54340,5,8,0:0:0
256,192,54422,1,8,0:0:0
256,192,54503,5,0,0:0:0
256,192,54584,5,8,0:0:0
256,192,54665,5,0,0:0:0
256,192,54746,1,0,0:0:0
256,192,54827,5,8,0:0:0
256,192,54908,5,0,0:0:0
256,192,54989,5,8,0:0:0
256,192,55070,1,8,0:0:0
256,192,55151,5,0,0:0:0
256,192,55232,5,8,0:0:0
256,192,55313,5,0,0:0:0
256,192,55395,5,8,0:0:0
256,192,55476,1,8,0:0:0
256,192,55557,5,0,0:0:0
256,192,55638,5,8,0:0:0
256,192,55719,1,8,0:0:0
256,192,55800,5,0,0:0:0
256,192,55881,5,8,0:0:0
256,192,55962,5,0,0:0:0
256,192,56043,5,8,0:0:0
256,192,56124,1,8,0:0:0
256,192,56205,5,0,0:0:0
256,192,56286,5,8,0:0:0
256,192,56368,1,8,0:0:0
256,192,56449,5,0,0:0:0
256,192,56530,5,8,0:0:0
256,192,56611,5,0,0:0:0
256,192,56692,1,0,0:0:0
256,192,56773,1,0,0:0:0
256,192,56854,5,8,0:0:0
256,192,56935,1,8,0:0:0
256,192,57016,5,0,0:0:0
256,192,57097,5,8,0:0:0
256,192,57178,1,8,0:0:0
256,192,57259,5,0,0:0:0
256,192,57340,5,8,0:0:0
256,192,57422,5,0,0:0:0
256,192,57503,5,8,0:0:0
256,192,57584,1,8,0:0:0
256,192,57665,1,8,0:0:0
256,192,57747,5,0,0:0:0
256,192,57828,5,8,0:0:0
256,192,57909,1,8,0:0:0
256,192,57990,5,0,0:0:0
256,192,58071,5,8,0:0:0
256,192,58152,1,8,0:0:0
256,192,58233,5,0,0:0:0
256,192,58314,5,8,0:0:0
256,192,58395,5,0,0:0:0
256,192,58476,5,8,0:0:0
256,192,58557,5,0,0:0:0
256,192,58638,5,8,0:0:0
256,192,58719,5,0,0:0:0
256,192,58801,1,0,0:0:0
256,192,58882,5,8,0:0:0
256,192,58963,1,8,0:0:0
256,192,59044,5,0,0:0:0
256,192,59125,5,8,0:0:0
256,192,59206,1,8,0:0:0
256,192,59287,5,0,0:0:0
256,192,59368,5,8,0:0:0
256,192,59449,1,8,0:0:0
256,192,59530,5,0,0:0:0
256,192,59611,5,8,0:0:0
256,192,59692,5,0,0:0:0
256,192,59774,5,8,0:0:0
256,192,59855,5,0,0:0:0
256,192,59936,1,0,0:0:0
256,192,60017,1,0,0:0:0
256,192,60098,5,8,0:0:0
256,192,60179,1,8,0:0:0
256,192,60260,5,0,0:0:0
256,192,60341,5,8,0:0:0
256,192,60422,1,8,0:0:0
256,192,60503,5,0,0:0:0
256,192,60584,5,8,0:0:0
256,192,60665,1,8,0:0:0
256,192,60747,5,0,0:0:0
256,192,60828,5,8,0:0:0
256,192,60909,1,8,0:0:0
256,192,60990,5,0,0:0:0
256,192,61071,5,8,0:0:0
256,192,61152,5,0,0:0:0
256,192,61233,5,8,0:0:0
256,192,61314,5,0,0:0:0
256,192,61395,5,8,0:0:0
256,192,61476,1,8,0:0:0
256,192,61557,5,0,0:0:0
256,192,61638,5,8,0:0:0
256,192,61719,1,8,0:0:0
256,192,61801,5,0,0:0:0
256,192,61882,5,8,0:0:0
256,192,61963,1,8,0:0:0
256,192,62044,5,0,0:0:0
256,192,62125,5,8,0:0:0
256,192,62206,1,8,0:0:0
256,192,62287,5,0,0:0:0
256,192,62368,5,8,0:0:0
256,192,62449,5,0,0:0:0
256,192,62530,1,0,0:0:0
256,192,62611,5,8,0:0:0
256,192,62692,5,0,0:0:0
256,192,62774,5,8,0:0:0
256,192,62855,1,8,0:0:0
256,192,62936,5,0,0:0:0
256,192,63017,5,8,0:0:0
256,192,63098,1,8,0:0:0
256,192,63179,5,0,0:0:0
256,192,63260,5,8,0:0:0
256,192,63341,5,0,0:0:0
256,192,63422,5,8,0:0:0
256,192,63503,1,8,0:0:0
256,192,63584,5,0,0:0:0
256,192,63665,5,8,0:0:0
256,192,63747,5,0,0:0:0
256,192,63828,1,0,0:0:0
256,192,63909,5,8,0:0:0
256,192,63990,5,0,0:0:0
256,192,64071,5,8,0:0:0
256,192,64152,1,8,0:0:0
256,192,64233,5,0,0:0:0
256,192,64314,5,8,0:0:0
256,192,64395,1,8,0:0:0
256,192,64476,5,0,0:0:0
256,192,64557,5,8,0:0:0
256,192,64638,5,0,0:0:0
256,192,64719,5,8,0:0:0
256,192,64801,1,8,0:0:0
256,192,64882,5,0,0:0:0
256,192,64963,5,8,0:0:0
256,192,65044,5,0,0:0:0
256,192,65125,1,0,0:0:0
256,192,65206,5,8,0:0:0
256,192,65287,5,0,0:0:0
256,192,65368,5,8,0:0:0
256,192,65449,1,8,0:0:0
256,192,65530,5,0,0:0:0
256,192,65611,5,8,0:0:0
256,192,65692,5,0,0:0:0
256,192,65774,5,8,0:0:0
256,192,65855,1,8,0:0:0
256,192,65936,5,0,0:0:0
256,192,66017,5,8,0:0:0
256,192,66098,1,8,0:0:0
256,192,66179,5,0,0:0:0
256,192,66260,5,8,0:0:0
256,192,66341,5,0,0:0:0
256,192,66422,5,8,0:0:0
256,192,66503,1,8,0:0:0
256,192,66584,5,0,0:0:0
256,192,66665,5,8,0:0:0
256,192,66747,1,8,0:0:0
256,192,66828,5,0,0:0:0
256,192,66909,5,8,0:0:0
256,192,66990,5,0,0:0:0
256,192,67071,1,0,0:0:0
256,192,67152,1,0,0:0:0
256,192,67233,5,8,0:0:0
256,192,67314,1,8,0:0:0
256,192,67395,5,0,0:0:0
256,192,67476,5,8,0:0:0
256,192,67557,1,8,0:0:0
256,192,67638,5,0,0:0:0
256,192,67719,5,8,0:0:0
256,192,67800,5,0,0:0:0
256,192,67962,1,0,0:0:0
256,192,68124,5,8,0:0:0
256,192,68286,1,8,0:0:0
256,192,68449,5,0,0:0:0
256,192,68611,1,0,0:0:0
256,192,68773,5,8,0:0:0
256,192,68935,1,8,0:0:0
256,192,69097,5,0,0:0:0
256,192,69259,1,0,0:0:0
256,192,69421,5,8,0:0:0
256,192,69583,1,8,0:0:0
256,192,69746,5,0,0:0:0
256,192,69908,1,0,0:0:0
256,192,70070,5,8,0:0:0
256,192,70232,1,8,0:0:0
256,192,70395,1,8,0:0:0
256,192,70557,5,0,0:0:0
256,192,70719,5,8,0:0:0
256,192,70881,5,0,0:0:0
256,192,71043,5,8,0:0:0
256,192,71205,1,8,0:0:0
256,192,71368,5,0,0:0:0
256,192,71530,5,8,0:0:0
256,192,71692,1,8,0:0:0
256,192,71854,5,0,0:0:0
256,192,72016,5,8,0:0:0
256,192,72178,1,8,0:0:0
256,192,72340,1,8,0:0:0
256,192,72503,1,8,0:0:0
256,192,72665,5,0,0:0:0
256,192,72827,1,0,0:0:0
256,192,72989,1,0,0:0:0
256,192,73070,1,0,0:0:0
256,192,73151,1,0,0:0:0
256,192,73232,1,0,0:0:0
256,192,73313,5,8,0:0:0
256,192,73395,1,8,0:0:0
256,192,73476,5,0,0:0:0
256,192,73557,1,0,0:0:0
256,192,73638,5,8,0:0:0
256,192,73719,1,8,0:0:0
256,192,73800,5,0,0:0:0
256,192,73881,1,0,0:0:0
256,192,73962,5,8,0:0:0
256,192,74043,1,8,0:0:0
256,192,74124,5,0,0:0:0
256,192,74205,1,0,0:0:0
256,192,74286,1,0,0:0:0
256,192,74368,5,8,0:0:0
256,192,74449,5,0,0:0:0
256,192,74530,1,0,0:0:0
256,192,74611,1,0,0:0:0
256,192,74692,5,8,0:0:0
256,192,74773,5,0,0:0:0
256,192,74854,1,0,0:0:0
256,192,74935,1,0,0:0:0
256,192,75016,5,8,0:0:0
256,192,75097,1,8,0:0:0
256,192,75178,5,0,0:0:0
256,192,75259,5,8,0:0:0
256,192,75340,1,8,0:0:0
256,192,75422,1,8,0:0:0
256,192,75503,5,0,0:0:0
256,192,75584,5,8,0:0:0
256,192,75665,5,0,0:0:0
256,192,75746,1,0,0:0:0
256,192,75827,1,0,0:0:0
256,192,75908,5,8,0:0:0
256,192,75990,1,8,0:0:0
256,192,76071,5,0,0:0:0
256,192,76152,1,0,0:0:0
256,192,76233,5,8,0:0:0
256,192,76314,1,8,0:0:0
256,192,76395,5,0,0:0:0
256,192,76476,1,0,0:0:0
256,192,76557,5,8,0:0:0
256,192,76638,1,8,0:0:0
256,192,76719,5,0,0:0:0
256,192,76800,1,0,0:0:0
256,192,76881,1,0,0:0:0
256,192,76963,5,8,0:0:0
256,192,77044,5,0,0:0:0
256,192,77125,1,0,0:0:0
256,192,77206,1,0,0:0:0
256,192,77287,5,8,0:0:0
256,192,77368,5,0,0:0:0
256,192,77449,1,0,0:0:0
256,192,77530,1,0,0:0:0
256,192,77611,5,8,0:0:0
256,192,77692,1,8,0:0:0
256,192,77773,5,0,0:0:0
256,192,77854,5,8,0:0:0
256,192,77935,1,8,0:0:0
256,192,78017,1,8,0:0:0
256,192,78098,5,0,0:0:0
256,192,78178,5,8,0:0:0
256,192,78259,5,0,0:0:0
256,192,78340,1,0,0:0:0
256,192,78421,1,0,0:0:0
256,192,78502,5,8,0:0:0
256,192,78584,1,8,0:0:0
256,192,78665,5,0,0:0:0
256,192,78746,1,0,0:0:0
256,192,78827,5,8,0:0:0
256,192,78908,1,8,0:0:0
256,192,78989,5,0,0:0:0
256,192,79070,1,0,0:0:0
256,192,79151,5,8,0:0:0
256,192,79232,1,8,0:0:0
256,192,79313,5,0,0:0:0
256,192,79394,1,0,0:0:0
256,192,79475,1,0,0:0:0
256,192,79557,5,8,0:0:0
256,192,79638,5,0,0:0:0
256,192,79719,1,0,0:0:0
256,192,79800,1,0,0:0:0
256,192,79881,5,8,0:0:0
256,192,79962,5,0,0:0:0
256,192,80043,1,0,0:0:0
256,192,80124,1,0,0:0:0
256,192,80205,5,8,0:0:0
256,192,80286,1,8,0:0:0
256,192,80367,5,0,0:0:0
256,192,80448,5,8,0:0:0
256,192,80529,1,8,0:0:0
256,192,80611,1,8,0:0:0
256,192,80692,5,0,0:0:0
256,192,80773,5,8,0:0:0
256,192,80854,5,0,0:0:0
256,192,80935,1,0,0:0:0
256,192,81016,1,0,0:0:0
256,192,81097,5,8,0:0:0
256,192,81179,1,8,0:0:0
256,192,81260,5,0,0:0:0
256,192,81341,1,0,0:0:0
256,192,81422,5,8,0:0:0
256,192,81503,1,8,0:0:0
256,192,81584,5,0,0:0:0
256,192,81665,1,0,0:0:0
256,192,81746,5,8,0:0:0
256,192,81827,1,8,0:0:0
256,192,81908,5,0,0:0:0
256,192,81989,1,0,0:0:0
256,192,82070,1,0,0:0:0
256,192,82152,5,8,0:0:0
256,192,82233,5,0,0:0:0
256,192,82314,1,0,0:0:0
256,192,82395,1,0,0:0:0
256,192,82476,5,8,0:0:0
256,192,82557,5,0,0:0:0
256,192,82638,1,0,0:0:0
256,192,82719,1,0,0:0:0
256,192,82800,5,8,0:0:0
256,192,82881,1,8,0:0:0
256,192,82962,5,0,0:0:0
256,192,83043,5,8,0:0:0
256,192,83124,1,8,0:0:0
256,192,83206,1,8,0:0:0
256,192,83287,5,0,0:0:0
256,192,83368,5,8,0:0:0
256,192,83449,1,8,0:0:0
256,192,83530,5,0,0:0:0
256,192,83611,5,8,0:0:0
256,192,83692,1,8,0:0:0
256,192,83773,1,8,0:0:0
256,192,83854,5,0,0:0:0
256,192,83935,5,8,0:0:0
256,192,84016,1,8,0:0:0
256,192,84097,1,8,0:0:0
256,192,84178,5,0,0:0:0
256,192,84259,1,0,0:0:0
256,192,84340,5,8,0:0:0
256,192,84422,1,8,0:0:0
256,192,84503,5,0,0:0:0
256,192,84584,1,0,0:0:0
256,192,84665,1,0,0:0:0
256,192,84746,5,8,0:0:0
256,192,84827,1,8,0:0:0
256,192,84908,5,0,0:0:0
256,192,84989,1,0,0:0:0
256,192,85070,5,8,0:0:0
256,192,85151,1,8,0:0:0
256,192,85232,5,0,0:0:0
256,192,85313,1,0,0:0:0
256,192,85395,5,8,0:0:0
256,192,85476,1,8,0:0:0
256,192,85557,5,0,0:0:0
256,192,85638,5,8,0:0:0
256,192,85719,1,8,0:0:0
256,192,85800,1,8,0:0:0
256,192,85881,5,0,0:0:0
256,192,85962,5,8,0:0:0
256,192,86043,1,8,0:0:0
256,192,86124,5,0,0:0:0
256,192,86205,5,8,0:0:0
256,192,86286,1,8,0:0:0
256,192,86367,1,8,0:0:0
256,192,86448,5,0,0:0:0
256,192,86529,5,8,0:0:0
256,192,86610,1,8,0:0:0
256,192,86691,1,8,0:0:0
256,192,86772,5,0,0:0:0
256,192,86853,5,8,0:0:0
256,192,86935,1,8,0:0:0
256,192,87016,1,8,0:0:0
256,192,87097,5,0,0:0:0
256,192,87178,5,8,0:0:0
256,192,87259,1,8,0:0:0
256,192,87340,5,0,0:0:0
256,192,87422,1,0,0:0:0
256,192,87503,5,8,0:0:0
256,192,87583,1,8,0:0:0
256,192,87664,5,0,0:0:0
256,192,87745,1,0,0:0:0
256,192,87826,1,0,0:0:0
256,192,87907,5,8,0:0:0
256,192,87989,5,0,0:0:0
256,192,88070,1,0,0:0:0
256,192,88151,5,8,0:0:0
256,192,88232,5,0,0:0:0
256,192,88313,1,0,0:0:0
256,192,88395,5,8,0:0:0
256,192,88476,5,0,0:0:0
256,192,88557,1,0,0:0:0
256,192,88719,1,0,0:0:0
256,192,88881,5,8,0:0:0
256,192,89205,5,0,0:0:0
256,192,89368,5,8,0:0:0
256,192,89692,1,8,0:0:0
256,192,89854,5,0,0:0:0
256,192,90178,1,0,0:0:0
256,192,90340,5,8,0:0:0
256,192,90665,1,8,0:0:0
256,192,90827,5,0,0:0:0
256,192,90989,5,8,0:0:0
256,192,91151,5,0,0:0:0
256,192,91313,1,0,0:0:0
256,192,91476,5,8,0:0:0
256,192,91638,1,8,0:0:0
256,192,91800,5,0,0:0:0
256,192,91962,5,8,0:0:0
256,192,92124,1,8,0:0:0
256,192,92286,5,0,0:0:0
256,192,92449,5,8,0:0:0
256,192,92611,1,8,0:0:0
256,192,92773,5,0,0:0:0
256,192,92935,5,8,0:0:0
256,192,93097,5,0,0:0:0
256,192,93178,5,8,0:0:0
256,192,93340,5,0,0:0:0
256,192,93422,5,8,0:0:0
256,192,93584,5,0,0:0:0
256,192,93665,5,8,0:0:0
256,192,93746,1,8,0:0:0
256,192,93827,5,0,0:0:0
256,192,93908,1,0,0:0:0
256,192,93989,1,0,0:0:0
256,192,94070,5,8,0:0:0
256,192,94151,5,0,0:0:0
256,192,94232,1,0,0:0:0
256,192,94313,5,8,0:0:0
256,192,94395,5,0,0:0:0
256,192,94476,1,0,0:0:0
256,192,94557,5,8,0:0:0
256,192,94638,5,0,0:0:0
256,192,94719,5,8,0:0:0
256,192,94800,5,0,0:0:0
256,192,94881,5,8,0:0:0
256,192,94962,1,8,0:0:0
256,192,95043,5,0,0:0:0
256,192,95124,5,8,0:0:0
256,192,95205,5,0,0:0:0
256,192,95286,1,0,0:0:0
256,192,95368,5,8,0:0:0
256,192,95449,5,0,0:0:0
256,192,95530,1,0,0:0:0
256,192,95611,5,8,0:0:0
256,192,95692,5,0,0:0:0
256,192,95773,1,0,0:0:0
256,192,95854,5,8,0:0:0
256,192,95935,5,0,0:0:0
256,192,96016,5,8,0:0:0
256,192,96097,5,0,0:0:0
256,192,96178,5,8,0:0:0
256,192,96259,1,8,0:0:0
256,192,96340,1,8,0:0:0
256,192,96422,5,0,0:0:0
256,192,96503,1,0,0:0:0
256,192,96584,5,8,0:0:0
256,192,96665,5,0,0:0:0
256,192,96746,1,0,0:0:0
256,192,96827,5,8,0:0:0
256,192,96908,5,0,0:0:0
256,192,96989,1,0,0:0:0
256,192,97070,5,8,0:0:0
256,192,97151,5,0,0:0:0
256,192,97232,1,0,0:0:0
256,192,97313,5,8,0:0:0
256,192,97395,5,0,0:0:0
256,192,97476,5,8,0:0:0
256,192,97557,5,0,0:0:0
256,192,97638,5,8,0:0:0
256,192,97719,5,0,0:0:0
256,192,97800,1,0,0:0:0
256,192,97881,5,8,0:0:0
256,192,97962,5,0,0:0:0
256,192,98043,1,0,0:0:0
256,192,98124,5,8,0:0:0
256,192,98205,5,0,0:0:0
256,192,98286,1,0,0:0:0
256,192,98368,5,8,0:0:0
256,192,98449,5,0,0:0:0
256,192,98530,1,0,0:0:0
256,192,98611,5,8,0:0:0
256,192,98692,5,0,0:0:0
256,192,98773,5,8,0:0:0
256,192,98854,1,8,0:0:0
256,192,98935,5,0,0:0:0
256,192,99016,5,8,0:0:0
256,192,99097,5,0,0:0:0
256,192,99178,1,0,0:0:0
256,192,99259,5,8,0:0:0
256,192,99340,5,0,0:0:0
256,192,99422,1,0,0:0:0
256,192,99503,5,8,0:0:0
256,192,99584,5,0,0:0:0
256,192,99665,5,8,0:0:0
256,192,99746,5,0,0:0:0
256,192,99827,1,0,0:0:0
256,192,99908,5,8,0:0:0
256,192,99989,5,0,0:0:0
256,192,100070,5,8,0:0:0
256,192,100151,1,8,0:0:0
256,192,100232,5,0,0:0:0
256,192,100313,5,8,0:0:0
256,192,100395,5,0,0:0:0
256,192,100476,1,0,0:0:0
256,192,100557,5,8,0:0:0
256,192,100638,5,0,0:0:0
256,192,100719,1,0,0:0:0
256,192,100800,5,8,0:0:0
256,192,100881,5,0,0:0:0
256,192,100962,5,8,0:0:0
256,192,101043,5,0,0:0:0
256,192,101124,1,0,0:0:0
256,192,101205,5,8,0:0:0
256,192,101286,5,0,0:0:0
256,192,101368,5,8,0:0:0
256,192,101449,1,8,0:0:0
256,192,101530,5,0,0:0:0
256,192,101611,5,8,0:0:0
256,192,101692,5,0,0:0:0
256,192,101773,1,0,0:0:0
256,192,101854,5,8,0:0:0
256,192,101935,5,0,0:0:0
256,192,102016,5,8,0:0:0
256,192,102097,5,0,0:0:0
256,192,102178,1,0,0:0:0
256,192,102259,5,8,0:0:0
256,192,102340,5,0,0:0:0
256,192,102422,1,0,0:0:0
256,192,102503,5,8,0:0:0
256,192,102584,5,0,0:0:0
256,192,102665,5,8,0:0:0
256,192,102746,5,0,0:0:0
256,192,102827,1,0,0:0:0
256,192,102908,5,8,0:0:0
256,192,102989,5,0,0:0:0
256,192,103070,1,0,0:0:0
256,192,103151,5,8,0:0:0
256,192,103232,5,0,0:0:0
256,192,103313,5,8,0:0:0
256,192,103395,1,8,0:0:0
256,192,103476,1,8,0:0:0
256,192,103557,5,0,0:0:0
256,192,103638,1,0,0:0:0
256,192,103719,5,8,0:0:0
256,192,103800,5,0,0:0:0
256,192,103881,1,0,0:0:0
256,192,103962,5,8,0:0:0
256,192,104043,5,0,0:0:0
256,192,104124,5,8,0:0:0
256,192,104205,5,0,0:0:0
256,192,104286,1,0,0:0:0
256,192,104367,1,0,0:0:0
256,192,104448,5,8,0:0:0
256,192,104529,5,0,0:0:0
256,192,104610,1,0,0:0:0
256,192,104691,5,8,0:0:0
256,192,104773,5,0,0:0:0
256,192,104854,1,0,0:0:0
256,192,104935,5,8,0:0:0
256,192,105016,5,0,0:0:0
256,192,105097,5,8,0:0:0
256,192,105178,5,0,0:0:0
256,192,105259,5,8,0:0:0
256,192,105340,1,8,0:0:0
256,192,105421,5,0,0:0:0
256,192,105502,5,8,0:0:0
256,192,105583,5,0,0:0:0
256,192,105664,1,0,0:0:0
256,192,105746,5,8,0:0:0
256,192,105827,5,0,0:0:0
256,192,105908,1,0,0:0:0
256,192,105989,5,8,0:0:0
256,192,106070,5,0,0:0:0
256,192,106151,1,0,0:0:0
256,192,106232,5,8,0:0:0
256,192,106313,5,0,0:0:0
256,192,106394,5,8,0:0:0
256,192,106475,5,0,0:0:0
256,192,106556,5,8,0:0:0
256,192,106637,1,8,0:0:0
256,192,106718,1,8,0:0:0
256,192,106800,5,0,0:0:0
256,192,106881,1,0,0:0:0
256,192,106962,5,8,0:0:0
256,192,107043,5,0,0:0:0
256,192,107124,1,0,0:0:0
256,192,107205,5,8,0:0:0
256,192,107286,5,0,0:0:0
256,192,107367,1,0,0:0:0
256,192,107448,5,8,0:0:0
256,192,107529,5,0,0:0:0
256,192,107610,1,0,0:0:0
256,192,107691,5,8,0:0:0
256,192,107773,5,0,0:0:0
256,192,107854,5,8,0:0:0
256,192,107935,5,0,0:0:0
256,192,108016,5,8,0:0:0
256,192,108097,5,0,0:0:0
256,192,108178,1,0,0:0:0
256,192,108259,5,8,0:0:0
256,192,108340,5,0,0:0:0
256,192,108421,1,0,0:0:0
256,192,108502,5,8,0:0:0
256,192,108583,5,0,0:0:0
256,192,108664,1,0,0:0:0
256,192,108746,5,8,0:0:0
256,192,108827,5,0,0:0:0
256,192,108908,1,0,0:0:0
256,192,108989,5,8,0:0:0
256,192,109070,5,0,0:0:0
256,192,109151,5,8,0:0:0
256,192,109232,1,8,0:0:0
256,192,109313,5,0,0:0:0
256,192,109394,5,8,0:0:0
256,192,109475,5,0,0:0:0
256,192,109556,1,0,0:0:0
256,192,109637,5,8,0:0:0
256,192,109718,5,0,0:0:0
256,192,109800,1,0,0:0:0
256,192,109881,5,8,0:0:0
256,192,109962,5,0,0:0:0
256,192,110043,5,8,0:0:0
256,192,110124,5,0,0:0:0
256,192,110205,1,0,0:0:0
256,192,110286,5,8,0:0:0
256,192,110367,5,0,0:0:0
256,192,110448,5,8,0:0:0
256,192,110529,1,8,0:0:0
256,192,110610,5,0,0:0:0
256,192,110691,5,8,0:0:0
256,192,110773,5,0,0:0:0
256,192,110854,1,0,0:0:0
256,192,110935,5,8,0:0:0
256,192,111016,5,0,0:0:0
256,192,111097,1,0,0:0:0
256,192,111178,5,8,0:0:0
256,192,111259,5,0,0:0:0
256,192,111340,5,8,0:0:0
256,192,111421,5,0,0:0:0
256,192,111502,1,0,0:0:0
256,192,111583,5,8,0:0:0
256,192,111664,5,0,0:0:0
256,192,111746,5,8,0:0:0
256,192,111827,1,8,0:0:0
256,192,111908,5,0,0:0:0
256,192,111989,5,8,0:0:0
256,192,112070,5,0,0:0:0
256,192,112151,1,0,0:0:0
256,192,112232,5,8,0:0:0
256,192,112313,5,0,0:0:0
256,192,112394,5,8,0:0:0
256,192,112475,5,0,0:0:0
256,192,112557,5,8,0:0:0
256,192,112637,5,0,0:0:0
256,192,112719,1,0,0:0:0
256,192,112800,5,8,0:0:0
256,192,112881,5,0,0:0:0
256,192,112962,1,0,0:0:0
256,192,113043,5,8,0:0:0
256,192,113124,5,0,0:0:0
256,192,113205,1,0,0:0:0
256,192,113286,5,8,0:0:0
256,192,113367,5,0,0:0:0
256,192,113448,1,0,0:0:0
256,192,113529,5,8,0:0:0
256,192,113610,5,0,0:0:0
256,192,113691,5,8,0:0:0
256,192,113773,1,8,0:0:0
256,192,113854,5,0,0:0:0
256,192,113935,5,8,0:0:0
256,192,114016,5,0,0:0:0
256,192,114097,5,8,0:0:0
256,192,114178,5,0,0:0:0
256,192,114259,1,0,0:0:0
256,192,114340,5,8,0:0:0
256,192,114421,5,0,0:0:0
256,192,114502,5,8,0:0:0
256,192,114827,5,4,0:0:0
