osu file format v14

[General]
AudioFilename: Audio.mp3
AudioLeadIn: 0
PreviewTime: 62701
Countdown: 0
SampleSet: Normal
StackLeniency: 0.7
Mode: 3
LetterboxInBreaks: 0
SpecialStyle: 0
WidescreenStoryboard: 0

[Editor]
DistanceSpacing: 1.7
BeatDivisor: 4
GridSize: 4
TimelineZoom: 2.2

[Metadata]
Title:Black Rose
TitleUnicode:Black Rose
Artist:BlackY
ArtistUnicode:BlackY
Creator:SanadaYukimura
Version:Another
Source:
Tags:ZZHBOY sahuang Hollow Wings Rumia-
BeatmapID:1129137
BeatmapSetID:532963

[Difficulty]
HPDrainRate:9
CircleSize:4
OverallDifficulty:9
ApproachRate:5
SliderMultiplier:1.4
SliderTickRate:1

[Events]
//Background and Video events
0,0,"BG.jpg",0,0
//Break Periods
2,2068,50834
//Storyboard Layer 0 (Background)
//Storyboard Layer 1 (Fail)
//Storyboard Layer 2 (Pass)
//Storyboard Layer 3 (Foreground)
//Storyboard Sound Samples

[TimingPoints]
35,333.333333333333,4,1,0,40,1,0
25368,-100,4,2,2,30,0,1
35868,-100,4,2,2,30,0,0
36034,-100,4,2,2,30,0,1
46701,-100,4,2,2,30,0,0
62701,-100,4,2,2,30,0,1
73201,-100,4,2,2,30,0,0
73368,-100,4,2,2,30,0,1
83868,-100,4,2,2,30,0,0
84034,-100,4,2,2,30,0,1
94534,-100,4,2,2,30,0,0
94701,-100,4,2,2,30,0,1
105368,-100,4,2,2,30,0,0

[HitObjects]
448,192,35,5,0,0:0:0:0:
192,192,35,1,0,0:0:0:0:
64,192,35,1,0,0:0:0:0:
64,192,201,1,0,0:0:0:0:
320,192,368,1,0,0:0:0:0:
192,192,535,1,0,0:0:0:0:
448,192,868,1,0,0:0:0:0:
320,192,1035,1,0,0:0:0:0:
192,192,1201,1,0,0:0:0:0:
64,192,1368,1,0,0:0:0:0:
320,192,1368,1,0,0:0:0:0:
448,192,1368,1,0,0:0:0:0:
448,192,1535,1,0,0:0:0:0:
192,192,1701,1,0,0:0:0:0:
320,192,1868,1,0,0:0:0:0:
64,192,52034,5,0,0:0:0:0:
192,192,52034,1,0,0:0:0:0:
448,192,52034,1,0,0:0:0:0:
64,192,52201,1,0,0:0:0:0:
448,192,52368,1,0,0:0:0:0:
320,192,52368,128,0,52534:0:0:0:0:
192,192,52534,128,0,52701:0:0:0:0:
64,192,52534,1,0,0:0:0:0:
320,192,52701,1,0,0:0:0:0:
448,192,52701,1,0,0:0:0:0:
448,192,52868,1,0,0:0:0:0:
192,192,53034,1,0,0:0:0:0:
64,192,53034,1,0,0:0:0:0:
448,192,53201,1,0,0:0:0:0:
320,192,53201,1,0,0:0:0:0:
64,192,53368,1,0,0:0:0:0:
448,192,53368,1,0,0:0:0:0:
192,192,53368,1,0,0:0:0:0:
64,192,53534,1,0,0:0:0:0:
320,192,53701,128,0,53868:0:0:0:0:
448,192,53701,1,0,0:0:0:0:
64,192,53868,1,0,0:0:0:0:
192,192,53868,128,0,54034:0:0:0:0:
320,192,54034,1,0,0:0:0:0:
448,192,54034,1,0,0:0:0:0:
448,192,54201,1,0,0:0:0:0:
192,192,54368,1,0,0:0:0:0:
64,192,54368,1,0,0:0:0:0:
320,192,54534,1,0,0:0:0:0:
448,192,54534,1,0,0:0:0:0:
192,192,54701,1,0,0:0:0:0:
64,192,54701,1,0,0:0:0:0:
448,192,54701,1,0,0:0:0:0:
64,192,54868,1,0,0:0:0:0:
448,192,55034,1,0,0:0:0:0:
320,192,55034,1,0,0:0:0:0:
192,192,55201,1,0,0:0:0:0:
64,192,55201,1,0,0:0:0:0:
320,192,55368,1,0,0:0:0:0:
64,192,55368,1,0,0:0:0:0:
448,192,55368,1,0,0:0:0:0:
448,192,55534,1,0,0:0:0:0:
64,192,55701,1,0,0:0:0:0:
192,192,55701,1,0,0:0:0:0:
320,192,55868,1,0,0:0:0:0:
448,192,55868,1,0,0:0:0:0:
192,192,56034,1,0,0:0:0:0:
64,192,56034,1,0,0:0:0:0:
448,192,56034,1,0,0:0:0:0:
64,192,56201,1,0,0:0:0:0:
320,192,56368,1,0,0:0:0:0:
448,192,56368,1,0,0:0:0:0:
192,192,56534,1,0,0:0:0:0:
64,192,56534,1,0,0:0:0:0:
64,192,56701,1,0,0:0:0:0:
320,192,56701,1,0,0:0:0:0:
448,192,56701,1,0,0:0:0:0:
448,192,56868,1,0,0:0:0:0:
192,192,57034,1,0,0:0:0:0:
64,192,57034,1,0,0:0:0:0:
320,192,57201,1,0,0:0:0:0:
448,192,57201,1,0,0:0:0:0:
192,192,57368,1,0,0:0:0:0:
64,192,57368,1,0,0:0:0:0:
448,192,57368,1,0,0:0:0:0:
64,192,57534,1,0,0:0:0:0:
192,192,57534,1,0,0:0:0:0:
320,192,57618,1,0,0:0:0:0:
448,192,57701,1,0,0:0:0:0:
64,192,57701,1,0,0:0:0:0:
192,192,57701,1,0,0:0:0:0:
448,192,57868,1,0,0:0:0:0:
320,192,57868,1,0,0:0:0:0:
192,192,57951,1,0,0:0:0:0:
64,192,58034,1,0,0:0:0:0:
448,192,58034,1,0,0:0:0:0:
320,192,58034,1,0,0:0:0:0:
192,192,58201,1,0,0:0:0:0:
64,192,58201,1,0,0:0:0:0:
320,192,58284,1,0,0:0:0:0:
192,192,58368,1,0,0:0:0:0:
448,192,58368,1,0,0:0:0:0:
64,192,58368,1,0,0:0:0:0:
320,192,58534,1,0,0:0:0:0:
448,192,58534,1,0,0:0:0:0:
192,192,58618,1,0,0:0:0:0:
448,192,58701,1,0,0:0:0:0:
64,192,58701,1,0,0:0:0:0:
320,192,58701,1,0,0:0:0:0:
192,192,58784,1,0,0:0:0:0:
448,192,58868,1,0,0:0:0:0:
64,192,58868,1,0,0:0:0:0:
320,192,58951,1,0,0:0:0:0:
192,192,59034,1,0,0:0:0:0:
64,192,59034,1,0,0:0:0:0:
448,192,59034,1,0,0:0:0:0:
320,192,59118,1,0,0:0:0:0:
448,192,59201,1,0,0:0:0:0:
64,192,59201,1,0,0:0:0:0:
192,192,59284,1,0,0:0:0:0:
448,192,59368,1,0,0:0:0:0:
320,192,59368,1,0,0:0:0:0:
64,192,59368,1,0,0:0:0:0:
192,192,59451,1,0,0:0:0:0:
448,192,59534,1,0,0:0:0:0:
64,192,59534,1,0,0:0:0:0:
320,192,59618,1,0,0:0:0:0:
192,192,59701,1,0,0:0:0:0:
64,192,59701,1,0,0:0:0:0:
448,192,59701,1,0,0:0:0:0:
320,192,59784,1,0,0:0:0:0:
64,192,59868,1,0,0:0:0:0:
448,192,59868,1,0,0:0:0:0:
192,192,59951,1,0,0:0:0:0:
320,192,60034,1,0,0:0:0:0:
448,192,60034,1,0,0:0:0:0:
64,192,60118,1,0,0:0:0:0:
192,192,60118,1,0,0:0:0:0:
320,192,60201,1,0,0:0:0:0:
448,192,60201,1,0,0:0:0:0:
64,192,60284,1,0,0:0:0:0:
192,192,60284,1,0,0:0:0:0:
448,192,60368,1,0,0:0:0:0:
320,192,60368,1,0,0:0:0:0:
192,192,60451,1,0,0:0:0:0:
64,192,60451,1,0,0:0:0:0:
320,192,60534,1,0,0:0:0:0:
448,192,60534,1,0,0:0:0:0:
64,192,60618,1,0,0:0:0:0:
192,192,60618,1,0,0:0:0:0:
320,192,60701,1,0,0:0:0:0:
448,192,60701,1,0,0:0:0:0:
64,192,60784,1,0,0:0:0:0:
192,192,60868,1,0,0:0:0:0:
320,192,60868,1,0,0:0:0:0:
448,192,60951,1,0,0:0:0:0:
64,192,61034,1,0,0:0:0:0:
192,192,61034,1,0,0:0:0:0:
320,192,61118,1,0,0:0:0:0:
448,192,61118,1,0,0:0:0:0:
64,192,61201,1,0,0:0:0:0:
192,192,61201,1,0,0:0:0:0:
320,192,61284,1,0,0:0:0:0:
64,192,61368,1,0,0:0:0:0:
448,192,61368,1,0,0:0:0:0:
192,192,61368,1,0,0:0:0:0:
64,192,61618,1,0,0:0:0:0:
192,192,61618,1,0,0:0:0:0:
448,192,61618,1,0,0:0:0:0:
64,192,61868,1,0,0:0:0:0:
320,192,61868,1,0,0:0:0:0:
448,192,61868,1,0,0:0:0:0:
64,192,62034,1,0,0:0:0:0:
448,192,62034,1,0,0:0:0:0:
320,192,62118,1,0,0:0:0:0:
192,192,62201,1,0,0:0:0:0:
64,192,62201,1,0,0:0:0:0:
320,192,62284,1,0,0:0:0:0:
448,192,62284,1,0,0:0:0:0:
192,192,62368,1,0,0:0:0:0:
64,192,62368,1,0,0:0:0:0:
320,192,62451,1,0,0:0:0:0:
448,192,62534,1,0,0:0:0:0:
64,192,62534,1,0,0:0:0:0:
192,192,62618,1,0,0:0:0:0:
448,192,62701,1,0,0:0:0:0:
64,192,62701,1,0,0:0:0:0:
320,192,62701,1,0,0:0:0:0:
192,192,62868,1,0,0:0:0:0:
320,192,62951,1,0,0:0:0:0:
448,192,63034,1,0,0:0:0:0:
64,192,63034,1,0,0:0:0:0:
192,192,63118,1,0,0:0:0:0:
320,192,63201,1,0,0:0:0:0:
448,192,63201,1,0,0:0:0:0:
64,192,63284,1,0,0:0:0:0:
192,192,63368,1,0,0:0:0:0:
448,192,63368,1,0,0:0:0:0:
320,192,63451,1,0,0:0:0:0:
64,192,63534,1,0,0:0:0:0:
192,192,63534,1,0,0:0:0:0:
448,192,63618,1,0,0:0:0:0:
320,192,63701,1,0,0:0:0:0:
64,192,63701,1,0,0:0:0:0:
192,192,63868,1,0,0:0:0:0:
448,192,63868,1,0,0:0:0:0:
320,192,63951,1,0,0:0:0:0:
448,192,64034,1,0,0:0:0:0:
192,192,64034,1,0,0:0:0:0:
64,192,64034,1,0,0:0:0:0:
320,192,64201,1,0,0:0:0:0:
192,192,64284,1,0,0:0:0:0:
320,192,64368,1,0,0:0:0:0:
448,192,64368,1,0,0:0:0:0:
64,192,64451,1,0,0:0:0:0:
192,192,64534,1,0,0:0:0:0:
320,192,64618,1,0,0:0:0:0:
448,192,64701,1,0,0:0:0:0:
64,192,64701,1,0,0:0:0:0:
192,192,64868,1,0,0:0:0:0:
320,192,64868,1,0,0:0:0:0:
64,192,65034,1,0,0:0:0:0:
448,192,65034,1,0,0:0:0:0:
320,192,65118,1,0,0:0:0:0:
192,192,65201,1,0,0:0:0:0:
320,192,65284,1,0,0:0:0:0:
448,192,65368,1,0,0:0:0:0:
192,192,65368,1,0,0:0:0:0:
64,192,65368,1,0,0:0:0:0:
