osu file format v12

[General]
AudioFilename: ZOMFG THIS FUKIN TRACK IS SO SICK FUAAARRRKKKK.mp3
AudioLeadIn: 0
PreviewTime: 234405
Countdown: 0
SampleSet: Soft
StackLeniency: 0.7
Mode: 0
LetterboxInBreaks: 0
WidescreenStoryboard: 1

[Editor]
Bookmarks: 33474,44637,55800,66963,78125,89288,100451,111614,122777,133939,145102,156265,167428,178591,189753,200916,212079,223242,234405,245567,256730,267893,279056,290218,301381,312544,323707,334870,346032,357195,368358,379521
DistanceSpacing: 0.1
BeatDivisor: 4
GridSize: 4

[Metadata]
Title:Dawn Of A Dark Day (Receptor Remix)
TitleUnicode:Dawn Of A Dark Day (Receptor Remix)
Artist:Black Sun Empire
ArtistUnicode:Black Sun Empire
Creator:Natteke
Version:Marathon
Source:
Tags:drum and bass dnb
BeatmapID:238648
BeatmapSetID:87353

[Difficulty]
HPDrainRate:7
CircleSize:4
OverallDifficulty:8
ApproachRate:9
SliderMultiplier:1.4
SliderTickRate:2

[Events]
//Background and Video events
0,0,"bg.png",0,0
//Break Periods
//Storyboard Layer 0 (Background)
//Storyboard Layer 1 (Fail)
//Storyboard Layer 2 (Pass)
//Storyboard Layer 3 (Foreground)
//Storyboard Sound Samples
//Background Colour Transformations
3,100,0,0,0

[TimingPoints]
22312,348.837209302326,4,2,0,45,1,0
23358,-142.857142857143,4,2,0,45,0,0
24928,-142.857142857143,4,3,0,30,0,0
44463,-100,4,2,0,60,0,0
65480,-100,4,2,0,75,0,0
66963,-90.9090909090909,4,1,1,100,0,0
82224,-90.9090909090909,4,1,1,35,0,0
82573,-90.9090909090909,4,1,1,100,0,0
110567,-90.9090909090909,4,2,1,5,0,0
111439,-90.9090909090909,4,1,1,85,0,0
111875,-90.9090909090909,4,1,1,5,0,0
122689,-200,4,1,1,50,0,0
122864,-200,4,1,1,5,0,0
124695,-142.857142857143,4,1,1,9,0,0
130102,-142.857142857143,4,2,1,9,0,0
133852,-200,4,2,1,50,0,0
134027,-200,4,2,1,5,0,0
139346,-133.333333333333,4,2,1,45,0,0
139608,-133.333333333333,4,2,1,5,0,0
145015,-166.666666666667,4,2,1,50,0,0
145189,-166.666666666667,4,2,1,5,0,0
147718,-133.333333333333,4,2,1,50,0,0
147980,-133.333333333333,4,2,1,5,0,0
148503,-133.333333333333,4,2,1,50,0,0
152889,-133.333333333333,4,2,1,5,0,0
156091,-200,4,2,1,50,0,0
156439,-200,4,2,1,5,0,0
157573,-200,4,2,1,50,0,0
159143,-200,4,2,1,5,0,0
160364,-200,4,2,1,50,0,0
160538,-200,4,2,1,5,0,0
160713,-200,4,2,1,50,0,0
161934,-200,4,2,1,5,0,0
163155,-200,4,2,1,40,0,0
164375,-200,4,2,1,25,0,0
164550,-200,4,2,1,40,0,0
164724,-200,4,2,1,5,0,0
165945,-200,4,2,1,45,0,0
166643,-100,4,1,1,55,0,0
166817,-100,4,1,1,75,0,0
167341,-100,4,1,1,85,0,0
168474,-100,4,1,1,35,0,0
172835,-100,4,1,1,65,0,0
173096,-100,4,2,1,5,0,0
173620,-100,4,1,1,85,0,0
174143,-100,4,1,1,25,0,0
174317,-100,4,1,1,75,0,0
174492,-100,4,1,1,5,0,0
174928,-100,4,2,1,35,0,0
175364,-100,4,1,1,45,0,0
175538,-100,4,1,1,25,0,0
175713,-100,4,1,1,50,0,0
175887,-100,4,1,1,5,0,0
176062,-100,4,1,1,35,0,0
178242,-83.3333333333333,4,1,1,95,0,0
178852,-83.3333333333333,4,1,1,5,0,0
179027,-83.3333333333333,4,1,1,95,0,0
181207,-83.3333333333333,4,2,1,5,0,0
181338,-83.3333333333333,4,1,1,95,0,0
184041,-83.3333333333333,4,2,1,5,0,0
184128,-83.3333333333333,4,1,1,95,0,0
186788,-83.3333333333333,4,2,1,5,0,0
186919,-83.3333333333333,4,1,1,95,0,0
192370,-83.3333333333333,4,2,1,5,0,0
192500,-83.3333333333333,4,1,1,95,0,0
195160,-83.3333333333333,4,2,1,5,0,0
195291,-83.3333333333333,4,1,1,95,0,0
197951,-83.3333333333333,4,2,1,5,0,0
198082,-83.3333333333333,4,1,1,95,0,0
231352,-83.3333333333333,4,2,1,5,0,0
231527,-83.3333333333333,4,1,1,95,0,0
232050,-83.3333333333333,4,2,1,5,0,0
232224,-83.3333333333333,4,1,1,95,0,0
242689,-83.3333333333333,4,1,1,75,0,0
244346,-83.3333333333333,4,1,1,35,0,0
245567,-66.6666666666667,4,1,1,100,0,1
250189,-66.6666666666667,4,1,1,80,0,0
251149,-66.6666666666667,4,1,1,100,0,1
255945,-66.6666666666667,4,1,1,100,0,0
256730,-66.6666666666667,4,1,1,100,0,1
260829,-66.6666666666667,4,1,1,100,0,0
262312,-66.6666666666667,4,1,1,100,0,1
267195,-100,4,2,1,100,0,0
267806,-66.6666666666667,4,1,1,100,0,0
270771,-66.6666666666667,4,1,1,70,0,0
270945,-66.6666666666667,4,1,1,100,0,0
290218,-66.6666666666667,4,1,1,100,0,1
295015,-66.6666666666667,4,1,1,100,0,0
295800,-66.6666666666667,4,1,1,100,0,1
301032,-66.6666666666667,4,1,1,100,0,0
301381,-66.6666666666667,4,1,1,100,0,1
306178,-66.6666666666667,4,1,1,100,0,0
306963,-66.6666666666667,4,1,1,100,0,1
311323,-66.6666666666667,4,2,1,35,0,0
312370,-66.6666666666667,4,1,1,100,0,0
322050,-66.6666666666667,4,1,1,50,0,0
323271,-66.6666666666667,4,1,1,80,0,0
323445,-66.6666666666667,4,1,1,100,0,0
331992,-100,4,1,1,100,0,0
332515,-66.6666666666667,4,1,1,100,0,0
334870,-64.5161290322581,4,1,1,100,0,0
351003,-64.5161290322581,4,1,1,65,0,0
351614,-64.5161290322581,4,1,1,100,0,0
357021,-100,4,1,1,60,0,0
357980,-100,4,1,1,57,0,0
358329,-100,4,1,1,54,0,0
358678,-100,4,1,1,52,0,0
359201,-100,4,1,1,50,0,0
359899,-100,4,1,1,45,0,0
360771,-100,4,1,1,43,0,0
361294,-100,4,1,1,41,0,0
362689,-100,4,1,1,35,0,0
363562,-100,4,1,1,32,0,0
363910,-100,4,1,1,30,0,0
364695,-100,4,1,1,50,0,0
379608,-64.5161290322581,4,2,1,5,0,0

[Colours]
Combo1 : 17,254,176
Combo2 : 173,255,95
Combo3 : 255,88,100
Combo4 : 255,94,55

[HitObjects]
256,192,19521,12,4,22312,0:0:0:0:
81,219,22486,5,8,0:3:0:0:
119,287,22660,1,2,0:0:0:0:
196,266,22835,1,8,0:3:0:0:
197,191,23009,1,2,0:0:0:0:
129,158,23184,1,0,0:0:0:0:
129,158,23532,1,0,0:0:0:0:
129,158,23707,6,0,P|139:98|224:72,1,146.999995513916
276,116,24405,1,4,0:3:0:0:
276,116,24492,1,0,0:0:0:0:
276,116,24579,1,4,0:3:0:0:
292,192,24753,1,8,0:3:0:0:
444,236,25102,6,0,L|440:304,1,48.9999985046387,0|2,0:3|0:3,0:3:0:0:
408,308,25364,2,0,L|320:304,1,73.4999977569581,4|4,0:0|0:0,3:0:0:0:
260,328,25800,1,4,0:0:0:0:
260,328,25887,1,8,0:0:0:0:
260,328,25974,1,2,0:0:0:0:
104,340,26323,1,4,0:0:0:0:
104,340,26498,6,8,P|82:289|149:219,1,146.999995513916
208,204,27195,1,4,0:0:0:0:
208,204,27282,1,8,0:0:0:0:
208,204,27370,1,2,0:0:0:0:
208,204,27544,1,0,0:0:0:0:
208,204,27893,6,0,L|200:144,1,48.9999985046387,4|2,0:0|0:0,0:0:0:0:
176,124,28155,1,0,0:0:0:0:
320,52,28416,1,8,0:0:0:0:
320,52,28591,1,4,0:0:0:0:
320,52,28678,1,8,0:0:0:0:
320,52,28765,1,4,0:0:0:0:
380,100,28939,1,2,0:0:0:0:
308,128,29114,1,0,0:0:0:0:
320,52,29288,6,0,P|366:109|343:187,1,146.999995513916,2|8,0:0|0:0,0:0:0:0:
396,240,29986,1,4,0:0:0:0:
396,240,30073,1,8,0:0:0:0:
396,240,30160,1,2,0:0:0:0:
320,244,30335,1,4,0:0:0:0:
360,312,30509,1,2,0:0:0:0:
280,312,30684,6,0,L|213:309,1,48.9999985046387
196,320,30945,1,0,0:0:0:0:
140,164,31207,1,0,0:0:0:0:
64,216,31381,1,4,0:0:0:0:
64,216,31468,1,8,0:0:0:0:
64,216,31556,1,8,0:0:0:0:
64,216,31905,1,0,0:0:0:0:
108,296,32079,6,0,P|149:262|245:281,1,146.999995513916,2|4,0:0|0:0,0:0:0:0:
304,324,32777,1,4,0:0:0:0:
304,324,32864,1,8,0:0:0:0:
304,324,32951,1,2,0:0:0:0:
384,304,33125,1,0,0:0:0:0:
464,280,33300,1,0,0:0:0:0:
416,172,33474,6,4,L|428:79,2,73.4999977569581
360,232,34172,1,2,0:0:0:0:
384,304,34346,2,0,P|336:322|280:297,1,97.9999970092774,0|4,0:0|0:0,0:0:0:0:
232,256,34870,2,0,L|128:252,1,97.9999970092774,8|8,0:0|0:0,0:0:0:0:
72,204,35393,1,0,0:0:0:0:
72,124,35567,1,4,0:0:0:0:
72,124,35655,1,2,0:0:0:0:
72,124,35742,1,4,0:0:0:0:
132,72,35916,2,0,L|192:76,1,48.9999985046387,8|2,0:0|0:0,0:0:0:0:
360,124,36265,6,0,L|292:120,1,48.9999985046387,4|2,0:0|0:0,0:0:0:0:
272,132,36527,2,0,L|281:224,1,73.4999977569581,4|4,0:0|0:0,0:0:0:0:
112,196,36963,1,4,0:0:0:0:
112,196,37050,1,2,0:0:0:0:
112,196,37137,2,0,L|180:192,1,48.9999985046387,8|2,0:0|0:0,0:0:0:0:
56,260,37486,1,0,0:0:0:0:
140,292,37660,6,0,L|300:276,1,146.999995513916,2|4,0:0|0:0,0:0:0:0:
360,308,38358,1,4,0:0:0:0:
367,309,38445,1,2,0:0:0:0:
374,310,38532,1,4,0:0:0:0:
460,272,38707,2,0,L|464:212,1,48.9999985046387
392,188,39056,6,0,P|361:114|175:129,1,293.999991027832,4|8,1:0|0:0,0:0:0:0:
140,196,40277,1,4,0:0:0:0:
100,128,40451,6,0,L|84:288,1,146.999995513916,2|0,0:0|0:0,0:0:0:0:
148,324,41149,1,4,0:0:0:0:
152,322,41236,1,2,0:0:0:0:
156,321,41323,1,4,0:0:0:0:
224,280,41498,2,0,L|296:284,1,48.9999985046387,4|0,0:0|0:0,0:0:0:0:
328,227,41846,6,0,P|388:234|415:241,2,73.4999977569581,0|4|4,0:0|0:0|0:0,0:0:0:0:
284,160,42544,1,4,0:0:0:0:
279,159,42631,1,2,0:0:0:0:
274,158,42718,1,4,0:0:0:0:
208,112,42893,2,0,L|140:116,1,48.9999985046387,4|0,0:0|0:0,0:0:0:0:
64,112,43242,6,0,P|34:181|82:291,1,195.999994018555,0|4,0:0|0:0,0:0:0:0:
77,287,44027,1,2,0:0:0:0:
77,287,44114,1,4,0:0:0:0:
77,287,44288,1,0,0:0:0:0:
192,328,44637,5,4,1:0:0:0:
192,328,44986,1,2,0:0:0:0:
76,284,45160,1,0,0:0:0:0:
76,284,45247,1,0,0:0:0:0:
76,284,45334,1,0,0:0:0:0:
76,284,45421,1,0,0:0:0:0:
76,284,45509,1,0,0:0:0:0:
124,188,45684,1,2,0:0:0:0:
44,120,45858,1,0,0:0:0:0:
76,284,46032,6,0,P|144:281|224:250,1,140,4|2,0:0|0:0,0:0:0:0:
304,308,46556,1,0,0:0:0:0:
304,308,46643,1,0,0:0:0:0:
304,308,46730,1,0,0:0:0:0:
304,308,46817,1,0,0:0:0:0:
304,308,46905,2,0,P|344:298|377:294,1,70,0|8,0:0|0:0,0:0:0:0:
476,296,47253,1,8,0:0:0:0:
348,132,47428,6,0,P|335:184|331:214,1,70,4|0,1:0|0:0,0:0:0:0:
224,288,47777,2,0,P|221:271|208:219,1,70,2|0,2:0|2:0,0:0:0:0:
152,132,48125,1,0,0:0:0:0:
52,96,48300,1,0,0:0:0:0:
264,188,48474,1,2,0:0:0:0:
364,216,48649,1,0,1:0:0:0:
152,132,48823,6,0,P|124:196|106:275,1,140,4|0,0:0|0:0,0:0:0:0:
176,344,49346,1,0,0:0:0:0:
176,344,49434,1,0,0:0:0:0:
176,344,49521,1,0,0:0:0:0:
176,344,49608,1,0,0:0:0:0:
176,344,49695,1,0,0:0:0:0:
276,316,49870,1,4,1:0:0:0:
276,316,50218,6,0,P|282:274|284:234,1,70,4|0,1:0|0:0,0:0:0:0:
364,152,50567,1,2,0:0:0:0:
364,152,50655,1,0,1:0:0:0:
364,152,50742,2,0,P|365:179|371:221,1,70,0|0,1:0|1:0,0:0:0:0:
436,304,51091,1,0,0:0:0:0:
472,204,51265,2,0,P|468:145|461:112,1,70,2|0,0:0|0:0,0:0:0:0:
276,208,51614,6,0,P|259:283|251:374,1,140,4|2,0:0|0:0,0:0:0:0:
156,240,52137,1,0,0:0:0:0:
380,256,52312,2,0,P|386:204|384:172,1,70,0|0,0:0|1:0,0:0:0:0:
385,186,52573,1,0,0:0:0:0:
385,186,52660,1,2,0:0:0:0:
336,92,52835,1,0,0:0:0:0:
165,170,53009,6,0,P|164:180|156:240,1,70,0|0,1:0|0:0,0:0:0:0:
156,240,53271,1,0,1:0:0:0:
156,240,53358,1,2,0:0:0:0:
236,352,53532,1,0,0:0:0:0:
236,352,53620,1,0,0:0:0:0:
236,352,53707,1,0,0:0:0:0:
236,352,53794,1,0,0:0:0:0:
236,352,53881,1,0,0:0:0:0:
268,224,54056,2,0,P|274:174|274:139,1,70,2|0,0:0|0:0,0:0:0:0:
48,220,54405,6,0,P|36:290|32:390,1,140,4|0,0:0|0:0,0:0:0:0:
156,240,54928,1,0,0:0:0:0:
156,240,55015,1,0,0:0:0:0:
156,240,55102,1,0,0:0:0:0:
156,240,55189,1,0,1:0:0:0:
156,240,55277,1,0,0:0:0:0:
164,136,55451,1,8,0:0:0:0:
124,40,55625,1,8,0:0:0:0:
240,196,55800,6,0,P|265:227|289:256,1,70,4|0,1:0|0:0,0:0:0:0:
296,72,56149,2,0,P|301:126|306:155,1,70
303,141,56410,1,0,0:0:0:0:
303,141,56498,1,0,0:0:0:0:
303,141,56585,1,0,0:0:0:0:
303,141,56672,1,0,0:0:0:0:
452,112,56846,1,2,0:0:0:0:
164,136,57021,1,0,0:0:0:0:
452,112,57195,6,0,P|446:188|436:275,1,140,4|0,0:0|0:0,0:0:0:0:
336,232,57718,1,0,0:0:0:0:
336,232,57806,1,0,0:0:0:0:
336,232,57893,1,0,0:0:0:0:
336,232,57980,1,0,1:0:0:0:
336,232,58067,1,0,0:0:0:0:
244,284,58242,1,8,0:0:0:0:
156,228,58416,1,2,0:0:0:0:
56,256,58591,6,0,P|42:309|40:341,1,70,4|0,1:0|0:0,0:0:0:0:
88,160,58939,2,0,P|86:145|72:92,1,70,8|0,0:0|0:0,0:0:0:0:
72,92,59201,1,0,0:0:0:0:
72,92,59288,1,2,0:0:0:0:
72,92,59375,1,0,0:0:0:0:
72,92,59463,1,0,0:0:0:0:
176,100,59637,1,8,0:0:0:0:
280,84,59812,1,0,1:0:0:0:
4,188,59986,6,0,P|18:255|42:327,1,140,4|8,0:0|0:0,0:0:0:0:
116,252,60509,1,2,0:0:0:0:
116,252,60596,1,0,0:0:0:0:
116,252,60684,1,2,0:0:0:0:
116,252,60771,1,0,1:0:0:0:
116,252,60858,1,0,0:0:0:0:
216,284,61032,1,8,0:0:0:0:
216,284,61381,6,0,P|225:226|224:199,1,70,4|0,1:0|0:0,0:0:0:0:
224,214,61643,1,0,1:0:0:0:
224,214,61730,1,8,0:0:0:0:
120,96,61905,1,2,0:0:0:0:
120,96,61992,1,0,0:0:0:0:
120,96,62079,1,2,0:0:0:0:
120,96,62166,1,0,1:0:0:0:
120,96,62253,1,0,0:0:0:0:
52,240,62428,1,8,0:0:0:0:
224,214,62602,1,0,0:0:0:0:
52,240,62777,6,0,P|71:177|84:95,1,140,4|8,0:0|0:0,0:0:0:0:
152,280,63300,1,0,0:0:0:0:
152,280,63387,1,0,0:0:0:0:
152,280,63474,1,2,0:0:0:0:
152,280,63562,1,0,0:0:0:0:
152,280,63649,2,0,P|165:220|167:188,1,70,0|8,1:0|0:0,0:0:0:0:
165,211,64172,6,0,L|310:211,1,140,4|8,1:0|0:0,0:0:0:0:
340,312,64695,1,0,0:0:0:0:
340,312,64782,1,0,0:0:0:0:
340,312,64870,1,2,0:0:0:0:
340,312,64957,1,0,1:0:0:0:
340,312,65044,1,0,1:0:0:0:
412,236,65218,1,8,0:0:0:0:
240,328,65393,1,0,0:0:0:0:
424,140,65567,6,0,P|427:85|428:-4,1,140,4|4,0:0|0:0,0:0:0:0:
340,60,66091,1,0,0:0:0:0:
272,140,66265,1,4,0:0:0:0:
272,140,66352,1,0,0:0:0:0:
272,140,66439,1,0,0:0:0:0:
172,172,66614,1,4,0:0:0:0:
68,176,66788,1,0,0:0:0:0:
272,140,66963,6,0,P|280:91|280:57,1,77.0000023498536,4|0,0:0|2:0,0:0:0:0:
336,200,67312,2,0,P|336:227|344:276,1,77.0000023498536,8|0,0:0|2:0,0:0:0:0:
361,310,67573,1,0,2:0:0:0:
389,335,67660,1,0,2:0:0:0:
472,204,67835,1,0,0:0:0:0:
240,232,68009,2,0,P|188:245|156:250,1,77.0000023498536,8|0,0:0|2:0,0:0:0:0:
165,249,68358,6,0,P|188:176|190:108,1,115.50000352478,2|0,2:0|2:0,0:0:0:0:
197,101,68707,2,0,P|154:85|122:81,1,77.0000023498536,8|0,0:0|2:0,0:0:0:0:
84,80,68968,1,0,2:0:0:0:
48,95,69056,1,0,2:0:0:0:
276,188,69230,1,0,0:0:0:0:
388,120,69405,2,0,P|391:75|388:40,1,77.0000023498536,8|0,0:0|2:0,0:0:0:0:
328,278,69753,6,0,P|400:218|456:200,1,154.000004699707,4|8,0:0|0:0,0:0:0:0:
276,188,70277,1,0,2:0:0:0:
267,225,70364,1,0,1:0:0:0:
252,260,70451,1,0,2:0:0:0:
228,290,70538,1,0,0:0:0:0:
199,315,70625,1,0,0:0:0:0:
332,92,70800,2,0,P|340:138|359:183,1,77.0000023498536,8|0,0:0|2:0,0:0:0:0:
350,166,71498,5,8,0:0:0:0:
452,280,71672,1,0,2:0:0:0:
458,242,71759,1,0,0:0:0:0:
312,296,71934,1,0,2:0:0:0:
318,334,72021,1,0,0:0:0:0:
164,340,72195,2,0,P|173:293|177:259,1,77.0000023498536,8|0,0:0|2:0,0:0:0:0:
24,184,72544,6,0,P|30:244|37:278,1,77.0000023498536,4|0,0:0|2:0,0:0:0:0:
144,140,72893,1,8,0:0:0:0:
108,272,73067,1,0,2:0:0:0:
108,272,73155,2,0,P|115:313|119:358,1,77.0000023498536,0|0,2:0|0:0,0:0:0:0:
108,368,73416,1,0,0:0:0:0:
248,288,73591,1,8,0:0:0:0:
256,164,73765,1,0,2:0:0:0:
256,164,73852,1,0,2:0:0:0:
256,164,73939,6,0,P|266:112|271:44,1,115.50000352478,2|0,2:0|2:0,2:0:0:0:
304,32,74288,1,8,0:0:0:0:
384,176,74463,1,0,2:0:0:0:
384,176,74550,2,0,P|372:241|371:275,1,77.0000023498536,0|0,0:0|2:0,0:0:0:0:
380,288,74812,1,0,0:0:0:0:
473,172,74986,2,0,P|461:144|448:100,1,77.0000023498536,8|0,0:0|2:0,0:0:0:0:
460,320,75335,6,0,P|419:361|332:360,1,115.50000352478,4|0,0:0|2:0,0:0:0:0:
330,350,75684,1,8,0:0:0:0:
192,240,75858,1,0,2:0:0:0:
204,204,75945,2,0,P|213:164|216:120,1,77.0000023498536,0|0,2:0|0:0,0:0:0:0:
213,89,76207,1,0,0:0:0:0:
260,288,76381,2,0,P|265:329|273:370,1,77.0000023498536,8|0,0:0|2:0,0:0:0:0:
60,200,76730,6,0,P|96:247|125:304,1,115.50000352478,2|0,2:0|2:0,0:0:0:0:
130,334,77079,1,8,0:0:0:0:
160,164,77253,1,0,2:0:0:0:
168,128,77341,2,0,P|179:71|180:49,1,77.0000023498536,0|0,2:0|0:0,0:0:0:0:
176,16,77602,1,0,0:0:0:0:
260,160,77777,2,0,P|279:198|296:240,1,77.0000023498536,8|0,0:0|2:0,0:0:0:0:
120,352,78125,6,0,P|128:305|142:262,1,77.0000023498536,4|0,0:0|2:0,0:0:0:0:
171,259,78387,1,0,2:0:0:0:
207,245,78474,1,8,0:0:0:0:
372,324,78649,1,0,2:0:0:0:
336,332,78736,2,0,P|296:337|252:332,1,77.0000023498536,0|0,2:0|0:0,0:0:0:0:
222,323,78998,1,0,0:0:0:0:
440,276,79172,2,0,P|456:312|462:357,1,77.0000023498536,8|0,0:0|2:0,0:0:0:0:
472,192,79521,6,0,B|420:199|420:199|336:180,1,115.50000352478,2|0,2:0|2:0,0:0:0:0:
327,161,79870,2,0,L|308:250,1,77.0000023498536,8|0,0:0|2:0,0:0:0:0:
302,273,80131,1,0,2:0:0:0:
293,310,80218,1,0,2:0:0:0:
404,352,80393,1,0,0:0:0:0:
172,324,80567,1,8,0:0:0:0:
404,352,80742,1,0,2:0:0:0:
172,324,80916,6,0,P|165:265|163:234,1,77.0000023498536,4|0,0:0|2:0,0:0:0:0:
96,112,81265,1,8,0:0:0:0:
296,264,81439,1,0,1:0:0:0:
290,225,81527,1,0,1:0:0:0:
267,195,81614,1,0,2:0:0:0:
233,177,81701,1,0,0:0:0:0:
195,171,81788,1,0,0:0:0:0:
324,56,81963,2,0,P|321:101|320:146,1,77.0000023498536,8|0,0:0|2:0,0:0:0:0:
452,104,82312,5,2,0:0:0:0:
188,84,82486,1,2,0:0:0:0:
368,320,82660,2,0,P|371:275|366:229,1,77.0000023498536,8|0,0:0|2:0,0:0:0:0:
350,208,82922,1,0,1:0:0:0:
472,68,83096,1,0,2:0:0:0:
453,104,83184,2,0,P|450:135|453:180,1,77.0000023498536,0|8,0:0|0:0,0:0:0:0:
320,96,83532,1,0,0:0:0:0:
304,300,83707,6,0,P|295:234|251:196,1,115.50000352478,4|0,0:0|2:0,0:0:0:0:
223,196,84056,1,8,0:0:0:0:
80,100,84230,1,0,2:0:0:0:
76,140,84317,2,0,P|74:194|76:229,1,77.0000023498536,0|0,2:0|0:0,0:0:0:0:
67,254,84579,1,0,0:0:0:0:
184,148,84753,2,0,P|187:95|185:62,1,77.0000023498536,8|0,0:0|2:0,0:0:0:0:
168,296,85102,6,0,P|184:254|262:213,1,115.50000352478,2|0,2:0|2:0,0:0:0:0:
268,188,85451,2,0,L|272:278,1,77.0000023498536,8|0,0:0|2:0,0:0:0:0:
292,300,85713,1,0,0:0:0:0:
388,116,85887,1,0,0:0:0:0:
368,152,85975,2,0,L|364:228,1,77.0000023498536,0|8,2:0|0:0,0:0:0:0:
456,308,86323,1,0,2:0:0:0:
236,248,86498,6,0,L|228:338,1,77.0000023498536,4|0,0:0|2:0,0:0:0:0:
140,208,86846,1,8,0:0:0:0:
384,216,87021,1,0,2:0:0:0:
40,296,87195,2,0,L|32:206,1,77.0000023498536,0|0,2:0|1:0,0:0:0:0:
216,88,87544,2,0,L|208:178,1,77.0000023498536,8|0,1:0|2:0,0:0:0:0:
209,164,88242,5,8,0:0:0:0:
352,333,88416,1,0,2:0:0:0:
363,296,88503,1,0,2:0:0:0:
353,258,88591,1,0,2:0:0:0:
324,232,88678,1,0,1:0:0:0:
285,228,88765,1,0,1:0:0:0:
412,136,88939,2,0,P|414:190|417:225,1,77.0000023498536,8|0,0:0|2:0,0:0:0:0:
319,138,89288,6,0,P|323:78|291:30,1,115.50000352478,4|0,0:0|2:0,0:0:0:0:
255,30,89637,1,8,0:0:0:0:
152,214,89812,1,0,2:0:0:0:
144,176,89899,2,0,P|144:132|155:90,1,77.0000023498536,8|0,2:0|0:0,0:0:0:0:
188,84,90160,2,0,L|100:67,1,77.0000023498536,0|8,0:0|0:0,0:0:0:0:
244,152,90509,1,0,2:0:0:0:
244,152,91032,6,0,L|339:145,1,77.0000023498536,8|0,0:0|2:0,0:0:0:0:
357,133,91294,1,8,2:0:0:0:
394,126,91381,1,0,2:0:0:0:
428,110,91468,1,8,2:0:0:0:
465,103,91555,1,0,1:0:0:0:
276,232,91730,2,0,L|181:239,1,77.0000023498536,8|0,0:0|2:0,0:0:0:0:
356,256,92079,6,0,P|348:190|366:139,1,115.50000352478,4|0,0:0|2:0,0:0:0:0:
400,140,92428,2,0,L|382:59,1,77.0000023498536,8|0,0:0|0:0,0:0:0:0:
350,45,92689,1,0,2:0:0:0:
472,184,92864,1,0,2:0:0:0:
460,220,92951,2,0,P|444:288|444:308,1,77.0000023498536,0|8,2:0|0:0,0:0:0:0:
156,258,93300,1,0,2:0:0:0:
194,255,93387,1,8,2:0:0:0:
232,264,93474,6,0,B|275:278|275:278|290:279|290:279|360:299,1,115.50000352478,2|0,2:0|2:0,2:0:0:0:
380,288,93823,1,8,0:0:0:0:
365,63,93998,1,0,2:0:0:0:
356,100,94085,2,0,P|350:164|351:191,1,77.0000023498536,0|0,2:0|2:0,0:0:0:0:
340,216,94346,1,0,0:0:0:0:
456,140,94521,2,0,P|460:82|459:54,1,77.0000023498536,8|0,0:0|2:0,0:0:0:0:
256,176,94870,6,0,P|247:239|277:296,1,115.50000352478,4|0,0:0|2:0,0:0:0:0:
272,324,95218,1,8,0:0:0:0:
140,292,95393,1,0,2:0:0:0:
154,256,95480,1,8,2:0:0:0:
139,220,95567,1,0,2:0:0:0:
103,203,95655,1,8,1:0:0:0:
65,212,95742,2,0,L|56:128,1,77.0000023498536,0|8,0:0|0:0,0:0:0:0:
150,40,96091,1,0,2:0:0:0:
256,134,96265,6,0,P|328:148|388:112,1,115.50000352478,2|8,2:0|0:0,0:0:0:0:
387,100,96614,2,0,L|404:180,1,77.0000023498536,8|0,0:0|2:0,0:0:0:0:
398,213,96875,1,8,2:0:0:0:
309,337,97050,1,0,1:0:0:0:
304,300,97137,2,0,L|320:224,1,77.0000023498536,0|8,1:0|1:0,0:0:0:0:
212,144,97486,1,4,2:0:0:0:
100,216,97660,6,0,P|93:162|69:92,1,115.50000352478,4|0,0:0|2:0,0:0:0:0:
51,72,98009,1,8,0:0:0:0:
180,308,98184,2,0,P|187:254|211:184,1,115.50000352478,0|0,0:0|2:0,0:0:0:0:
229,164,98533,1,0,1:0:0:0:
384,188,98707,2,0,P|335:191|292:189,1,77.0000023498536,8|0,0:0|2:0,0:0:0:0:
284,220,98968,1,8,2:0:0:0:
276,258,99056,1,2,2:0:0:0:
464,96,99405,6,0,P|436:95|387:98,1,77.0000023498536,0|0,0:0|1:0,0:0:0:0:
296,28,99753,1,0,2:0:0:0:
284,64,99841,1,8,2:0:0:0:
250,83,99928,1,0,2:0:0:0:
212,88,100015,1,0,1:0:0:0:
175,76,100102,1,8,1:0:0:0:
296,28,100277,1,4,2:0:0:0:
416,176,100451,6,0,P|423:231|426:263,1,77.0000023498536,4|0,0:0|2:0,0:0:0:0:
320,344,100800,2,0,P|313:289|310:257,1,77.0000023498536,8|0,0:0|2:0,0:0:0:0:
320,228,101062,1,8,2:0:0:0:
196,176,101236,1,8,2:0:0:0:
201,213,101323,1,0,1:0:0:0:
181,245,101410,1,0,1:0:0:0:
146,263,101498,2,0,L|56:268,1,77.0000023498536,8|0,0:0|2:0,0:0:0:0:
225,346,101846,6,0,P|240:288|288:264,1,115.50000352478,2|0,2:0|2:0,0:0:0:0:
323,275,102195,2,0,L|311:190,1,77.0000023498536,8|0,0:0|2:0,0:0:0:0:
328,163,102457,1,8,2:0:0:0:
444,48,102631,1,8,2:0:0:0:
410,67,102718,1,0,1:0:0:0:
371,68,102806,1,0,1:0:0:0:
336,51,102893,2,0,L|242:32,1,77.0000023498536,8|0,0:0|2:0,0:0:0:0:
84,184,103242,6,0,P|99:126|142:92,1,115.50000352478,4|0,0:0|2:0,0:0:0:0:
168,64,103591,1,8,0:0:0:0:
324,144,103765,1,0,1:0:0:0:
288,160,103852,2,0,L|168:167,1,115.50000352478,0|0,2:0|2:0,2:0:0:0:
172,166,104201,1,0,0:0:0:0:
172,166,104288,1,8,0:0:0:0:
144,344,104463,1,0,0:0:0:0:
40,192,104637,6,0,P|33:127|55:64,1,115.50000352478,2|0,2:0|2:0,0:0:0:0:
32,44,104986,2,0,L|113:43,1,77.0000023498536,8|0,0:0|2:0,0:0:0:0:
144,56,105248,1,8,2:0:0:0:
283,193,105422,1,8,2:0:0:0:
295,156,105509,1,0,1:0:0:0:
284,119,105596,1,0,1:0:0:0:
252,96,105684,1,8,1:0:0:0:
376,76,105858,1,2,2:0:0:0:
416,228,106032,6,0,P|420:169|427:122,1,77.0000023498536,4|0,0:0|2:0,0:0:0:0:
468,68,106381,1,8,0:0:0:0:
432,316,106556,1,0,0:0:0:0:
324,196,106730,2,0,P|324:250|313:318,1,115.50000352478,4|0,2:0|2:0,0:0:0:0:
300,348,107079,1,8,0:0:0:0:
304,112,107253,1,0,0:0:0:0:
216,104,107428,6,0,P|215:59|215:18,1,77.0000023498536,4|0,0:0|2:0,0:0:0:0:
240,192,107777,1,8,0:0:0:0:
128,64,107951,1,0,0:0:0:0:
296,264,108125,2,0,P|297:309|299:348,1,77.0000023498536,4|0,2:0|2:0,0:0:0:0:
328,184,108474,1,8,1:0:0:0:
365,195,108562,1,0,2:0:0:0:
396,217,108649,1,0,2:0:0:0:
433,228,108737,1,0,2:0:0:0:
470,232,108823,6,0,P|476:176|472:104,1,115.50000352478,4|0,1:0|1:0,0:0:0:0:
445,89,109172,2,0,L|456:12,1,77.0000023498536,8|0,0:0|2:0,0:0:0:0:
455,12,109434,1,0,2:0:0:0:
455,12,109521,1,2,2:0:0:0:
337,125,109695,1,2,2:0:0:0:
337,125,109782,1,0,2:0:0:0:
336,124,109870,2,0,L|347:201,1,77.0000023498536,0|0,0:0|2:0,0:0:0:0:
276,300,110218,2,0,P|192:312|136:268,1,154.000004699707,4|0,0:0|2:0,0:0:0:0:
139,273,111614,5,4,0:0:0:0:
256,192,111788,12,0,121381,2:0:0:0:
116,96,122777,6,0,P|104:236|284:316,1,350,4|0,0:0|2:0,0:0:0:0:
372,172,124870,6,0,L|368:104,1,48.9999985046387
252,48,125393,2,0,L|248:112,2,48.9999985046387
120,168,126091,2,0,L|116:100,2,48.9999985046387
260,220,126788,2,0,L|264:284,2,48.9999985046387
120,336,127486,2,0,L|124:264,2,48.9999985046387
104,72,128358,6,2,L|104:96,2,16.3333328348796,0|0|0,0:0|0:0|0:0,2:0:0:0:
256,164,128881,2,2,L|252:188,3,16.3333328348796,2|2|2|2,0:0|0:0|0:0|0:0,0:0:0:0:
380,288,129405,2,2,L|384:316,2,16.3333328348796,2|2|2,0:0|0:0|0:0,2:0:0:0:
256,88,130451,5,2,0:0:0:0:
256,92,131149,1,2,0:0:0:0:
256,96,131846,1,2,0:0:0:0:
256,100,132544,1,2,0:0:0:0:
256,104,133242,1,2,0:0:0:0:
388,256,133939,6,0,P|400:116|220:36,1,350,4|0,1:0|2:0,0:0:0:0:
84,107,136032,1,2,0:0:0:0:
77,262,136730,1,2,0:0:0:0:
188,64,137428,1,2,0:0:0:0:
181,219,138126,1,2,0:0:0:0:
308,52,138823,1,2,0:0:0:0:
201,283,139521,6,0,P|119:159|328:67,1,420.000016021729,4|2,1:0|0:0,0:0:0:0:
309,54,141614,1,2,0:0:0:0:
312,56,142312,1,2,0:0:0:0:
316,60,143009,1,2,0:0:0:0:
320,64,143707,1,2,0:0:0:0:
324,68,144405,1,2,0:0:0:0:
430,117,145102,6,0,P|297:338|177:302,1,419.999987182618,4|0,1:0|0:0,0:0:0:0:
72,328,147893,6,4,P|87:261|96:158,1,157.500006008148,4|0,1:0|0:0,1:0:0:0:
92,72,148591,1,4,1:0:0:0:
92,72,148939,1,4,1:0:0:0:
188,136,149288,6,0,L|184:193,2,52.5000020027161,4|0|0,1:0|0:0|0:0,0:0:0:0:
284,260,149812,2,0,L|280:203,2,52.5000020027161,4|0|0,1:0|0:0|0:0,0:0:0:0:
392,272,150335,2,0,L|384:330,1,52.5000020027161,4|2,1:0|0:0,0:0:0:0:
384,324,150596,1,0,0:0:0:0:
384,324,150684,1,8,1:0:0:0:
256,192,153474,12,0,155916,0:0:0:0:
72,276,156265,6,0,P|72:204|205:94,1,245,4|0,1:0|0:0,0:0:0:0:
192,95,157660,1,4,1:0:0:0:
440,276,159056,6,0,P|440:204|307:94,1,245,4|0,1:0|0:0,0:0:0:0:
319,95,160451,2,0,L|314:142,1,35,4|0,1:0|0:0,0:0:0:0:
320,252,160800,2,0,L|314:205,1,35,0|0,1:0|0:0,0:0:0:0:
216,176,161149,2,0,L|260:176,1,35,0|4,0:0|1:0,0:0:0:0:
64,332,161846,6,0,B|40:200|136:240|104:84,1,245,4|0,1:0|0:0,0:0:0:0:
106,98,163242,1,4,1:0:0:0:
424,92,164463,5,0,1:0:0:0:
424,92,164637,2,0,P|380:160|220:140,1,245,4|0,1:0|0:0,0:0:0:0:
230,151,166032,1,4,1:0:0:0:
230,151,166381,1,4,1:0:0:0:
52,308,166730,5,8,0:0:0:0:
176,340,166905,1,8,0:0:0:0:
176,340,166992,1,8,0:0:0:0:
176,340,167079,1,8,0:0:0:0:
284,272,167253,1,8,0:0:0:0:
412,232,167428,1,4,0:0:0:0:
412,232,167951,5,0,0:0:0:0:
412,232,168038,1,0,0:0:0:0:
412,232,168125,1,8,0:0:0:0:
320,64,168649,1,0,0:0:0:0:
320,64,168823,2,0,B|265:55|214:79|214:79|178:125|99:123,1,210,4|0,0:0|2:0,0:0:0:0:
125,122,169521,1,0,0:0:0:0:
64,76,169695,1,0,0:0:0:0:
132,48,169870,1,0,0:0:0:0:
188,248,170044,1,0,0:0:0:0:
188,248,170218,6,0,B|243:239|294:263|294:263|330:309|409:307,1,210,4|2,0:0|0:0,0:0:0:0:
382,306,170916,1,2,0:0:0:0:
384,48,171614,6,0,L|380:128,1,70,4|0,0:0|2:0,0:0:0:0:
181,67,171963,2,0,L|112:64,1,70,4|0,0:0|0:0,0:0:0:0:
292,172,172312,2,2,L|284:256,1,70,0|6,0:0|0:0,0:0:0:0:
160,312,172660,1,2,0:0:0:0:
80,68,173009,6,4,P|70:128|77:211,2,140,0|0|8,0:0|2:0|1:0,0:0:0:0:
80,68,174230,1,0,1:0:0:0:
160,136,174405,6,0,L|243:129,1,70,4|0,0:0|2:0,0:0:0:0:
229,130,175102,1,2,1:0:0:0:
308,104,175277,1,2,1:0:0:0:
388,80,175451,1,2,1:0:0:0:
328,32,175625,1,0,0:0:0:0:
308,104,175800,6,0,P|310:157|315:204,1,70,4|0,0:0|2:0,0:0:0:0:
428,280,176149,2,0,P|381:255|337:236,1,70,2|2,2:0|2:0,0:0:0:0:
160,312,176498,2,0,P|252:275|291:247,1,140,2|2,2:0|2:0,0:0:0:0:
160,312,177195,5,4,1:0:0:0:
160,304,177893,1,4,1:0:0:0:
160,296,178591,6,0,P|161:221|301:137,1,251.999992309571,4|0,0:0|2:0,0:0:0:0:
392,180,179288,2,0,L|397:86,1,83.9999974365235,8|0,0:0|2:0,0:0:0:0:
312,232,179637,2,0,L|307:326,1,83.9999974365235,0|0,2:0|0:0,0:0:0:0:
308,144,179986,1,0,0:0:0:0:
180,64,180160,1,0,0:0:0:0:
68,168,180335,1,0,0:0:0:0:
136,300,180509,1,0,0:0:0:0:
288,288,180684,2,2,B|328:248|336:212|336:212|359:248|386:256|386:256|380:199|456:116,1,293.999991027832,10|0,0:0|2:0,0:0:0:0:
472,160,181381,6,0,P|477:110|485:60,1,83.9999974365235,4|0,0:0|2:0,0:0:0:0:
376,200,182079,2,0,P|347:158|321:115,1,83.9999974365235,4|0,0:0|2:0,0:0:0:0:
332,280,182428,2,0,P|283:266|235:249,1,83.9999974365235,4|0,0:0|2:0,0:0:0:0:
420,328,182777,1,0,0:0:0:0:
376,200,182951,1,0,0:0:0:0:
264,156,183125,1,0,0:0:0:0:
144,184,183300,1,0,0:0:0:0:
72,292,183474,2,2,B|136:256|164:260|164:260|160:236|120:204|120:188|120:188|152:196|208:192|248:148,1,293.999991027832,8|0,0:0|2:0,0:0:0:0:
225,168,184172,5,4,0:0:0:0:
225,168,184870,2,0,P|216:115|218:83,1,83.9999974365235,8|0,0:0|0:0,0:0:0:0:
364,260,185218,2,0,P|338:243|288:224,1,83.9999974365235,0|0,2:0|0:0,0:0:0:0:
140,296,185567,2,0,P|166:282|208:248,1,83.9999974365235,0|0,0:0|0:0,0:0:0:0:
256,88,185916,1,0,0:0:0:0:
408,160,186091,1,0,0:0:0:0:
280,268,186265,6,2,B|290:223|268:173|268:173|318:192|335:196|335:196|311:171|305:54,1,293.999991027832,10|0,0:0|2:0,0:0:0:0:
306,75,186963,5,4,0:0:0:0:
306,75,187660,2,0,P|251:74|208:69,1,83.9999974365235,8|0,0:0|2:0,0:0:0:0:
368,144,188009,2,0,P|423:145|466:150,1,83.9999974365235,0|0,2:0|0:0,0:0:0:0:
280,152,188358,5,0,0:0:0:0:
248,300,188532,1,0,0:0:0:0:
96,308,188707,1,0,0:0:0:0:
44,168,188881,1,0,0:0:0:0:
160,64,189056,2,0,P|165:126|171:151,1,83.9999974365235,8|0,0:0|2:0,0:0:0:0:
96,308,189405,2,0,P|101:246|107:221,1,83.9999974365235,4|0,0:0|2:0,0:0:0:0:
292,232,189753,5,4,0:0:0:0:
292,232,190451,5,8,0:0:0:0:
396,180,190625,1,0,2:0:0:0:
288,136,190800,1,0,0:0:0:0:
396,292,190974,1,0,0:0:0:0:
184,188,191149,2,0,P|178:134|178:95,1,83.9999974365235,0|0,0:0|1:0,0:0:0:0:
324,252,191498,2,0,P|330:306|330:345,1,83.9999974365235,0|0,1:0|1:0,0:0:0:0:
272,124,191846,2,2,B|325:105|348:76|348:76|353:119|374:138|374:138|393:84|498:43,1,293.999991027832,10|0,0:0|2:0,0:0:0:0:
473,53,192544,5,4,0:0:0:0:
473,53,193242,2,0,P|466:114|460:140,1,83.9999974365235,8|0,0:0|2:0,0:0:0:0:
256,216,193591,1,0,0:0:0:0:
368,192,193765,2,0,P|375:252|381:278,1,83.9999974365235,0|0,2:0|1:0,0:0:0:0:
272,76,194114,5,0,0:0:0:0:
124,152,194288,1,0,0:0:0:0:
160,308,194463,1,0,0:0:0:0:
316,344,194637,2,2,B|340:292|312:260|312:260|324:240|372:256|392:260|392:260|368:240|356:212|360:192|379:144,1,293.999991027832,8|0,0:0|2:0,0:0:0:0:
392,136,195335,6,0,P|350:125|293:115,1,83.9999974365235,4|0,0:0|2:0,0:0:0:0:
392,136,196032,2,0,P|398:83|400:44,1,83.9999974365235,8|0,0:0|0:0,0:0:0:0:
272,192,196381,2,0,P|273:222|279:275,1,83.9999974365235,0|0,2:0|0:0,0:0:0:0:
120,344,196730,6,0,P|126:286|134:246,1,83.9999974365235
56,64,197079,1,0,0:0:0:0:
130,260,197253,1,0,0:0:0:0:
56,64,197428,2,2,B|107:95|97:141|82:163|82:163|104:162|146:121|162:121|162:121|148:152|153:186|198:209,1,293.999991027832,10|0,0:0|2:0,0:0:0:0:
200,192,198125,6,0,P|208:258|209:288,1,83.9999974365235,4|0,0:0|2:0,0:0:0:0:
324,100,198823,2,0,P|313:165|306:194,1,83.9999974365235,8|0,0:0|2:0,0:0:0:0:
404,336,199172,2,0,P|399:319|389:253,1,83.9999974365235,0|0,2:0|1:0,0:0:0:0:
472,116,199521,5,0,0:0:0:0:
328,184,199695,1,0,0:0:0:0:
292,340,199870,1,0,0:0:0:0:
328,184,200044,1,0,0:0:0:0:
236,52,200218,1,8,0:0:0:0:
236,52,200567,1,0,0:0:0:0:
236,52,200916,5,4,0:0:0:0:
236,52,201265,6,0,L|146:56,1,83.9999974365235,0|0,2:0|2:0,0:0:0:0:
304,116,201614,2,0,L|394:112,1,83.9999974365235,4|0,0:0|2:0,0:0:0:0:
204,164,201963,2,0,P|198:215|199:251,1,83.9999974365235,4|0,0:0|2:0,0:0:0:0:
296,348,202312,5,0,0:0:0:0:
72,272,202486,2,0,B|83:223|83:223|63:97,1,167.999994873047,8|0,0:0|0:0,0:0:0:0:
152,328,203009,2,0,L|168:240,1,83.9999974365235,8|0,0:0|2:0,0:0:0:0:
152,56,203358,2,0,L|168:144,1,83.9999974365235,8|0,0:0|2:0,0:0:0:0:
256,192,203707,5,4,0:0:0:0:
256,192,204056,1,4,0:0:0:0:
256,192,204405,2,0,P|262:140|268:102,1,83.9999974365235,4|0,0:0|2:0,0:0:0:0:
348,256,204753,2,0,P|352:287|358:339,1,83.9999974365235,4|0,0:0|2:0,0:0:0:0:
344,44,205102,5,0,0:0:0:0:
448,164,205277,2,0,P|441:239|437:340,1,167.999994873047,8|0,0:0|0:0,0:0:0:0:
292,112,205800,2,0,P|314:159|335:191,1,83.9999974365235,12|0,0:0|2:0,0:0:0:0:
168,268,206149,2,0,P|190:221|211:189,1,83.9999974365235,12|0,0:0|2:0,0:0:0:0:
64,104,206498,5,4,0:0:0:0:
64,104,206846,1,0,2:0:0:0:
124,208,207021,1,0,2:0:0:0:
152,324,207195,2,0,P|204:344|240:351,1,83.9999974365235,4|0,0:0|2:0,0:0:0:0:
124,208,207544,2,0,P|72:188|36:181,1,83.9999974365235,4|0,0:0|2:0,0:0:0:0:
256,232,207893,5,0,0:0:0:0:
368,268,208067,2,0,P|393:200|411:103,1,167.999994873047,8|0,0:0|0:0,0:0:0:0:
472,276,208591,2,0,P|461:323|455:363,1,83.9999974365235,12|0,0:0|2:0,0:0:0:0:
280,84,208939,2,0,P|291:131|297:171,1,83.9999974365235,12|0,0:0|2:0,0:0:0:0:
96,120,209288,6,0,P|81:65|77:22,1,83.9999974365235,4|0,0:0|2:0,0:0:0:0:
77,38,209637,1,0,2:0:0:0:
180,128,209812,1,0,2:0:0:0:
144,256,209986,1,4,0:0:0:0:
180,128,210160,1,0,2:0:0:0:
316,116,210335,1,4,0:0:0:0:
364,240,210509,1,0,2:0:0:0:
264,328,210684,5,4,0:0:0:0:
364,240,210858,2,0,P|373:165|291:115,1,167.999994873047,8|0,0:0|2:0,0:0:0:0:
152,56,211381,2,0,L|248:64,1,83.9999974365235,8|0,0:0|2:0,0:0:0:0:
36,152,211730,2,0,L|132:144,1,83.9999974365235,8|0,0:0|2:0,0:0:0:0:
288,136,212079,6,0,P|297:178|300:241,1,83.9999974365235,4|0,0:0|2:0,0:0:0:0:
252,316,212428,1,0,2:0:0:0:
148,236,212602,1,0,2:0:0:0:
40,308,212777,1,4,0:0:0:0:
148,212,212951,1,0,2:0:0:0:
252,316,213125,1,4,0:0:0:0:
148,184,213300,1,0,2:0:0:0:
40,308,213474,1,0,0:0:0:0:
252,316,213649,6,0,P|264:220|253:143,1,167.999994873047,8|0,0:0|0:0,0:0:0:0:
404,260,214172,2,0,P|372:235|339:187,1,83.9999974365235,12|0,0:0|2:0,0:0:0:0:
116,328,214521,2,0,P|142:293|174:268,1,83.9999974365235,12|0,0:0|2:0,0:0:0:0:
212,24,214870,6,4,P|239:109|248:194,1,167.999994873047
64,160,215393,1,0,2:0:0:0:
172,288,215567,1,4,0:0:0:0:
136,124,215742,1,0,2:0:0:0:
96,288,215916,1,4,0:0:0:0:
204,160,216091,1,0,2:0:0:0:
52,228,216265,5,4,0:0:0:0:
220,232,216439,2,0,B|265:235|265:235|382:319,1,167.999994873047,12|0,0:0|0:0,0:0:0:0:
272,80,216963,2,0,L|295:172,1,83.9999974365235,12|0,0:0|2:0,0:0:0:0:
124,344,217312,2,0,L|147:252,1,83.9999974365235,12|0,0:0|2:0,0:0:0:0:
48,72,217660,6,0,P|75:128|184:128,1,167.999994873047,4|0,0:0|2:0,0:0:0:0:
409,140,218184,1,0,2:0:0:0:
283,289,218358,1,4,0:0:0:0:
325,98,218533,1,0,2:0:0:0:
372,289,218707,1,4,0:0:0:0:
246,140,218882,1,0,2:0:0:0:
423,219,219056,5,4,0:0:0:0:
228,224,219230,2,0,P|164:272|68:216,1,167.999994873047,12|0,0:0|0:0,0:0:0:0:
132,92,219753,2,0,L|146:175,1,83.9999974365235,12|0,0:0|2:0,0:0:0:0:
324,348,220102,2,0,L|310:265,1,83.9999974365235,12|0,0:0|2:0,0:0:0:0:
56,348,220451,6,0,P|96:283|193:282,1,167.999994873047,4|0,0:0|2:0,0:0:0:0:
437,131,220974,1,0,2:0:0:0:
288,307,221148,1,4,0:0:0:0:
338,82,221323,1,0,2:0:0:0:
393,307,221497,1,4,0:0:0:0:
245,131,221672,1,0,2:0:0:0:
453,224,221846,5,4,0:0:0:0:
223,230,222021,2,0,P|157:199|46:239,1,167.999994873047,12|0,0:0|0:0,0:0:0:0:
348,348,222544,2,0,P|284:299|273:274,1,83.9999974365235,12|0,0:0|2:0,0:0:0:0:
488,224,222893,2,0,P|423:246|403:264,1,83.9999974365235,12|0,0:0|2:0,0:0:0:0:
480,112,223242,5,4,0:0:0:0:
256,92,224637,5,4,0:0:0:0:
256,100,226032,5,4,0:0:0:0:
256,108,227428,5,4,0:0:0:0:
256,116,228823,5,4,0:0:0:0:
192,184,229521,1,0,0:0:0:0:
256,256,230218,1,4,0:0:0:0:
352,312,230916,6,2,B|349:297|349:297|360:291|360:291|341:287|341:287|315:247|396:232|396:232|320:136,1,251.999992309571,2|0,0:0|2:0,0:0:0:0:
240,56,231614,2,2,B|243:71|243:71|232:77|232:77|251:81|251:81|276:120|196:136|196:136|272:232,1,251.999992309571,6|0,0:0|2:0,0:0:0:0:
263,221,232312,6,0,P|199:230|170:236,1,83.9999974365235,0|0,0:0|2:0,0:0:0:0:
76,320,232660,2,0,P|89:244|96:147,1,167.999994873047,0|4,2:0|0:0,2:0:0:0:
96,154,233358,2,0,P|45:153|7:150,1,83.9999974365235,0|0,2:0|2:0,0:0:0:0:
168,220,233707,6,0,P|218:220|256:223,1,83.9999974365235,0|0,1:0|2:0,0:0:0:0:
340,156,234056,2,0,P|386:216|359:313,1,167.999994873047,0|4,2:0|0:0,0:0:0:0:
369,301,234753,5,8,0:0:0:0:
176,328,235102,1,0,0:0:0:0:
369,301,235451,1,8,0:0:0:0:
152,240,235800,5,0,0:0:0:0:
369,301,236149,1,8,0:0:0:0:
152,240,236498,1,0,0:0:0:0:
369,301,236846,1,8,0:0:0:0:
168,156,237195,5,0,0:0:0:0:
369,301,237544,1,8,0:0:0:0:
236,104,237893,2,0,P|251:144|270:187,1,83.9999974365235,0|0,0:0|2:0,0:0:0:0:
369,301,238242,1,8,0:0:0:0:
320,84,238591,5,0,0:0:0:0:
369,301,238939,2,0,P|384:246|388:216,1,83.9999974365235,8|0,0:0|2:0,0:0:0:0:
408,88,239288,1,0,0:0:0:0:
369,301,239637,1,8,0:0:0:0:
476,132,239986,5,0,0:0:0:0:
392,100,240160,1,0,0:0:0:0:
300,96,240335,1,8,0:0:0:0:
212,120,240509,1,0,0:0:0:0:
132,164,240684,5,0,0:0:0:0:
229,172,240858,1,0,0:0:0:0:
320,212,241033,1,8,0:0:0:0:
395,277,241207,1,0,0:0:0:0:
444,356,241381,5,0,0:0:0:0:
334,313,241555,1,0,0:0:0:0:
214,308,241730,1,8,0:0:0:0:
100,339,241904,1,0,0:0:0:0:
24,204,242079,5,0,0:0:0:0:
72,88,242253,1,0,0:0:0:0:
136,256,242428,1,8,0:0:0:0:
188,140,242602,1,0,0:0:0:0:
302,26,242777,5,0,0:0:0:0:
341,40,242864,1,0,0:0:0:0:
369,70,242951,1,0,0:0:0:0:
379,110,243038,1,0,0:0:0:0:
373,151,243125,1,8,0:0:0:0:
345,183,243213,1,0,0:0:0:0:
307,200,243300,1,0,0:0:0:0:
265,200,243387,1,0,0:0:0:0:
224,190,243474,1,0,0:0:0:0:
182,190,243561,1,0,0:0:0:0:
144,207,243648,1,0,0:0:0:0:
116,239,243736,1,0,0:0:0:0:
110,280,243823,1,8,0:0:0:0:
120,320,243910,1,0,0:0:0:0:
148,350,243997,1,0,0:0:0:0:
192,348,244085,1,0,0:0:0:0:
388,276,244521,5,2,2:0:0:0:
408,196,244695,1,2,2:0:0:0:
472,252,244870,1,2,2:0:0:0:
452,332,245044,1,2,2:0:0:0:
408,196,245218,1,2,2:0:0:0:
100,340,245567,6,0,P|111:264|120:180,1,157.500006008148,4|0,0:0|2:0,0:0:0:0:
192,48,245916,2,0,P|199:96|208:173,1,105.000004005432,8|0,0:0|2:0,0:0:0:0:
210,188,246178,1,0,2:0:0:0:
209,224,246265,1,0,0:0:0:0:
292,332,246439,1,0,2:0:0:0:
420,284,246614,2,0,P|438:199|391:149,1,157.500006008148,8|0,0:0|0:0,0:0:0:0:
332,96,246963,6,0,L|335:204,1,105.000004005432,0|0,2:0|0:0,0:0:0:0:
334,200,247224,1,0,2:0:0:0:
334,200,247312,1,8,0:0:0:0:
216,304,247486,1,0,2:0:0:0:
194,274,247573,2,0,L|191:166,1,105.000004005432,0|0,0:0|0:0,0:0:0:0:
202,133,247835,1,0,0:0:0:0:
64,212,248009,1,8,0:0:0:0:
280,328,248184,1,0,0:0:0:0:
440,188,248358,6,0,P|475:251|452:353,1,157.500006008148,4|0,0:0|2:0,0:0:0:0:
428,324,248707,2,0,P|376:324|316:326,1,105.000004005432,8|0,0:0|2:0,0:0:0:0:
136,336,249056,2,0,P|188:336|248:334,1,105.000004005432,0|0,0:0|2:0,0:0:0:0:
32,244,249405,2,0,P|84:244|144:246,1,105.000004005432,8|0,0:0|2:0,0:0:0:0:
172,240,249666,1,0,0:0:0:0:
210,20,249841,1,0,0:0:0:0:
204,56,249928,2,0,P|200:102|204:166,1,105.000004005432,0|8,0:0|0:0,0:0:0:0:
308,240,250277,5,0,2:0:0:0:
308,240,250364,2,0,L|424:246,1,105.000004005432
448,236,250625,1,0,0:0:0:0:
376,336,250800,1,8,0:0:0:0:
272,328,250974,1,2,2:0:0:0:
168,312,251149,6,0,P|96:307|53:306,1,105.000004005432,4|0,0:0|2:0,0:0:0:0:
344,288,251498,2,0,P|416:293|459:294,1,105.000004005432,8|0,0:0|2:0,0:0:0:0:
148,216,251846,2,0,P|76:211|33:210,1,105.000004005432,0|0,0:0|2:0,0:0:0:0:
364,192,252195,2,0,P|436:197|479:198,1,105.000004005432,8|0,0:0|2:0,0:0:0:0:
480,164,252457,6,0,B|496:208|496:208|491:325,1,157.500006008148,0|0,0:0|1:0,0:0:0:0:
460,336,252806,1,0,2:0:0:0:
428,352,252893,1,8,0:0:0:0:
404,152,253067,1,0,0:0:0:0:
412,115,253155,2,0,B|420:72|420:72|407:5,1,105.000004005432,0|0,0:0|2:0,0:0:0:0:
408,11,253416,1,0,0:0:0:0:
384,264,253591,1,8,0:0:0:0:
112,192,253765,1,0,0:0:0:0:
384,264,253939,6,0,L|275:278,1,105.000004005432,0|0,0:0|2:0,0:0:0:0:
32,340,254288,2,0,L|141:326,1,105.000004005432,8|0,0:0|2:0,0:0:0:0:
488,172,254637,2,0,L|379:186,1,105.000004005432,0|0,0:0|2:0,0:0:0:0:
48,260,254986,2,0,L|157:246,1,105.000004005432,8|0,0:0|2:0,0:0:0:0:
184,264,255248,6,0,B|197:207|197:207|182:99,1,157.500006008148
320,352,255684,2,0,P|283:313|264:260,1,105.000004005432,8|0,0:0|2:0,0:0:0:0:
276,188,255945,2,0,P|301:140|311:31,1,157.500006008148
196,88,256381,1,8,0:0:0:0:
408,176,256556,1,2,2:0:0:0:
196,88,256730,6,0,B|165:79|165:79|96:112,1,105.000004005432,4|0,0:0|2:0,0:0:0:0:
408,176,257079,2,0,B|439:185|439:185|508:152,1,105.000004005432,8|0,0:0|2:0,0:0:0:0:
168,168,257428,2,0,P|153:213|147:284,1,105.000004005432,0|0,0:0|2:0,0:0:0:0:
224,376,257777,2,0,P|238:317|238:252,1,105.000004005432,8|0,0:0|2:0,0:0:0:0:
260,236,258038,6,0,L|432:227,1,157.500006008148,0|0,0:0|0:0,0:0:0:0:
112,120,258474,2,0,P|150:162|204:185,1,105.000004005432,8|0,0:0|2:0,0:0:0:0:
172,259,258736,2,0,L|24:312,1,157.500006008148
290,158,259172,2,0,P|337:135|372:96,1,105.000004005432,8|0,0:0|1:0,0:0:0:0:
432,320,259521,6,0,P|409:267|404:210,1,105.000004005432,0|0,0:0|2:0,0:0:0:0:
412,184,259782,1,0,2:0:0:0:
432,152,259870,1,8,0:0:0:0:
308,28,260044,1,0,2:0:0:0:
328,60,260132,1,0,2:0:0:0:
337,97,260219,2,0,P|331:143|308:196,1,105.000004005432,0|0,0:0|2:0,0:0:0:0:
352,332,260567,2,0,P|302:294|232:297,1,105.000004005432,8|0,0:0|2:0,0:0:0:0:
188,328,260829,6,0,L|168:165,1,157.500006008148
68,32,261265,2,0,L|82:145,1,105.000004005432,8|0,0:0|2:0,0:0:0:0:
80,136,261527,1,0,0:0:0:0:
112,216,261701,1,2,2:0:0:0:
112,216,261788,1,0,0:0:0:0:
184,176,261963,1,8,0:0:0:0:
256,132,262137,1,2,2:0:0:0:
376,188,262312,6,0,P|384:252|381:315,1,105.000004005432,4|0,0:0|2:0,0:0:0:0:
140,360,262660,2,0,P|139:319|147:255,1,105.000004005432,8|0,0:0|2:0,0:0:0:0:
324,92,263009,2,0,L|443:81,1,105.000004005432,0|0,0:0|2:0,0:0:0:0:
124,184,263358,2,0,L|19:174,1,105.000004005432,8|0,0:0|2:0,0:0:0:0:
19,174,263620,1,0,0:0:0:0:
216,232,263794,5,0,0:0:0:0:
216,232,263881,2,0,P|153:264|108:305,1,105.000004005432,0|8,0:0|0:0,0:0:0:0:
284,136,264230,1,0,0:0:0:0:
284,136,264317,2,0,P|221:104|176:63,1,105.000004005432,0|0,0:0|0:0,0:0:0:0:
174,44,264579,1,0,0:0:0:0:
424,192,264753,2,0,P|359:207|305:235,1,105.000004005432,8|0,0:0|0:0,0:0:0:0:
480,120,265102,6,0,P|489:57|491:10,1,105.000004005432,0|0,0:0|2:0,0:0:0:0:
308,248,265451,2,0,P|299:311|297:358,1,105.000004005432,8|0,0:0|2:0,0:0:0:0:
272,76,265800,2,0,P|213:56|144:55,1,105.000004005432,0|0,0:0|2:0,0:0:0:0:
0,280,266149,2,0,P|59:300|128:301,1,105.000004005432,8|0,0:0|2:0,0:0:0:0:
168,360,266410,2,0,L|182:194,1,157.500006008148,0|0,0:0|0:0,0:0:0:0:
289,56,266846,2,0,L|280:170,1,105.000004005432,8|0,0:0|2:0,0:0:0:0:
288,204,267108,1,0,0:0:0:0:
288,204,267195,6,0,L|200:216,1,70,4|0,0:0|0:0,0:0:0:0:
82,290,267544,2,0,L|170:278,1,70,4|0,0:0|0:0,0:0:0:0:
288,204,267893,5,4,0:0:0:0:
392,308,268067,1,0,0:0:0:0:
424,280,268155,1,0,0:0:0:0:
432,240,268242,2,0,P|441:177|433:125,1,105.000004005432,8|0,0:0|0:0,0:0:0:0:
448,96,268503,1,0,0:0:0:0:
280,36,268678,1,0,0:0:0:0:
244,56,268765,2,0,L|126:44,1,105.000004005432,0|8,0:0|0:0,0:0:0:0:
304,116,269114,1,0,0:0:0:0:
68,120,269288,6,0,L|186:132,1,105.000004005432,0|0,0:0|0:0,0:0:0:0:
44,212,269637,1,8,0:0:0:0:
224,260,269812,1,0,0:0:0:0:
200,292,269899,2,0,L|88:280,1,105.000004005432,0|0,0:0|0:0,0:0:0:0:
56,300,270160,1,0,0:0:0:0:
368,328,270335,2,0,P|301:345|254:333,1,105.000004005432,8|0,0:0|0:0,0:0:0:0:
266,338,270684,1,0,0:0:0:0:
432,204,270858,1,2,2:0:0:0:
266,338,271032,6,0,L|258:232,1,105.000004005432,8|0,0:0|2:0,0:0:0:0:
276,196,271294,1,0,0:0:0:0:
144,100,271468,1,0,0:0:0:0:
116,132,271556,2,0,L|124:236,1,105.000004005432,0|8,0:0|0:0,0:0:0:0:
60,324,271905,1,0,0:0:0:0:
224,112,272079,6,0,P|276:95|331:104,1,105.000004005432
408,240,272428,2,0,L|427:123,1,105.000004005432,8|0,0:0|0:0,0:0:0:0:
448,100,272689,1,0,0:0:0:0:
323,211,272864,1,2,2:0:0:0:
323,211,272951,1,0,0:0:0:0:
268,272,273125,1,8,0:0:0:0:
184,284,273300,1,2,2:0:0:0:
88,160,273474,6,0,L|83:277,1,105.000004005432,4|0,0:0|2:0,0:0:0:0:
124,76,273823,1,8,0:0:0:0:
324,88,273998,1,0,0:0:0:0:
312,128,274085,2,0,P|252:140|196:124,1,105.000004005432
200,172,274346,1,0,0:0:0:0:
376,184,274521,2,0,P|436:172|492:188,1,105.000004005432,8|0,0:0|1:0,0:0:0:0:
304,328,274870,6,0,P|303:247|305:215,1,105.000004005432
384,36,275218,2,0,P|385:59|384:140,1,105.000004005432,8|0,0:0|0:0,0:0:0:0:
376,184,275480,1,0,0:0:0:0:
256,96,275655,1,0,0:0:0:0:
244,56,275742,1,0,0:0:0:0:
96,164,275916,1,8,0:0:0:0:
124,316,276091,1,0,0:0:0:0:
304,328,276265,5,4,0:0:0:0:
304,328,276614,2,0,P|375:327|426:329,1,105.000004005432,8|0,0:0|0:0,0:0:0:0:
448,336,276875,1,0,0:0:0:0:
231,280,277050,1,0,0:0:0:0:
192,288,277137,2,0,P|158:289|87:288,1,105.000004005432,0|8,0:0|0:0,0:0:0:0:
316,240,277486,1,0,0:0:0:0:
228,104,277660,6,0,P|224:166|224:226,1,105.000004005432
344,356,278009,2,0,P|348:294|348:234,1,105.000004005432,8|0,0:0|0:0,0:0:0:0:
364,212,278271,1,0,0:0:0:0:
424,28,278445,1,0,0:0:0:0:
436,68,278532,2,0,P|435:110|431:172,1,105.000004005432,0|8,0:0|0:0,0:0:0:0:
444,304,278881,1,0,0:0:0:0:
268,136,279056,6,0,P|233:203|244:308,1,157.500006008148,4|0,0:0|2:0,0:0:0:0:
272,304,279405,2,0,L|152:320,1,105.000004005432,8|0,0:0|0:0,0:0:0:0:
140,348,279666,1,0,0:0:0:0:
36,136,279841,1,0,0:0:0:0:
56,172,279928,2,0,L|60:284,2,105.000004005432,0|8|0,0:0|0:0|0:0,0:0:0:0:
172,56,280451,6,0,L|175:169,1,105.000004005432,0|0,0:0|0:0,0:0:0:0:
224,324,280800,2,0,P|234:249|270:213,1,105.000004005432,8|0,0:0|0:0,0:0:0:0:
292,220,281062,1,0,0:0:0:0:
468,264,281236,1,0,0:0:0:0:
440,292,281323,2,0,L|320:300,2,105.000004005432,0|8|0,0:0|0:0|0:0,0:0:0:0:
462,96,281846,6,0,P|445:159|361:200,1,157.500006008148,2|0,2:0|2:0,0:0:0:0:
352,240,282195,2,0,L|341:127,1,105.000004005432,8|0,0:0|0:0,0:0:0:0:
316,104,282457,1,0,0:0:0:0:
248,288,282631,1,0,0:0:0:0:
216,312,282718,2,0,L|108:332,2,105.000004005432,0|8|0,0:0|0:0|0:0,0:0:0:0:
48,168,283242,6,0,P|38:216|33:309,1,105.000004005432
232,156,283591,2,8,P|226:100|216:52,1,105.000004005432,8|0,0:0|0:0,0:0:0:0:
244,20,283852,1,0,0:0:0:0:
324,44,284027,1,2,2:0:0:0:
324,44,284114,1,0,0:0:0:0:
352,124,284288,1,8,0:0:0:0:
420,72,284463,1,2,2:0:0:0:
460,216,284637,6,0,B|439:289|439:289|364:352,1,157.500006008148,4|0,0:0|2:0,0:0:0:0:
340,316,284986,2,0,L|220:324,1,105.000004005432,8|0,0:0|0:0,0:0:0:0:
196,340,285248,1,0,0:0:0:0:
52,248,285422,1,2,2:0:0:0:
93,246,285509,1,0,0:0:0:0:
292,168,285684,2,0,L|170:173,1,105.000004005432,8|0,0:0|2:0,0:0:0:0:
84,152,285945,6,0,P|116:92|200:40,1,157.500006008148,0|0,0:0|0:0,0:0:0:0:
384,60,286381,2,0,P|316:64|270:82,1,105.000004005432,8|0,0:0|0:0,0:0:0:0:
260,92,286643,1,0,2:0:0:0:
356,216,286817,1,0,0:0:0:0:
376,232,286905,2,0,P|444:228|490:210,2,105.000004005432,0|8|0,0:0|0:0|0:0,0:0:0:0:
316,372,287428,6,0,L|300:189,1,157.500006008148,4|0,0:0|2:0,0:0:0:0:
320,176,287777,2,0,P|267:182|176:176,1,105.000004005432,8|0,0:0|0:0,0:0:0:0:
176,168,288038,1,0,0:0:0:0:
324,81,288213,1,0,0:0:0:0:
364,68,288300,2,0,P|415:67|468:73,1,105.000004005432,0|8,0:0|0:0,0:0:0:0:
248,40,288649,1,0,0:0:0:0:
439,224,288823,5,0,2:0:0:0:
432,265,288910,1,0,2:0:0:0:
398,291,288998,1,0,2:0:0:0:
356,291,289085,1,2,2:0:0:0:
321,267,289172,1,2,2:0:0:0:
315,225,289259,1,2,2:0:0:0:
323,183,289346,1,2,2:0:0:0:
317,141,289433,1,0,2:0:0:0:
282,117,289520,1,2,2:0:0:0:
240,117,289607,1,2,2:0:0:0:
206,143,289695,1,2,2:0:0:0:
199,184,289782,1,2,2:0:0:0:
213,223,289870,1,8,0:0:0:0:
80,348,290218,6,0,B|64:316|64:316|66:227,1,105.000004005432,4|0,0:0|2:0,0:0:0:0:
80,36,290567,2,0,B|104:62|104:62|126:148,1,105.000004005432,8|0,0:0|2:0,0:0:0:0:
121,129,290829,1,0,0:0:0:0:
121,129,290916,2,0,L|236:136,1,105.000004005432,0|0,0:0|2:0,0:0:0:0:
408,216,291265,2,0,L|303:222,1,105.000004005432,8|0,0:0|2:0,0:0:0:0:
252,212,291527,6,0,P|272:153|363:118,1,157.500006008148
76,340,291963,2,0,P|139:328|174:300,1,105.000004005432,8|0,0:0|2:0,0:0:0:0:
224,312,292224,2,0,L|392:316,1,157.500006008148
456,224,292660,1,8,0:0:0:0:
184,64,292835,1,0,0:0:0:0:
92,148,293009,6,0,B|71:178|71:178|64:257,1,105.000004005432,0|0,0:0|2:0,0:0:0:0:
320,132,293358,2,0,B|341:102|341:102|348:23,1,105.000004005432,8|0,0:0|2:0,0:0:0:0:
224,228,293707,2,0,P|244:282|275:319,1,105.000004005432,0|0,0:0|2:0,0:0:0:0:
408,360,294056,2,0,P|388:306|357:269,1,105.000004005432,8|0,0:0|2:0,0:0:0:0:
304,200,294317,6,0,L|128:200,1,157.500006008148
40,40,294753,2,0,B|52:60|52:60|66:145,1,105.000004005432,8|0,0:0|2:0,0:0:0:0:
65,140,295015,1,0,0:0:0:0:
164,64,295189,1,2,2:0:0:0:
164,64,295277,1,0,0:0:0:0:
236,68,295451,1,8,0:0:0:0:
308,72,295625,1,8,0:0:0:0:
464,196,295800,6,0,P|420:141|379:136,1,105.000004005432,4|0,0:0|2:0,0:0:0:0:
120,292,296149,2,0,L|237:288,1,105.000004005432,8|0,0:0|2:0,0:0:0:0:
252,220,296410,1,0,2:0:0:0:
260,224,296498,2,0,L|378:219,1,105.000004005432,0|0,0:0|2:0,0:0:0:0:
168,172,296846,2,0,P|106:187|58:172,1,105.000004005432,8|0,0:0|2:0,0:0:0:0:
28,140,297108,2,0,P|75:209|108:288,1,157.500006008148
288,356,297544,2,0,L|292:232,1,105.000004005432,8|0,0:0|2:0,0:0:0:0:
368,237,297806,2,0,L|376:80,1,157.500006008148,0|0,0:0|0:0,0:0:0:0:
396,44,298155,1,0,0:0:0:0:
396,44,298242,1,8,0:0:0:0:
472,136,298416,1,0,0:0:0:0:
244,104,298591,2,2,L|240:164,1,52.5000020027161,4|0,0:0|2:0,0:0:0:0:
239,163,298939,6,0,L|120:160,1,105.000004005432,8|0,0:0|2:0,0:0:0:0:
360,56,299288,2,0,L|479:59,1,105.000004005432,0|0,0:0|2:0,0:0:0:0:
84,72,299637,2,0,B|69:105|69:105|70:196,1,105.000004005432,8|0,0:0|2:0,0:0:0:0:
108,192,299899,2,0,B|116:252|116:252|95:346,1,157.500006008148
196,220,300335,2,0,B|228:204|228:204|320:206,1,105.000004005432,8|0,0:0|2:0,0:0:0:0:
316,244,300597,2,0,B|372:252|372:252|470:231,1,157.500006008148
144,312,301032,1,8,0:0:0:0:
224,340,301207,1,2,2:0:0:0:
308,316,301381,6,0,B|330:337|330:337|403:358,1,105.000004005432,4|0,0:0|2:0,0:0:0:0:
144,312,301730,2,0,B|122:291|122:291|49:270,1,105.000004005432,8|0,0:0|2:0,0:0:0:0:
224,340,302079,2,0,P|239:295|245:224,1,105.000004005432,0|0,0:0|2:0,0:0:0:0:
200,48,302428,2,0,P|186:107|186:172,1,105.000004005432,8|0,0:0|2:0,0:0:0:0:
252,148,302689,6,0,L|80:157,1,157.500006008148,0|0,0:0|0:0,0:0:0:0:
399,262,303125,2,0,P|364:223|318:201,1,105.000004005432,8|0,0:0|2:0,0:0:0:0:
339,124,303387,2,0,L|488:72,1,157.500006008148
161,126,303823,2,0,P|114:102|79:63,1,105.000004005432,8|0,0:0|1:0,0:0:0:0:
80,64,304172,6,0,P|103:117|108:174,1,105.000004005432,0|0,0:0|2:0,0:0:0:0:
100,200,304433,1,0,2:0:0:0:
80,232,304521,1,8,0:0:0:0:
204,356,304695,1,0,3:0:0:0:
184,324,304783,1,0,3:0:0:0:
175,287,304870,2,0,P|181:241|204:188,1,105.000004005432,0|0,0:0|2:0,0:0:0:0:
160,52,305218,2,0,P|210:90|280:87,1,105.000004005432,8|0,0:0|2:0,0:0:0:0:
324,56,305480,6,0,L|344:219,1,157.500006008148
428,336,305916,2,0,P|373:298|293:297,1,105.000004005432,8|0,0:0|2:0,0:0:0:0:
336,291,306178,1,0,0:0:0:0:
224,220,306352,1,2,2:0:0:0:
224,232,306439,1,0,0:0:0:0:
160,300,306614,1,8,0:0:0:0:
60,260,306788,1,8,0:0:0:0:
136,196,306963,6,0,P|128:132|131:69,1,105.000004005432,4|0,0:0|2:0,0:0:0:0:
372,24,307311,2,0,P|373:65|365:129,1,105.000004005432,8|0,0:0|2:0,0:0:0:0:
188,292,307660,2,0,L|69:303,1,105.000004005432,0|0,0:0|2:0,0:0:0:0:
376,212,308009,2,0,L|481:222,1,105.000004005432,8|0,0:0|2:0,0:0:0:0:
35,217,308358,2,0,L|140:208,1,105.000004005432,0|0,0:0|2:0,0:0:0:0:
433,138,308707,2,0,L|328:128,1,105.000004005432,8|0,0:0|2:0,0:0:0:0:
60,80,309056,2,0,B|101:84|101:84|162:125,1,105.000004005432,0|0,0:0|2:0,0:0:0:0:
452,304,309405,2,0,B|411:300|411:300|350:259,1,105.000004005432,8|0,0:0|2:0,0:0:0:0:
120,332,309753,5,0,0:0:0:0:
176,220,309928,1,0,0:0:0:0:
236,108,310102,2,0,P|263:179|286:210,1,105.000004005432,8|0,0:0|2:0,0:0:0:0:
392,332,310451,5,0,0:0:0:0:
336,184,310626,1,8,0:0:0:0:
292,32,310800,2,0,P|265:103|132:125,1,210.000008010865,8|4,0:0|0:0,0:0:0:0:
418,103,311498,1,4,2:0:0:0:
40,127,311846,1,4,2:0:0:0:
416,303,312195,1,4,2:0:0:0:
91,318,312544,6,0,P|126:251|115:146,1,157.500006008148,4|0,0:0|2:0,0:0:0:0:
140,100,312893,2,0,L|260:84,1,105.000004005432,8|0,0:0|0:0,0:0:0:0:
304,44,313154,1,0,0:0:0:0:
356,244,313329,1,0,0:0:0:0:
376,208,313416,2,0,L|380:96,1,105.000004005432,0|8,0:0|0:0,0:0:0:0:
272,320,313765,1,0,0:0:0:0:
152,208,313939,6,0,L|154:312,1,105.000004005432,0|0,0:0|0:0,0:0:0:0:
288,60,314288,2,0,P|278:135|242:171,1,105.000004005432,8|0,0:0|0:0,0:0:0:0:
220,164,314550,1,0,0:0:0:0:
44,120,314724,1,0,0:0:0:0:
72,92,314811,2,0,L|192:84,2,105.000004005432,0|8|0,0:0|0:0|0:0,0:0:0:0:
116,196,315334,6,0,P|133:259|217:300,1,157.500006008148,2|0,2:0|2:0,0:0:0:0:
226,340,315683,2,0,L|237:227,1,105.000004005432,8|0,0:0|0:0,0:0:0:0:
262,204,315945,1,0,0:0:0:0:
308,44,316119,1,0,0:0:0:0:
292,76,316206,2,0,L|400:96,1,105.000004005432,0|8,0:0|0:0,0:0:0:0:
400,324,316556,1,0,0:0:0:0:
464,216,316730,6,0,P|474:168|479:75,1,105.000004005432
280,228,317079,2,8,P|286:284|296:332,1,105.000004005432,8|0,0:0|0:0,0:0:0:0:
268,364,317340,1,0,0:0:0:0:
188,340,317515,1,2,2:0:0:0:
188,340,317602,1,0,0:0:0:0:
160,260,317776,1,8,0:0:0:0:
92,312,317951,1,2,2:0:0:0:
52,168,318125,6,0,B|73:95|73:95|148:32,1,157.500006008148,4|0,0:0|2:0,0:0:0:0:
172,68,318474,2,0,L|292:60,1,105.000004005432,8|0,0:0|0:0,0:0:0:0:
316,44,318736,1,0,0:0:0:0:
460,136,318910,1,2,2:0:0:0:
419,138,318997,1,0,0:0:0:0:
268,240,319172,2,0,L|390:235,1,105.000004005432,8|0,0:0|2:0,0:0:0:0:
392,248,319434,1,0,0:0:0:0:
408,260,319521,6,0,P|376:320|309:363,1,105.000004005432,0|0,2:0|0:0,0:0:0:0:
128,324,319869,2,0,P|176:308|242:302,1,105.000004005432,8|0,0:0|0:0,0:0:0:0:
256,304,320131,1,0,2:0:0:0:
156,168,320305,1,0,0:0:0:0:
136,152,320393,2,0,P|68:156|22:174,2,105.000004005432,0|8|0,0:0|0:0|0:0,0:0:0:0:
196,12,320916,6,0,L|212:195,1,157.500006008148,4|0,0:0|2:0,0:0:0:0:
192,208,321265,2,0,P|245:202|336:208,1,105.000004005432,8|0,0:0|0:0,0:0:0:0:
336,216,321526,1,0,0:0:0:0:
188,303,321701,1,0,0:0:0:0:
148,316,321788,2,0,P|97:317|44:311,1,105.000004005432,0|8,0:0|0:0,0:0:0:0:
288,300,322137,5,0,2:0:0:0:
298,302,322224,1,0,0:0:0:0:
308,304,322312,1,0,0:0:0:0:
412,276,322486,1,0,0:0:0:0:
404,172,322660,1,8,0:2:0:0:
216,136,322835,1,0,0:0:0:0:
221,137,322922,1,8,2:0:0:0:
226,138,323009,1,0,0:0:0:0:
231,139,323096,1,8,2:0:0:0:
236,140,323184,1,0,0:0:0:0:
240,276,323358,1,4,0:2:0:0:
24,164,323532,1,0,0:0:0:0:
260,40,323707,6,0,L|150:44,1,105.000004005432,4|0,0:0|2:0,0:0:0:0:
64,252,324056,1,8,0:0:0:0:
192,176,324230,1,0,0:0:0:0:
224,204,324317,2,0,L|335:201,1,105.000004005432
368,220,324579,1,0,0:0:0:0:
272,336,324753,1,8,0:0:0:0:
432,352,324928,1,0,0:0:0:0:
432,352,325015,1,0,0:0:0:0:
432,352,325102,6,0,P|446:280|443:224,1,105.000004005432
344,40,325451,2,0,P|330:112|333:168,1,105.000004005432,8|0,0:0|0:0,0:0:0:0:
344,176,325713,1,0,0:0:0:0:
230,337,325887,1,0,0:0:0:0:
244,304,325975,2,0,P|242:251|230:200,1,105.000004005432,0|8,0:0|0:0,0:0:0:0:
128,60,326323,1,0,0:0:0:0:
66,228,326498,6,0,P|142:269|232:168,1,210.000008010865,4|8,0:0|0:0,0:0:0:0:
288,56,327021,1,0,0:0:0:0:
296,96,327108,1,0,0:0:0:0:
392,204,327282,1,0,0:0:0:0:
400,164,327369,1,0,0:0:0:0:
304,312,327544,2,0,P|247:273|207:279,1,105.000004005432,8|0,0:0|2:0,0:0:0:0:
212,308,327806,6,0,L|48:320,1,157.500006008148
344,264,328242,2,0,P|397:270|420:314,1,105.000004005432,8|0,0:0|0:0,0:0:0:0:
396,344,328503,1,0,0:0:0:0:
312,344,328678,1,2,2:0:0:0:
312,344,328765,1,0,0:0:0:0:
268,272,328939,1,8,0:0:0:0:
300,196,329114,1,2,2:0:0:0:
196,12,329288,6,0,L|212:195,1,157.500006008148,4|0,0:0|2:0,0:0:0:0:
228,192,329637,2,0,P|281:186|372:192,1,105.000004005432,8|0,0:0|0:0,0:0:0:0:
364,196,329898,1,0,0:0:0:0:
188,303,330073,1,0,0:0:0:0:
148,316,330160,2,0,P|97:317|44:311,1,105.000004005432,0|8,0:0|0:0,0:0:0:0:
292,328,330509,1,0,0:0:0:0:
292,328,330596,1,0,0:0:0:0:
292,328,330684,6,0,L|436:316,1,105.000004005432
240,240,331032,2,0,P|175:203|116:220,1,105.000004005432,8|0,0:0|0:0,0:0:0:0:
124,228,331294,2,0,L|104:64,1,157.500006008148
264,248,331730,2,0,L|280:356,1,105.000004005432,8|0,0:0|0:0,0:0:0:0:
280,352,332079,6,0,L|433:352,1,140,0|8,0:0|0:0,0:0:0:0:
396,200,332602,1,0,0:0:0:0:
413,174,332689,2,0,P|419:112|385:54,1,105.000004005432
376,56,332951,1,0,0:0:0:0:
264,164,333125,2,0,P|257:213|271:279,1,105.000004005432,8|0,0:0|0:0,0:0:0:0:
439,160,333474,5,0,2:0:0:0:
432,119,333561,1,0,2:0:0:0:
398,93,333649,1,0,2:0:0:0:
356,93,333736,1,2,2:0:0:0:
321,117,333823,1,2,2:0:0:0:
315,159,333910,1,2,2:0:0:0:
323,201,333997,1,2,2:0:0:0:
317,243,334084,1,0,2:0:0:0:
282,267,334171,1,2,2:0:0:0:
240,267,334258,1,2,2:0:0:0:
206,241,334346,1,2,2:0:0:0:
199,200,334433,1,2,2:0:0:0:
213,161,334521,1,8,0:0:0:0:
160,312,334870,6,0,P|128:242|207:135,1,217.000001655579,4|0,0:0|0:0,0:0:0:0:
201,136,335567,1,8,0:0:0:0:
288,244,335742,1,0,0:0:0:0:
56,268,335916,2,0,L|51:146,1,108.500000827789
184,208,336265,6,0,P|190:86|93:50,2,217.000001655579,0|0|8,0:0|0:0|0:0,0:0:0:0:
184,216,337312,1,2,2:0:0:0:
184,224,337486,1,0,0:0:0:0:
184,232,337660,6,0,L|317:222,1,108.500000827789,0|0,0:0|2:0,0:0:0:0:
436,296,338009,2,0,L|303:306,1,108.500000827789,0|0,0:0|0:0,0:0:0:0:
408,208,338358,2,0,P|381:148|467:37,1,217.000001655579,8|0,0:0|0:0,0:0:0:0:
464,44,339056,5,2,2:0:0:0:
468,52,339405,1,0,0:0:0:0:
472,64,339753,2,0,P|470:136|468:193,1,108.500000827789,8|0,0:0|2:0,0:0:0:0:
482,343,340102,2,0,P|455:269|328:216,1,217.000001655579,8|2,0:0|2:0,0:0:0:0:
329,210,340800,6,0,L|342:325,1,108.500000827789,0|0,0:0|2:0,0:0:0:0:
240,152,341149,2,0,L|252:44,1,108.500000827789,8|0,0:0|0:0,0:0:0:0:
128,112,341498,1,0,0:0:0:0:
380,52,341672,1,0,0:0:0:0:
128,112,341846,6,0,P|95:211|83:331,2,217.000001655579,0|0|8,0:0|0:0|0:0,0:0:0:0:
128,112,342893,1,2,2:0:0:0:
272,192,343067,1,0,0:0:0:0:
440,168,343242,6,0,P|460:110|470:60,1,108.500000827789,0|0,0:0|2:0,0:0:0:0:
272,192,343591,2,0,P|281:238|301:296,1,108.500000827789
432,336,343939,1,8,0:0:0:0:
412,172,344114,1,2,2:0:0:0:
252,148,344288,1,0,0:0:0:0:
148,276,344463,1,2,2:0:0:0:
308,260,344637,6,0,L|441:254,1,108.500000827789,0|0,2:0|2:0,0:0:0:0:
252,148,344986,2,0,L|138:153,1,108.500000827789,0|0,0:0|2:0,0:0:0:0:
460,40,345335,2,0,P|405:166|326:178,1,217.000001655579,8|8,0:0|0:0,0:0:0:0:
52,40,346032,6,0,P|107:166|186:178,1,217.000001655579,4|0,0:0|0:0,0:0:0:0:
173,179,346730,2,0,L|168:72,1,108.500000827789,8|0,0:0|0:0,0:0:0:0:
252,220,347079,2,0,L|246:327,1,108.500000827789,0|0,0:0|0:0,0:0:0:0:
332,176,347428,6,0,P|341:108|478:76,2,217.000001655579,0|0|8,0:0|0:0|0:0,0:0:0:0:
332,176,348474,1,2,2:0:0:0:
240,300,348649,1,0,0:0:0:0:
92,264,348823,6,0,L|70:148,1,108.500000827789,0|0,0:0|2:0,0:0:0:0:
240,248,349172,2,0,L|262:364,1,108.500000827789,0|0,0:0|0:0,0:0:0:0:
208,132,349521,2,0,P|296:62|415:78,1,217.000001655579,8|0,0:0|0:0,0:0:0:0:
395,68,350218,5,2,2:0:0:0:
116,315,350567,1,0,0:0:0:0:
395,68,350916,1,8,0:0:0:0:
408,220,351091,1,0,0:0:0:0:
296,320,351265,2,0,L|268:212,2,108.500000827789,8|0|2,0:0|0:0|2:0,0:0:0:0:
172,72,351963,6,0,L|55:65,1,108.500000827789,4|0,0:0|2:0,0:0:0:0:
32,168,352312,1,8,0:0:0:0:
232,168,352486,1,0,0:0:0:0:
60,276,352660,2,0,L|177:269,1,108.500000827789,0|0,0:0|0:0,0:0:0:0:
456,316,353009,6,0,P|382:273|249:269,2,217.000001655579,0|0|8,0:0|0:0|0:0,0:0:0:0:
64,340,354056,1,2,2:0:0:0:
136,208,354230,1,0,0:0:0:0:
140,56,354405,6,0,P|210:47|311:29,1,162.750001241684,0|0,0:0|2:0,0:0:0:0:
300,31,354753,2,0,P|295:86|287:144,1,108.500000827789
344,328,355102,2,0,P|352:231|381:112,2,217.000001655579,8|0|2,0:0|0:0|2:0,0:0:0:0:
80,244,356149,6,0,L|75:119,1,108.500000827789,4|0,0:0|2:0,0:0:0:0:
184,28,356498,1,8,0:0:0:0:
200,348,356846,1,8,0:0:0:0:
184,28,357195,5,4,0:0:0:0:
184,28,357544,1,0,0:0:0:0:
236,122,357893,1,8,0:0:0:0:
244,121,358067,1,0,0:0:0:0:
252,120,358242,1,0,0:0:0:0:
259,118,358416,1,0,0:0:0:0:
267,117,358591,1,0,0:0:0:0:
376,104,358939,1,0,0:0:0:0:
480,88,359288,1,8,0:0:0:0:
352,216,359637,1,2,2:0:0:0:
240,232,359812,1,0,0:0:0:0:
128,244,359986,6,0,P|67:278|25:348,2,140,0|0|8,0:0|0:0|0:0,0:0:0:0:
135,243,360858,1,0,0:0:0:0:
141,242,361032,1,0,0:0:0:0:
147,241,361207,1,0,0:0:0:0:
153,240,361381,2,0,L|300:233,2,140,0|0|8,0:0|0:0|0:0,0:0:0:0:
240,156,362428,2,0,L|324:152,1,70,2|0,2:0|0:0,0:0:0:0:
396,196,362777,6,0,P|416:140|408:38,2,140,0|0|8,0:0|0:0|0:0,0:0:0:0:
390,199,363649,1,0,0:0:0:0:
384,202,363823,1,0,0:0:0:0:
378,205,363998,1,0,0:0:0:0:
372,208,364172,2,0,L|229:214,1,140
88,116,364870,6,2,B|91:176|47:212|47:212|99:240|115:284,1,210,10|0,0:0|0:0,0:0:0:0:
168,200,365567,2,2,B|164:139|208:103|208:103|156:75|140:31,1,210,2|0,0:0|2:0,0:0:0:0:
248,172,366265,2,0,P|278:138|283:108,1,70,8|0,0:0|0:0,0:0:0:0:
282,114,366614,2,0,L|368:108,1,70
420,36,366963,2,0,L|436:180,2,140,0|0|8,0:0|0:0|0:0,0:0:0:0:
336,216,368009,2,0,L|344:288,1,70,2|0,2:0|0:0,0:0:0:0:
256,332,368358,6,0,P|218:275|80:289,1,210,4|0,0:0|0:0,0:0:0:0:
88,280,369056,2,0,L|80:204,1,70,8|0,0:0|0:0,0:0:0:0:
172,176,369405,2,0,L|180:88,1,70
256,48,369753,2,0,L|428:56,2,140,0|0|8,0:0|0:0|0:0,0:0:0:0:
344,224,370800,1,2,2:0:0:0:
440,204,370974,1,0,0:0:0:0:
368,136,371149,5,0,0:0:0:0:
144,160,371498,1,0,0:0:0:0:
348,304,371846,2,0,L|263:298,1,70,8|0,0:0|0:0,0:0:0:0:
278,299,372195,2,0,P|289:248|283:218,1,70
248,140,372544,1,0,0:0:0:0:
252,136,372893,1,0,0:0:0:0:
256,132,373242,1,8,0:0:0:0:
428,36,373591,2,0,P|431:81|428:118,1,70,2|0,2:0|0:0,0:0:0:0:
376,188,373939,6,0,P|372:249|375:338,2,140,0|0|8,0:0|0:0|0:0,0:0:0:0:
386,185,374812,1,0,0:0:0:0:
396,182,374986,1,0,0:0:0:0:
406,179,375160,1,0,0:0:0:0:
416,176,375335,1,0,0:0:0:0:
288,324,375684,1,0,0:0:0:0:
200,148,376032,1,8,0:0:0:0:
48,272,376381,1,2,2:0:0:0:
51,262,376556,1,0,0:0:0:0:
54,252,376730,6,0,L|45:103,2,140,0|0|8,0:0|0:0|0:0,0:0:0:0:
148,224,377602,2,0,P|154:263|159:297,1,70
232,148,377951,2,0,P|238:187|243:221,1,70
242,217,378474,1,0,0:0:0:0:
242,217,378823,2,0,L|389:222,1,140,8|0,0:0|2:0,0:0:0:0:
444,144,379346,1,0,0:0:0:0:
372,80,379521,5,4,0:0:0:0:
256,192,379695,12,0,394870,0:0:0:0:
