osu file format v12

[General]
AudioFilename: What Will Come of Me.mp3
AudioLeadIn: 0
PreviewTime: -1
Countdown: 0
SampleSet: None
StackLeniency: 0.7
Mode: 0
LetterboxInBreaks: 1

[Editor]
DistanceSpacing: 1.2
BeatDivisor: 4
GridSize: 8

[Metadata]
Title:What will come of me
TitleUnicode:What will come of me
Artist:Black Rose Garden
ArtistUnicode:Black Rose Garden
Creator:batwoman3
Version:Normal
Source:
Tags:
BeatmapID:250198
BeatmapSetID:92551

[Difficulty]
HPDrainRate:5
CircleSize:4
OverallDifficulty:5
ApproachRate:2
SliderMultiplier:1.4
SliderTickRate:1

[Events]
//Background and Video events
//Break Periods
//Storyboard Layer 0 (Background)
//Storyboard Layer 1 (Fail)
//Storyboard Layer 2 (Pass)
//Storyboard Layer 3 (Foreground)
//Storyboard Sound Samples
//Background Colour Transformations
3,100,163,162,255

[TimingPoints]
7167.22840871326,428.571428571429,4,2,1,31,1,0
44881,-100,4,2,1,40,0,1
86023,-100,4,2,1,40,0,0
99738,-66.6666666666667,4,2,1,40,0,0

[Colours]
Combo1 : 203,154,39
Combo2 : 0,202,0
Combo3 : 18,124,255
Combo4 : 242,24,57
Combo5 : 255,192,0
Combo6 : 0,0,255
Combo7 : 79,180,61
Combo8 : 28,3,99

[HitObjects]
256,192,14024,12,0,16595,0:0:0:0:
219,111,17452,5,0,0:0:0:0:
89,184,17881,1,0,0:0:0:0:
82,323,18310,1,0,0:0:0:0:
386,337,19167,5,0,0:0:0:0:
425,257,19595,1,0,0:0:0:0:
425,175,20024,1,0,0:0:0:0:
76,108,20881,5,0,0:0:0:0:
85,173,21310,1,0,0:0:0:0:
65,238,21738,1,0,0:0:0:0:
394,82,22595,5,0,0:0:0:0:
328,78,23024,1,0,0:0:0:0:
266,71,23452,1,0,0:0:0:0:
56,77,24310,5,0,0:0:0:0:
54,164,24738,1,0,0:0:0:0:
65,236,25167,1,8,0:0:0:0:
122,294,25595,1,0,0:0:0:0:
212,323,26024,5,0,0:0:0:0:
304,317,26452,1,0,0:0:0:0:
392,303,26881,1,8,0:0:0:0:
381,82,27738,5,0,0:0:0:0:
279,73,28167,1,8,0:0:0:0:
188,77,28595,1,0,0:0:0:0:
98,98,29024,1,0,0:0:0:0:
56,187,29452,5,0,0:0:0:0:
60,265,29667,1,0,0:0:0:0:
97,315,29881,1,8,0:0:0:0:
157,342,30095,1,8,0:0:0:0:
305,355,30738,1,8,0:0:0:0:
413,226,31167,5,0,0:0:0:0:
394,160,31595,1,0,0:0:0:0:
334,122,32024,1,8,0:0:0:0:
73,83,32881,5,0,0:0:0:0:
56,158,33310,1,0,0:0:0:0:
61,229,33738,1,8,0:0:0:0:
450,358,34595,5,0,0:0:0:0:
441,253,35024,1,0,0:0:0:0:
428,156,35452,1,8,0:0:0:0:
302,58,36310,5,0,0:0:0:0:
236,110,36738,1,0,0:0:0:0:
154,164,37167,1,8,0:0:0:0:
68,215,37595,1,0,0:0:0:0:
54,312,38024,5,0,0:0:0:0:
111,322,38452,1,0,0:0:0:0:
168,326,38881,1,0,0:0:0:0:
217,328,39310,1,8,0:0:0:0:
270,328,39738,5,0,0:0:0:0:
323,322,40167,1,0,0:0:0:0:
374,309,40595,1,8,0:0:0:0:
437,74,41452,5,0,0:0:0:0:
359,78,41881,1,0,0:0:0:0:
267,97,42310,1,8,0:0:0:0:
90,101,43167,5,4,0:0:0:0:
73,172,43595,1,4,0:0:0:0:
80,238,44024,1,12,0:0:0:0:
134,283,44452,1,12,0:0:0:0:
208,314,44881,5,4,0:0:0:0:
293,320,45738,1,8,0:0:0:0:
386,280,46595,5,0,0:0:0:0:
391,204,47024,1,0,0:0:0:0:
388,133,47452,1,8,0:0:0:0:
265,84,48310,5,0,0:0:0:0:
197,82,48738,1,0,0:0:0:0:
130,87,49167,1,8,0:0:0:0:
81,136,49595,1,8,0:0:0:0:
67,197,50024,5,0,0:0:0:0:
73,257,50452,1,0,0:0:0:0:
127,306,50881,1,8,0:0:0:0:
388,330,51738,5,0,0:0:0:0:
385,153,52595,1,8,0:0:0:0:
257,101,53452,1,0,0:0:0:0:
170,102,53881,1,0,0:0:0:0:
92,153,54310,1,8,0:0:0:0:
67,234,54738,1,8,0:0:0:0:
62,324,55167,5,0,0:0:0:0:
294,315,56452,1,0,0:0:0:0:
374,314,56881,1,0,0:0:0:0:
383,193,57738,5,12,0:0:0:0:
364,117,58167,1,12,0:0:0:0:
261,85,58595,5,0,0:0:0:0:
182,81,59024,1,0,0:0:0:0:
114,87,59452,1,0,0:0:0:0:
39,335,60310,5,0,0:0:0:0:
119,335,60738,1,0,0:0:0:0:
195,330,61167,1,8,0:0:0:0:
400,320,62024,5,0,0:0:0:0:
400,224,62452,1,8,0:0:0:0:
376,144,62881,1,0,0:0:0:0:
312,80,63310,1,8,0:0:0:0:
248,69,63738,5,0,0:0:0:0:
212,122,64167,1,0,0:0:0:0:
203,177,64595,1,8,0:0:0:0:
210,224,65024,1,0,0:0:0:0:
197,285,65452,1,0,0:0:0:0:
148,323,65881,1,0,0:0:0:0:
94,335,66310,1,8,0:0:0:0:
260,307,67167,5,8,0:0:0:0:
293,288,67595,1,8,0:0:0:0:
329,261,68024,1,8,0:0:0:0:
392,158,68881,5,0,0:0:0:0:
332,145,69310,1,8,0:0:0:0:
270,128,69738,1,0,0:0:0:0:
218,120,70167,1,8,0:0:0:0:
37,35,70595,5,0,0:0:0:0:
41,207,71452,1,8,0:0:0:0:
59,335,72310,5,0,0:0:0:0:
192,340,73167,1,8,0:0:0:0:
326,345,74024,6,0,P|384:162|81:185,2,560
124,253,77881,5,0,0:0:0:0:
81,140,78310,1,8,0:0:0:0:
407,126,79167,6,0,P|416:195|332:188,2,140
322,108,80452,1,8,0:0:0:0:
242,150,80881,5,0,0:0:0:0:
234,240,81310,1,0,0:0:0:0:
323,302,81738,1,8,0:0:0:0:
421,301,82595,6,0,P|408:115|277:111,2,280
412,183,84738,1,8,0:0:0:0:
431,278,85167,6,8,L|345:278,3,70
446,344,86024,6,0,B|52:351|69:24,1,560
469,39,89452,6,0,L|6:366,1,560
71,53,92881,5,0,0:0:0:0:
68,167,93738,1,8,0:0:0:0:
81,290,94595,1,0,0:0:0:0:
143,316,95024,1,0,0:0:0:0:
194,329,95452,1,8,0:0:0:0:
406,316,96310,5,0,0:0:0:0:
406,250,96738,1,0,0:0:0:0:
376,173,97167,1,0,0:0:0:0:
323,109,97595,1,0,0:0:0:0:
252,82,98024,5,8,0:0:0:0:
182,81,98452,1,8,0:0:0:0:
124,103,98881,1,8,0:0:0:0:
92,158,99310,1,0,0:0:0:0:
272,362,99738,6,0,B|230:304|210:304|192:300|172:291|159:284|136:277|101:266|77:258|43:233|17:217|86:194|106:186|130:172|153:167|161:151|175:137|182:129|189:110|199:90|206:66|211:51|214:32|218:14|231:47|254:64|277:75|307:89|332:98|362:102|376:104|402:103|428:102|440:98|462:92|454:117|443:129|425:141|406:151|382:158|364:165|337:173|422:213|424:225|427:254|423:279|381:291,7,840.000032043458
