osu file format v12

[General]
AudioFilename: What Will Come of Me.mp3
AudioLeadIn: 0
PreviewTime: -1
Countdown: 0
SampleSet: None
StackLeniency: 0.7
Mode: 0
LetterboxInBreaks: 1

[Editor]
DistanceSpacing: 1.2
BeatDivisor: 4
GridSize: 8

[Metadata]
Title:What will come of me
TitleUnicode:What will come of me
Artist:Black Rose Garden
ArtistUnicode:Black Rose Garden
Creator:batwoman3
Version:Insane
Source:
Tags:
BeatmapID:250197
BeatmapSetID:92551

[Difficulty]
HPDrainRate:5
CircleSize:5
OverallDifficulty:5
ApproachRate:6
SliderMultiplier:1.4
SliderTickRate:1

[Events]
//Background and Video events
//Break Periods
//Storyboard Layer 0 (Background)
//Storyboard Layer 1 (Fail)
//Storyboard Layer 2 (Pass)
//Storyboard Layer 3 (Foreground)
//Storyboard Sound Samples
//Background Colour Transformations
3,100,163,162,255

[TimingPoints]
7167.22840871326,428.571428571429,4,2,1,31,1,0
44881,-100,4,2,1,40,0,1
86023,-100,4,2,1,40,0,0
99738,-66.6666666666667,4,2,1,40,0,0

[Colours]
Combo1 : 203,154,39
Combo2 : 0,202,0
Combo3 : 18,124,255
Combo4 : 242,24,57
Combo5 : 255,192,0
Combo6 : 0,0,255
Combo7 : 79,180,61
Combo8 : 28,3,99

[HitObjects]
256,192,14024,12,0,17023,0:0:0:0:
125,118,17452,5,0,0:0:0:0:
127,197,17667,1,0,0:0:0:0:
163,252,17881,5,8,0:0:0:0:
203,280,17988,1,0,0:0:0:0:
246,299,18095,1,0,0:0:0:0:
370,303,18310,1,8,0:0:0:0:
371,216,18738,2,0,L|280:173,1,70
254,133,19167,5,8,0:0:0:0:
168,147,19381,2,0,L|85:117,2,70
88,208,20024,1,8,0:0:0:0:
74,318,20452,5,0,0:0:0:0:
130,330,20667,1,0,0:0:0:0:
184,345,20881,1,0,0:0:0:0:
232,344,21095,1,0,0:0:0:0:
279,333,21310,1,0,0:0:0:0:
328,305,21524,1,0,0:0:0:0:
374,278,21738,1,8,0:0:0:0:
422,158,22167,6,0,L|334:124,5,70
268,133,23452,1,8,0:0:0:0:
222,210,23881,6,0,L|247:222,7,17.5
318,231,24310,1,8,0:0:0:0:
424,111,24524,5,0,0:0:0:0:
354,73,24738,1,0,0:0:0:0:
275,55,24952,1,0,0:0:0:0:
192,60,25167,1,0,0:0:0:0:
93,97,25595,6,0,L|85:115,7,17.5
66,202,26024,6,0,L|55:226,7,17.5
94,206,26452,6,0,L|88:229,7,17.5
128,209,26881,5,8,0:0:0:0:
274,148,27310,1,8,0:0:0:0:
262,198,27417,1,0,0:0:0:0:
288,240,27524,1,0,0:0:0:0:
423,250,27738,5,0,0:0:0:0:
423,209,27952,1,0,0:0:0:0:
415,159,28167,1,8,0:0:0:0:
26,22,28595,5,0,0:0:0:0:
22,64,28810,1,0,0:0:0:0:
26,115,29024,1,8,0:0:0:0:
34,162,29238,1,0,0:0:0:0:
46,318,29452,5,0,0:0:0:0:
102,319,29667,1,0,0:0:0:0:
212,322,29881,1,8,0:0:0:0:
187,273,29988,1,0,0:0:0:0:
168,226,30095,1,0,0:0:0:0:
167,139,30310,5,0,0:0:0:0:
228,151,30524,1,0,0:0:0:0:
287,168,30738,1,8,0:0:0:0:
434,325,31167,5,0,0:0:0:0:
427,256,31381,1,0,0:0:0:0:
356,329,31595,1,8,0:0:0:0:
356,284,31702,1,0,0:0:0:0:
352,244,31810,1,0,0:0:0:0:
273,332,32024,5,8,0:0:0:0:
195,335,32452,1,0,0:0:0:0:
190,260,32667,1,0,0:0:0:0:
122,339,32881,5,0,0:0:0:0:
120,261,33095,1,0,0:0:0:0:
41,345,33310,1,0,0:0:0:0:
39,257,33524,1,0,0:0:0:0:
40,170,33738,1,8,0:0:0:0:
438,58,34167,5,8,0:0:0:0:
402,109,34381,1,0,0:0:0:0:
249,54,34595,5,0,0:0:0:0:
218,124,34810,1,0,0:0:0:0:
181,206,35024,1,8,0:0:0:0:
201,246,35131,1,8,0:0:0:0:
241,264,35238,1,0,0:0:0:0:
339,246,35452,1,8,0:0:0:0:
64,102,35881,5,8,0:0:0:0:
59,171,36095,2,0,L|135:167,4,70
139,237,37167,1,8,0:0:0:0:
257,182,37595,6,0,L|277:224,1,35
311,175,37810,2,0,L|334:228,1,35
404,271,38024,5,8,0:0:0:0:
417,175,38238,1,8,0:0:0:0:
363,113,38452,1,0,0:0:0:0:
294,95,38667,1,0,0:0:0:0:
226,93,38881,1,0,0:0:0:0:
90,82,39310,5,8,0:0:0:0:
50,164,39524,1,0,0:0:0:0:
66,247,39738,6,0,L|88:295,1,35
110,238,39952,2,0,L|125:273,1,35
154,223,40167,2,0,L|179:283,1,35
196,206,40381,2,0,L|210:246,1,35
245,190,40595,1,8,0:0:0:0:
339,171,41024,6,0,L|352:200,7,17.5
396,151,41452,5,8,0:0:0:0:
353,93,41667,1,8,0:0:0:0:
291,77,41881,1,0,0:0:0:0:
219,78,42095,1,0,0:0:0:0:
156,106,42310,1,0,0:0:0:0:
85,165,42738,5,0,0:0:0:0:
56,205,42952,1,0,0:0:0:0:
70,318,43167,5,8,0:0:0:0:
132,322,43381,1,0,0:0:0:0:
210,331,43595,1,8,0:0:0:0:
272,324,43810,1,0,0:0:0:0:
409,324,44024,5,12,0:0:0:0:
410,144,44238,1,12,0:0:0:0:
297,134,44452,1,0,0:0:0:0:
259,135,44560,1,0,0:0:0:0:
218,135,44667,1,0,0:0:0:0:
113,125,44881,5,0,0:0:0:0:
52,157,45095,1,0,0:0:0:0:
34,218,45310,1,0,0:0:0:0:
41,291,45524,1,0,0:0:0:0:
63,317,45595,1,0,0:0:0:0:
99,329,45667,1,0,0:0:0:0:
134,333,45738,1,8,0:0:0:0:
219,339,45952,5,0,0:0:0:0:
306,321,46167,1,8,0:0:0:0:
397,287,46595,5,8,0:0:0:0:
417,228,46810,1,8,0:0:0:0:
374,148,47024,1,0,0:0:0:0:
336,135,47131,1,0,0:0:0:0:
293,131,47238,1,0,0:0:0:0:
208,120,47452,1,8,0:0:0:0:
72,114,47881,1,8,0:0:0:0:
43,288,48310,6,0,L|100:223,1,70
176,236,48738,2,8,L|117:308,1,70
276,237,49167,2,0,L|225:301,1,70
348,301,49595,2,8,L|390:240,1,70
408,82,50024,5,0,0:0:0:0:
308,67,50238,1,0,0:0:0:0:
260,69,50345,1,0,0:0:0:0:
217,84,50452,1,0,0:0:0:0:
168,140,50667,2,0,L|134:160,2,23.3333333333333
116,190,50881,1,8,0:0:0:0:
66,304,51310,2,0,L|211:283,1,140
305,285,51952,5,0,0:0:0:0:
392,232,52167,1,8,0:0:0:0:
404,144,52381,1,0,0:0:0:0:
397,106,52452,1,0,0:0:0:0:
379,70,52524,1,0,0:0:0:0:
350,39,52595,1,8,0:0:0:0:
50,37,52810,5,8,0:0:0:0:
57,340,53238,5,8,0:0:0:0:
140,344,53452,1,0,0:0:0:0:
186,329,53667,1,0,0:0:0:0:
274,292,53881,1,0,0:0:0:0:
278,244,53988,1,0,0:0:0:0:
263,200,54095,1,0,0:0:0:0:
164,152,54310,1,8,0:0:0:0:
63,57,54524,5,0,0:0:0:0:
127,53,54738,1,8,0:0:0:0:
190,52,54952,1,0,0:0:0:0:
258,52,55167,1,0,0:0:0:0:
312,58,55381,1,8,0:0:0:0:
408,311,55810,5,0,0:0:0:0:
350,302,56024,1,8,0:0:0:0:
290,296,56238,1,8,0:0:0:0:
235,289,56452,1,8,0:0:0:0:
45,178,56881,5,0,0:0:0:0:
122,142,57095,1,0,0:0:0:0:
146,181,57202,1,0,0:0:0:0:
116,217,57310,1,0,0:0:0:0:
206,109,57524,1,0,0:0:0:0:
221,147,57595,1,0,0:0:0:0:
216,201,57667,1,0,0:0:0:0:
196,253,57738,1,8,0:0:0:0:
421,177,58167,5,8,0:0:0:0:
336,151,58381,1,8,0:0:0:0:
334,189,58488,1,8,0:0:0:0:
309,247,58595,6,0,L|405:248,1,70
376,322,59024,2,0,L|290:317,1,70
226,311,59452,1,8,0:0:0:0:
52,261,59881,5,0,0:0:0:0:
54,175,60095,1,8,0:0:0:0:
190,75,60524,1,8,0:0:0:0:
219,123,60738,1,0,0:0:0:0:
269,148,60952,1,0,0:0:0:0:
323,144,61167,1,8,0:0:0:0:
430,124,61381,5,0,0:0:0:0:
426,190,61595,1,0,0:0:0:0:
417,263,61810,2,0,L|378:263,2,35
319,326,62238,5,0,0:0:0:0:
235,326,62452,1,8,0:0:0:0:
150,320,62667,1,0,0:0:0:0:
76,279,62881,1,0,0:0:0:0:
45,200,63095,1,0,0:0:0:0:
40,115,63310,1,8,0:0:0:0:
47,31,63524,1,0,0:0:0:0:
419,37,63738,6,0,L|424:122,1,70
426,338,64167,2,8,L|352:342,1,70
45,341,64595,2,0,L|46:260,1,70
50,86,65024,1,8,0:0:0:0:
124,88,65238,5,0,0:0:0:0:
166,93,65345,1,0,0:0:0:0:
197,113,65452,1,0,0:0:0:0:
235,187,65667,1,0,0:0:0:0:
239,268,65881,1,8,0:0:0:0:
192,322,66095,1,0,0:0:0:0:
116,337,66310,1,0,0:0:0:0:
71,194,66738,5,0,0:0:0:0:
148,202,66952,1,8,0:0:0:0:
352,193,67381,1,8,0:0:0:0:
352,193,67595,1,0,0:0:0:0:
352,193,67810,1,0,0:0:0:0:
352,193,68024,1,8,0:0:0:0:
423,316,68452,1,8,0:0:0:0:
312,318,68667,1,0,0:0:0:0:
264,324,68774,1,0,0:0:0:0:
218,330,68881,1,0,0:0:0:0:
64,315,69095,5,0,0:0:0:0:
61,269,69310,1,0,0:0:0:0:
56,225,69524,1,8,0:0:0:0:
452,31,69952,2,0,L|452:102,1,70
451,171,70381,1,8,0:0:0:0:
453,341,70810,5,8,0:0:0:0:
45,35,71238,5,8,0:0:0:0:
37,179,71452,1,8,0:0:0:0:
38,235,71595,1,8,0:0:0:0:
63,284,71738,1,8,0:0:0:0:
107,318,71881,1,0,0:0:0:0:
158,339,72024,1,0,0:0:0:0:
213,348,72167,1,0,0:0:0:0:
268,351,72310,5,0,0:0:0:0:
306,334,72417,1,0,0:0:0:0:
335,304,72524,1,0,0:0:0:0:
356,268,72631,1,0,0:0:0:0:
357,226,72738,5,0,0:0:0:0:
354,184,72845,1,0,0:0:0:0:
332,148,72952,1,0,0:0:0:0:
308,132,73024,1,0,0:0:0:0:
280,126,73095,1,0,0:0:0:0:
251,128,73167,1,8,0:0:0:0:
43,111,73595,5,0,0:0:0:0:
38,175,73810,1,8,0:0:0:0:
40,302,74238,1,8,0:0:0:0:
111,326,74452,1,0,0:0:0:0:
167,333,74560,1,0,0:0:0:0:
219,322,74667,1,0,0:0:0:0:
297,295,74881,1,12,0:0:0:0:
386,331,75095,5,0,0:0:0:0:
396,64,75524,1,0,0:0:0:0:
337,64,75738,6,0,L|249:47,1,70
322,124,76167,2,8,L|246:110,1,70
234,171,76595,2,0,L|326:193,1,70
211,234,77024,2,8,L|299:259,1,70
446,203,77452,5,0,0:0:0:0:
383,162,77667,1,0,0:0:0:0:
359,208,77774,1,0,0:0:0:0:
382,252,77881,1,0,0:0:0:0:
314,115,78095,1,0,0:0:0:0:
296,164,78167,1,0,0:0:0:0:
291,222,78238,1,0,0:0:0:0:
307,278,78310,1,8,0:0:0:0:
250,60,78524,5,0,0:0:0:0:
217,117,78738,1,8,0:0:0:0:
204,180,78952,1,0,0:0:0:0:
134,180,79167,1,8,0:0:0:0:
52,133,79381,2,0,L|49:232,1,70
47,307,79810,6,0,L|67:290,2,23.3333333333333
146,319,80024,1,8,0:0:0:0:
234,334,80238,1,0,0:0:0:0:
314,338,80452,1,0,0:0:0:0:
457,344,80667,5,8,0:0:0:0:
453,40,81095,5,8,0:0:0:0:
457,344,81524,1,8,0:0:0:0:
421,331,81738,5,12,0:0:0:0:
421,204,81952,1,12,0:0:0:0:
460,144,82167,1,0,0:0:0:0:
460,106,82274,1,0,0:0:0:0:
458,72,82381,1,0,0:0:0:0:
394,91,82595,6,0,L|368:140,1,35
325,84,82810,2,0,L|307:120,1,35
237,114,83024,2,0,L|252:78,1,35
159,98,83238,1,0,0:0:0:0:
54,80,83452,1,8,0:0:0:0:
51,179,83881,5,8,0:0:0:0:
55,243,84095,1,0,0:0:0:0:
323,282,84310,5,8,0:0:0:0:
281,275,84417,1,0,0:0:0:0:
239,271,84524,1,0,0:0:0:0:
198,261,84631,1,0,0:0:0:0:
157,252,84738,1,0,0:0:0:0:
115,244,84845,1,0,0:0:0:0:
114,111,84952,5,8,0:0:0:0:
152,92,85060,1,0,0:0:0:0:
188,71,85167,1,0,0:0:0:0:
223,48,85274,1,0,0:0:0:0:
259,27,85381,1,0,0:0:0:0:
295,6,85488,1,0,0:0:0:0:
359,89,85595,5,8,0:0:0:0:
367,130,85702,1,0,0:0:0:0:
377,171,85810,1,0,0:0:0:0:
399,294,86024,5,8,0:0:0:0:
357,288,86131,1,0,0:0:0:0:
320,268,86238,1,8,0:0:0:0:
297,232,86345,1,0,0:0:0:0:
282,192,86452,1,8,0:0:0:0:
258,156,86560,1,0,0:0:0:0:
221,135,86667,1,8,0:0:0:0:
180,124,86774,1,0,0:0:0:0:
138,117,86881,1,8,0:0:0:0:
59,186,87095,5,0,0:0:0:0:
43,268,87310,1,0,0:0:0:0:
132,329,87524,5,8,0:0:0:0:
173,328,87631,1,0,0:0:0:0:
214,322,87738,1,0,0:0:0:0:
249,300,87845,1,0,0:0:0:0:
270,264,87952,1,8,0:0:0:0:
277,222,88060,1,0,0:0:0:0:
280,180,88167,1,8,0:0:0:0:
270,91,88381,5,0,0:0:0:0:
146,84,88595,1,8,0:0:0:0:
96,80,88702,1,8,0:0:0:0:
61,110,88810,1,0,0:0:0:0:
73,287,89024,5,8,0:0:0:0:
68,245,89131,1,0,0:0:0:0:
65,203,89238,1,8,0:0:0:0:
68,161,89345,1,0,0:0:0:0:
79,120,89452,1,8,0:0:0:0:
106,87,89560,1,0,0:0:0:0:
143,68,89667,1,8,0:0:0:0:
183,57,89774,1,0,0:0:0:0:
224,54,89881,1,8,0:0:0:0:
265,60,89988,1,0,0:0:0:0:
302,77,90095,1,8,0:0:0:0:
331,106,90202,1,0,0:0:0:0:
349,143,90310,1,8,0:0:0:0:
361,231,90524,5,0,0:0:0:0:
298,260,90738,1,8,0:0:0:0:
201,314,90952,5,8,0:0:0:0:
158,310,91060,1,0,0:0:0:0:
119,292,91167,1,0,0:0:0:0:
93,258,91274,1,0,0:0:0:0:
72,221,91381,1,8,0:0:0:0:
58,181,91488,1,0,0:0:0:0:
44,141,91595,1,8,0:0:0:0:
57,47,92024,5,0,0:0:0:0:
178,42,92452,1,8,0:0:0:0:
214,42,92560,1,0,0:0:0:0:
253,46,92667,1,8,0:0:0:0:
425,50,92881,6,8,P|426:91|398:101,2,70
407,174,93738,1,0,0:0:0:0:
366,270,94167,6,0,L|284:275,1,70
214,278,94595,2,0,L|150:235,1,70
82,155,95024,1,0,0:0:0:0:
59,46,95452,5,8,0:0:0:0:
154,47,95667,1,8,0:0:0:0:
243,48,95881,2,0,L|236:84,1,35
303,48,96095,2,0,L|294:88,1,35
391,55,96310,6,0,P|453:109|413:171,1,140
436,237,97167,1,8,0:0:0:0:
378,300,97595,2,0,P|334:320|333:289,1,70
254,282,98024,5,0,0:0:0:0:
165,298,98238,1,0,0:0:0:0:
81,250,98452,1,8,0:0:0:0:
72,208,98560,1,8,0:0:0:0:
79,166,98667,1,8,0:0:0:0:
93,126,98774,1,8,0:0:0:0:
125,99,98881,5,8,0:0:0:0:
178,82,99024,1,8,0:0:0:0:
233,72,99167,1,8,0:0:0:0:
280,102,99310,5,0,0:0:0:0:
308,149,99452,1,0,0:0:0:0:
325,199,99631,1,0,0:0:0:0:
399,319,99738,6,0,B|49:327|412:34|-93:40,1,630.000024032594
45,34,101452,6,0,B|45:358|472:360|341:26,1,630.000024032594
438,50,103167,6,0,B|24:36|550:323|-4:356,1,630.000024032594
241,346,104881,6,0,B|102:334|11:273|-26:196|-34:96|-36:21|35:2|123:4|176:58|217:100,1,630.000024032594
242,346,106595,6,0,B|161:331|94:273|59:202|38:131|37:45|88:20|145:22|193:38|242:90|272:155|286:183|320:90|368:53|432:50|447:98|450:138|450:181|447:215|338:173,3,840.000032043458
