osu file format v9

[General]
AudioFilename: unreal.mp3
AudioLeadIn: 1996
PreviewTime: -1
Countdown: 1
SampleSet: Normal
StackLeniency: 0.7
Mode: 0
LetterboxInBreaks: 1

[Editor]
DistanceSpacing: 0.8
BeatDivisor: 2
GridSize: 8

[Metadata]
Title:Unreal
Artist:Black Rose Garden
Creator:bipolarmen98
Version:Normal
Source:Dance Dance Revolution
Tags:Rock DDR Dance Dance Revolution Nerv_Mario

[Difficulty]
HPDrainRate:4
CircleSize:4
OverallDifficulty:5
ApproachRate:5
SliderMultiplier:0.900000005960464
SliderTickRate:2

[Events]
//Background and Video events
Video,0,"Black Rose Garden Unreal.avi"
0,0,"Black-Rose-Flower.jpg"
//Break Periods
2,49349,58616
//Storyboard Layer 0 (Background)
//Storyboard Layer 1 (Fail)
//Storyboard Layer 2 (Pass)
//Storyboard Layer 3 (Foreground)
//Storyboard Sound Samples
//Background Colour Transformations
3,100,163,162,255

[TimingPoints]
1150,333.333333333333,4,1,1,60,1,0
70816,-100,4,1,1,60,0,1
79649,-100,4,1,1,60,0,0

[Colours]
Combo1 : 0,255,0
Combo2 : 243,89,34
Combo3 : 112,196,193
Combo4 : 255,0,0

[HitObjects]
256,192,1150,12,0,4483
256,192,5316,5,0
152,192,5816,1,0
168,224,5983,1,0
216,272,6316,2,0,B|280:272,1,45.0000002980232
400,240,7149,5,0
352,184,7483,1,0
216,64,8316,1,0
256,120,8649,1,0
176,192,9149,5,4
176,192,9483,1,4
232,240,9816,2,0,B|232:160,3,45.0000002980232
288,24,11149,5,0
256,40,11316,1,0
224,56,11483,1,0
192,72,11649,1,0
88,104,12149,5,2
152,136,12483,1,0
208,96,12816,1,2
256,144,13149,2,0,B|256:288,1,135.00000089407
64,120,14816,5,0
112,176,15149,1,0
168,128,15483,1,0
168,128,15816,1,0
184,200,16149,2,0,B|312:56,1,180.000001192093
432,136,17483,5,0
392,200,17816,1,0
392,272,18149,1,0
328,240,18483,1,0
256,240,18816,2,0,B|184:240,1,45.0000002980232
48,48,20149,5,0
96,104,20483,1,0
136,48,20816,1,0
184,104,21149,1,0
184,176,21483,5,0
200,208,21649,2,0,B|312:208,1,90.0000005960464
288,208,22149,1,0
328,152,22483,1,0
232,104,22983,6,0,B|136:48|136:48|64:88,1,180.000001192093
80,152,23816,2,0,B|48:192|88:256,1,90.0000005960464
112,256,24316,1,0
184,272,24649,2,0,B|224:248,1,45.0000002980232
280,208,25149,2,0,B|320:184|320:184|288:136,1,90.0000005960464
256,192,25816,12,4,27816
392,192,29149,5,0
424,128,29483,1,0
392,112,29650,1,0
320,112,29983,1,0
256,72,30316,2,0,B|256:216,1,135.00000089407
72,320,31816,5,0
72,248,32149,2,0,B|120:248,1,45.0000002980232
152,184,32650,1,0
112,120,32983,5,8
192,48,33483,1,0
240,104,33816,1,0
312,104,34149,1,0
352,168,34483,5,0
384,232,34816,1,0
392,264,34983,1,0
320,272,35316,1,0
264,232,35649,2,0,B|152:280|256:128|168:160,1,135.00000089407
256,192,36483,12,8,38483
80,80,39316,5,0
112,96,39483,2,0,B|208:96|280:144|296:184|296:184,1,180.000001192093
320,256,40649,5,0
352,248,40816,2,0,B|371:186|315:74,1,180.000001192093
256,192,41816,8,14,43816
216,160,45483,5,2
288,160,45816,1,2
288,232,46149,1,2
216,232,46483,1,2
448,328,47649,5,0
448,288,47816,1,0
448,216,48149,1,0
408,216,48316,2,0,B|408:312|224:312,1,225.000001490116
120,96,59816,5,14
360,256,61149,5,10
360,184,61483,1,10
360,184,61649,1,10
296,152,61983,1,10
256,88,62316,1,2
96,184,63149,6,0,B|32:272|80:248,2,90.0000005960464
144,128,64149,1,0
144,160,64316,1,0
144,232,64649,1,0
176,296,64983,1,0
352,304,65816,5,0
384,240,66149,1,0
352,176,66483,1,2
256,136,66983,1,2
224,200,67316,2,2,B|104:200,1,90.0000005960464
256,192,68649,12,0,70483
400,72,71316,5,2
400,104,71483,1,2
400,176,71816,1,2
352,280,72649,5,8
352,280,72816,1,8
280,280,73149,1,8
256,192,73983,12,0,75816
200,192,77483,5,0
256,144,77816,1,0
312,192,78149,1,0
256,240,78483,1,0
256,192,78816,12,0,80483
128,96,81149,6,0,B|224:96,1,90.0000005960464
360,96,82150,1,0
360,168,82483,1,0
360,240,82816,1,0
256,336,83483,5,0
192,304,83816,1,0
152,240,84149,1,0
200,104,84816,5,0
240,160,85149,2,0,B|280:176,6,45.0000002980232
368,224,86816,5,0
328,280,87149,1,0
256,288,87483,2,0,B|224:288|200:256,3,45.0000002980232
256,192,88316,8,0,91650
