osu file format v7

[General]
AudioFilename: stillborn.mp3
AudioLeadIn: 0
PreviewTime: 82659
Countdown: 0
SampleSet: Normal
StackLeniency: 0.7
Mode: 0
LetterboxInBreaks: 0

[Editor]
Bookmarks: 29388,38360,98080,111818
DistanceSpacing: 1
BeatDivisor: 4
GridSize: 8

[Metadata]
Title:Stillborn
Artist:Black Label Society
Creator:Behonkiss
Version:Expert
Source:
Tags:zakk wylde guitar hero world tour

[Difficulty]
HPDrainRate:7
CircleSize:5
OverallDifficulty:7
SliderMultiplier:2.6
SliderTickRate:2

[Events]
//Background and Video events
0,0,"zakkwylde.jpg"
Video,100,"stillborn.avi"
//Break Periods
2,57675,63584
2,122711,140392
//Storyboard Layer 0 (Background)
//Storyboard Layer 1 (Fail)
//Storyboard Layer 2 (Pass)
//Storyboard Layer 3 (Foreground)
//Storyboard Sound Samples
//Background Colour Transformations
3,100,163,162,255

[TimingPoints]
290,560.647663551401,4,1,0,79,1,0
96177,-100,4,1,0,79,0,1
104790,-100,4,1,0,79,0,0
105149,-100,4,1,0,79,0,1
114101,-100,4,1,0,79,0,0
140110,-100,4,1,0,79,0,0
154468,-100,4,1,0,79,0,1
163096,-100,4,1,0,79,0,0
163438,-100,4,1,0,79,0,1
172066,-100,4,1,0,79,0,0
172408,-100,4,1,0,79,0,1
181036,-100,4,1,0,79,0,0
181379,-100,4,1,0,79,0,1
190006,-100,4,1,0,79,0,0
190349,-100,4,1,0,79,0,1
198478,-100,4,1,0,79,0,0

[Colours]
Combo1 : 255,128,0
Combo2 : 7,177,46
Combo3 : 206,0,0
Combo4 : 243,214,0
Combo5 : 4,9,162

[HitObjects]
32,56,6457,2,0,B|168:56,1,130
162,56,6877,1,8
162,56,7017,1,8
96,136,7298,1,0
96,200,7438,1,0
96,264,7578,1,2
96,328,7718,1,0
152,296,7858,1,2
480,56,8699,6,0,B|344:56,1,130
350,56,9120,1,8
350,56,9260,1,8
416,136,9540,1,0
416,200,9680,1,0
416,264,9821,1,2
416,328,9961,1,0
360,296,10101,1,2
256,24,10942,6,0,B|256:160,1,130
256,216,11362,1,8
256,280,11502,1,8
128,280,11783,1,0
168,328,11923,1,0
232,352,12063,1,2
296,352,12203,1,0
352,320,12343,1,2
256,360,13184,6,0,B|256:224,1,130
256,168,13605,1,8
256,104,13745,1,8
384,104,14025,1,0
344,56,14166,1,0
280,32,14306,1,2
216,32,14446,1,0
160,64,14586,1,2
480,288,15427,6,0,B|416:352|344:272,1,130
416,256,15847,1,8
416,256,15988,1,8
416,128,16268,1,0
416,64,16408,1,0
368,16,16548,1,2
320,64,16688,1,0
320,128,16829,1,2
32,288,17670,6,0,B|96:352|168:272,1,130
96,256,18090,1,8
96,256,18230,1,8
96,128,18511,1,0
96,64,18651,1,0
144,16,18791,1,2
192,64,18931,1,0
192,128,19071,1,2
504,192,19912,6,0,B|360:192,1,130
312,192,20333,1,8
248,192,20473,1,8
120,192,20753,1,0
64,224,20893,1,0
32,280,21033,1,2
64,336,21174,1,0
120,360,21314,1,2
8,192,22155,6,0,B|152:192,1,130
200,192,22575,1,8
264,192,22715,1,8
392,192,22996,1,0
448,224,23136,1,0
480,280,23276,1,2
448,336,23416,1,0
392,360,23556,1,6
160,48,24397,6,2,B|40:88|0:320|200:352,1,390
296,344,25659,1,8
296,344,25799,1,8
480,32,26640,1,0
352,32,26920,1,0
352,32,27060,1,0
352,32,27201,1,2
224,32,27481,2,0,B|88:32|88:176|248:152,1,260,2|0
336,88,28322,6,2,C|512:96|344:136|560:144,1,520,2|2
424,240,29724,1,0
424,304,29864,1,0
368,272,30004,1,2
304,272,30144,1,0
240,272,30284,1,2
24,32,31125,6,0,B|184:32,1,130
216,32,31546,1,8
216,32,31686,2,0,B|352:32,1,130,8|0
408,32,32106,1,0
472,32,32246,1,2
512,80,32387,1,0
512,144,32527,1,2
176,344,33368,6,2,B|32:272|48:128,1,260
176,112,34209,2,2,B|160:224|304:280,1,195,2|10
271,265,34769,1,8
488,32,35610,6,0,B|336:32,1,130
358,32,36031,1,8
358,32,36171,1,8
232,80,36451,2,2,B|136:136|136:256|248:304,1,260
352,280,37292,2,2,B|472:168|336:-88|80:24,1,520
0,112,38694,2,2,B|16:344|328:344,1,390
440,152,40095,6,0,B|440:56|320:56,1,130
296,64,40516,1,8
296,64,40656,2,0,B|208:80|216:184,1,130,8|0
216,216,41077,1,0
216,280,41217,1,2
152,280,41357,1,0
152,216,41497,1,2
56,128,41777,2,0,B|56:200,4,65,0|0|0|0|4
160,48,42618,5,0
288,48,42899,2,0,B|440:48,1,130,2|2
496,152,43459,1,0
496,280,43740,2,0,B|368:344|240:280,2,260
368,240,45141,1,0
192,48,45702,1,8
64,48,45982,1,8
312,120,46543,2,6,C|24:136|328:192|0:200,1,910,6|2
256,304,49066,6,0,C|400:304,1,130
448,304,49486,1,8
448,304,49626,2,0,C|448:168,1,130,8|0
448,104,50047,1,0
448,104,50187,1,0
448,104,50327,1,0
448,104,50467,1,0
328,48,50748,1,2
328,48,50888,1,2
128,48,51308,5,4
24,120,51589,1,0
16,248,51869,1,8
128,320,52149,1,8
248,320,52430,2,2,C|512:320,1,260
504,192,53271,1,2
256,112,53831,5,0
256,240,54112,1,0
88,40,54672,1,2
88,168,54953,1,2
256,368,55513,2,6,B|504:344|496:96,1,390
392,112,56635,2,4,B|464:280|72:328,1,390
32,24,64484,5,0
80,144,64764,2,2,B|264:272|472:120,1,390
256,96,66025,1,8
256,96,66166,1,8
256,320,67007,6,0,B|120:320,1,130
56,320,67427,1,0
56,320,67567,1,2
16,192,67848,1,2
16,64,68128,1,2
128,120,68408,1,2
256,112,68689,2,2,B|552:104|560:312|256:288,1,520
128,288,70090,2,2,B|88:8|352:40,1,390,6|2
488,192,71492,5,0
440,312,71772,1,8
376,312,71912,1,8
312,312,72052,2,0,B|176:312,1,130,8|0
112,312,72473,1,0
56,272,72613,1,0
56,208,72753,1,0
56,144,72893,2,0,B|56:72,3,65
248,32,73734,6,2,B|432:24|464:168,1,260
464,280,74575,2,2,B|384:328|264:328,1,195
277,327,75136,1,2
8,40,75977,5,0
136,40,76257,1,0
136,40,76397,1,0
136,40,76538,1,8
72,152,76818,2,0,B|200:248|320:136,1,260,8|0
184,112,77659,2,2,B|304:24|448:112,2,260
40,128,79060,2,0,B|80:312|280:296,1,260
496,24,80462,6,0,B|384:128,1,130,0|2
360,160,80883,1,2
312,208,81023,2,0,B|216:304,1,130
176,344,81443,1,0
112,344,81583,1,2
48,344,81724,1,0
48,280,81864,2,0,B|136:280,6,65,2|0|0|0|0|0|4
80,152,82985,5,0
184,72,83265,1,8
312,72,83546,1,8
416,152,83826,1,0
424,280,84106,2,0,B|264:344|144:272,2,260,0|0|2
304,232,85508,1,2
112,64,86069,1,8
240,64,86349,1,8
496,64,86910,2,6,B|16:304,1,520
264,88,88872,1,4
440,280,89432,6,0,B|304:280,1,130,0|8
264,328,89853,1,8
200,328,89993,2,0,B|56:328,1,130,8|0
64,264,90414,1,0
128,264,90554,1,2
192,264,90694,1,0
256,264,90834,2,0,B|328:264,3,65,2|0|0|0
160,152,91675,5,4
48,80,91955,1,0
160,16,92236,1,0
272,72,92516,1,0
400,72,92796,2,0,B|520:184|400:304,1,260,0|8
288,304,93637,1,8
120,96,94198,1,0
200,192,94478,1,0
448,88,95039,1,2
448,88,95319,1,2
56,64,96160,6,6,C|352:72|56:176|400:184,1,910
120,304,98683,1,0
120,304,98823,1,0
120,304,98963,1,2
248,304,99244,1,2
376,304,99524,2,2,B|496:200|360:64,1,260,2|2
256,16,100365,5,0
128,16,100645,1,8
24,96,100926,2,0,B|24:240|208:280,1,260,8|8
440,280,102047,2,0,B|448:128|304:48,1,260,0|4
96,192,103168,1,0
96,192,103309,1,0
96,192,103449,1,0
224,192,103729,1,2
352,192,104009,1,2
288,304,104290,1,2
416,304,104570,1,2
480,184,105131,6,6,C|184:176|480:72|136:64,1,910
0,248,107654,1,0
0,248,107794,1,0
0,248,107934,1,2
80,344,108214,1,2
208,344,108494,1,2
336,344,108775,6,2,B|456:288|448:112,1,260
352,40,109616,1,8
224,40,109896,2,8,B|64:40|32:200,1,260
256,328,111017,2,0,B|136:224|272:96,1,260
504,200,112139,5,0
504,200,112279,1,0
504,200,112419,1,2
424,296,112699,1,2
328,200,112980,1,2
240,296,113260,1,2
144,208,113540,2,0,B|0:176|16:8,1,260,2|4
120,8,114381,5,0
184,8,114521,1,0
248,8,114662,1,8
312,8,114802,1,0
376,8,114942,1,0
440,8,115082,1,0
440,64,115222,1,0
376,64,115362,1,0
312,64,115503,1,0
248,64,115643,1,0
184,64,115783,1,8
120,64,115923,1,0
120,232,116344,6,0,B|208:232,1,65
240,232,116624,2,0,B|320:232,1,65
360,232,116904,2,0,B|448:232,1,65,8|0
424,288,117185,2,0,B|344:288,1,65
304,288,117465,2,0,B|224:288,1,65
184,288,117745,2,0,B|112:288,1,65
64,288,118026,2,12,B|24:248|96:200,1,65
208,184,118586,5,0
208,184,118726,1,0
208,184,118866,1,0
208,184,119007,1,0
208,184,119147,1,0
208,184,119287,2,2,B|512:184|520:16|208:24,2,487.5
408,296,121950,1,8
200,296,122511,1,12
432,152,141292,5,0
328,72,141573,1,8
200,72,141853,1,8
96,152,142133,1,0
88,280,142414,2,0,B|248:344|368:272,2,260,0|0|2
208,232,143815,1,2
400,64,144376,1,8
272,64,144656,1,8
16,64,145217,2,6,B|488:312,1,520
176,56,147179,1,4
56,288,147740,6,0,B|192:288,1,130,0|8
240,328,148160,1,8
304,328,148300,2,0,B|448:328,1,130,8|0
448,264,148721,1,0
384,264,148861,1,2
320,264,149001,1,0
256,264,149141,2,0,B|176:264,3,65,2|0|0|0
352,152,149982,5,4
464,80,150263,1,0
352,16,150543,1,0
240,72,150823,1,0
112,72,151104,2,0,B|-8:184|112:304,1,260,0|8
224,304,151945,1,8
392,96,152505,1,0
312,192,152786,1,0
64,88,153346,1,2
64,88,153627,1,2
456,64,154468,6,6,C|160:72|456:176|112:184,1,910
392,304,156991,1,0
392,304,157131,1,0
392,304,157271,1,2
264,304,157551,1,2
136,304,157831,2,2,B|16:200|152:64,1,260
256,16,158672,5,0
384,16,158953,1,8
488,96,159233,2,0,B|488:240|304:280,1,260,8|0
72,280,160354,2,0,B|64:128|208:48,1,260,0|4
416,192,161476,1,0
416,192,161616,1,0
416,192,161756,1,2
288,192,162036,1,2
160,192,162317,1,2
224,304,162597,1,2
96,304,162877,1,2
32,184,163438,6,6,C|328:176|32:72|376:64,1,910
512,248,165961,1,0
512,248,166101,1,0
512,248,166241,1,2
432,344,166522,1,2
304,344,166802,1,2
176,344,167082,2,2,B|56:288|64:112,1,260
160,40,167923,5,8
288,40,168203,2,8,B|448:40|480:200,1,260
256,328,169325,2,0,B|376:224|240:96,1,260,0|4
24,232,170446,5,0
24,232,170586,1,0
24,232,170726,1,2
24,104,171007,1,2
136,40,171287,1,2
264,40,171567,1,2
392,40,171848,1,2
400,296,172408,6,6,C|104:288|400:184|56:176,1,910
360,112,174931,1,8
296,112,175071,1,8
232,112,175212,1,8
104,112,175492,1,0
0,192,175772,1,0
0,320,176053,2,2,B|120:376|272:352,1,260
384,344,176894,5,8
480,256,177174,2,0,B|480:-8,1,260,8|10
232,72,178295,2,0,B|64:72|72:248,1,260,2|2
320,192,179416,1,0
320,192,179557,1,0
320,192,179697,1,2
448,192,179977,1,2
384,304,180257,1,2
256,304,180538,1,2
128,304,180818,1,2
32,184,181379,6,6,C|328:176|32:72|376:64,1,910
464,280,183902,1,8
400,280,184042,1,8
336,280,184182,2,8,B|192:280,1,130
72,280,184743,1,0
72,152,185023,2,2,B|160:32|312:40,1,260
424,40,185864,5,2
424,168,186144,2,0,B|424:312|216:304,1,260,2|2
240,40,187265,2,0,B|96:40|56:200,1,260
256,192,188106,12,0,189228
256,40,189788,5,2
256,296,190349,1,6
192,184,190629,1,8
256,184,190770,1,8
320,184,190910,1,8
320,56,191190,1,0
256,56,191330,1,0
192,56,191470,1,2
128,56,191611,1,0
64,56,191751,1,2
256,296,192592,5,0
320,184,192872,1,8
256,184,193012,1,8
192,184,193152,1,8
192,56,193433,1,0
256,56,193573,1,0
320,56,193713,1,2
384,56,193853,1,0
448,56,193993,1,2
88,192,194834,5,0
160,296,195115,1,8
224,296,195255,1,8
288,296,195395,2,0,B|432:296,1,130,8|0
480,296,195815,1,0
448,240,195956,1,2
448,176,196096,1,0
448,112,196236,1,2
64,32,197077,6,8,B|144:32,1,65
128,96,197357,2,8,B|56:96,1,65
96,154,197637,1,2
96,280,197918,2,0,B|184:280,1,65,2|2
224,280,198198,1,4
