osu file format v9

[General]
AudioFilename: Pluto.mp3
AudioLeadIn: 2000
PreviewTime: 18441
Countdown: 0
SampleSet: Normal
StackLeniency: 0.7
Mode: 0
LetterboxInBreaks: 1

[Editor]
Bookmarks: 104,9704,18431,26778,32778,39038,48638,58454,69146,82237,90077,97554,99108
DistanceSpacing: 1.6
BeatDivisor: 8
GridSize: 4

[Metadata]
Title:Pluto
Artist:Black Hole
Creator:7odoa
Version:Expert
Source:Dance Dance Revolution SuperNOVA 2
Tags:Supernova Beat Ex DDRSN2 Bemani Konami CS Beatmania IIDX 15 DJ Troopers NAOKI MAEDA

[Difficulty]
HPDrainRate:6
CircleSize:4
OverallDifficulty:7
ApproachRate:9
SliderMultiplier:2.1
SliderTickRate:4

[Events]
//Background and Video events
0,0,"PlutoBG.jpg"
//Break Periods
2,39238,40838
2,61056,62356
//Storyboard Layer 0 (Background)
//Storyboard Layer 1 (Fail)
//Storyboard Layer 2 (Pass)
//Storyboard Layer 3 (Foreground)
//Storyboard Sound Samples
//Background Colour Transformations
3,100,163,162,255

[TimingPoints]
104,600,4,2,1,95,1,0
104,-200,4,2,1,95,0,0
9704,545.454545454546,4,1,2,60,1,0
9704,-50,4,1,2,60,0,0
18431,521.739130434783,4,1,1,70,1,1
18431,-50,4,1,1,70,0,1
22604,-200,4,2,1,95,0,0
22865,-200,4,1,1,70,0,0
22996,-50,4,1,1,70,0,1
26778,500,6,1,1,70,1,0
26778,-50,6,1,1,70,0,0
32778,521.739130434783,6,1,1,70,1,1
32778,-50,6,1,1,70,0,1
39038,600,4,1,1,70,1,0
41438,-50,4,1,2,60,0,0
48638,545.454545454546,4,1,1,70,1,0
48638,-50,4,1,1,70,0,0
58456,600,4,1,1,70,1,0
58456,-200,4,1,1,70,0,0
59056,-200,4,1,1,63,0,0
59656,-200,4,1,1,56,0,0
60256,-200,4,1,1,49,0,0
63106,-200,4,2,2,95,0,0
68056,545.454545454546,4,1,1,80,1,0
68056,-50,4,1,1,80,0,0
80260,-50,4,1,1,85,0,0
80806,-50,4,1,1,90,0,0
81351,-50,4,1,1,95,0,0
81624,-50,4,2,1,90,0,0
82237,500,4,1,2,65,1,0
82237,-50,4,1,2,65,0,0
86237,480,4,1,2,65,1,0
86237,-50,4,1,2,65,0,0
90077,461.538461538462,4,1,1,75,1,1
90077,-50,4,1,1,75,0,1
93769,-200,4,2,1,95,0,0
94000,444.444444444444,4,1,1,80,1,0
94000,-200,4,1,1,80,0,0
94111,-50,4,1,1,80,0,1
95499,-50,4,1,1,85,0,1
97222,-50,4,1,1,85,0,0
97331,-50,4,1,1,70,0,0

[Colours]
Combo1 : 255,255,255
Combo2 : 0,0,234
Combo3 : 234,0,0
Combo4 : 175,0,234

[HitObjects]
56,192,104,5,2
160,196,404,2,0,B|188:220,1,26.25
200,316,854,2,0,B|228:340,1,26.25
324,316,1304,1,8
324,316,1454,2,0,B|352:340,1,26.25
256,144,1904,5,2
356,108,2204,1,0
416,192,2504,1,2
316,224,2804,2,0,B|288:248,1,26.25
276,344,3254,2,0,B|248:368,1,26.25
152,344,3704,1,8
152,344,3854,2,0,B|124:368,1,26.25
44,168,4304,5,2
136,216,4604,1,0
168,116,4904,1,2
256,172,5204,2,0,B|296:172,1,26.25
296,68,5654,2,0,B|336:68,1,26.25
408,132,6104,1,8
408,132,6254,2,0,B|448:132,1,26.25
340,324,6704,21,2
309,225,7004,1,0
216,273,7304,1,2
193,171,7604,2,0,B|164:142,1,26.25
92,216,8054,2,0,B|63:187,1,26.25
56,92,8505,5,8
80,44,8655,1,0
128,24,8805,1,0
180,40,8955,1,2
212,80,9105,1,2
200,132,9255,2,0,B|160:148,1,26.25
392,44,9704,6,0,B|372:100|296:100,1,105,4|2
440,252,9976,2,0,B|401:206|439:140,1,105,0|2
148,152,10249,2,0,B|264:130|340:262,1,210
332,356,10658,1,2
220,324,10794,22,0,B|161:322|123:368,1,105,0|2
0,276,11067,2,8,B|58:277|96:231,1,105,0|2
8,156,11340,5,0
148,44,11476,1,2
260,184,11613,1,4
400,72,11749,1,2
500,220,11885,6,0,B|400:180,1,105,0|2
264,296,12158,2,0,B|364:336,1,105,0|2
260,184,12431,2,0,B|140:148|72:256,1,210
120,356,12840,1,2
264,296,12976,21,0
412,240,13113,1,2
388,84,13249,1,0
232,56,13385,1,2
232,56,13931,6,0,B|184:148,1,105,4|0
112,60,14203,1,2
60,164,14340,1,0
124,260,14476,1,2
240,248,14612,2,0,B|248:316|196:352,1,105
376,204,14885,2,0,B|313:176|307:113,1,105,0|2
420,100,15158,6,0,B|460:60|460:60|512:60,1,105,0|2
420,284,15430,2,0,B|380:324|380:324|328:324,1,105,0|2
232,268,15703,21,0
68,304,15840,1,2
232,116,15976,1,4
68,80,16112,1,2
108,196,16249,6,0,B|116:240|116:240|136:256|136:256|144:292,1,105,0|2
404,196,16521,2,0,B|396:240|396:240|376:256|376:256|368:292,1,105,0|2
200,192,16794,1,0
312,136,16930,1,0
168,84,17067,1,0
344,28,17203,1,2
404,196,17340,5,0
296,340,17476,1,2
128,284,17612,1,0
120,104,17749,1,2
120,104,18431,22,0,B|132:162|195:182,1,105,4|0
232,72,18691,1,0
11,135,18822,2,0,B|35:252|162:291,1,210,2|0
224,368,19213,2,0,B|268:332|268:272,1,105
456,188,19474,5,0
376,272,19604,1,2
416,380,19735,1,2
496,296,19865,1,0
456,188,19996,6,0,B|432:128|368:116,1,105,2|0
124,180,20257,2,0,B|148:240|212:252,1,105,2|0
276,20,20517,22,0,B|312:76|272:128,1,105,4|0
172,72,20778,1,0
296,224,20909,2,0,B|352:256|400:220|400:220|432:164|480:160,1,210,2|0
488,276,21300,2,0,B|472:324|404:336,1,105
292,320,21561,5,0
348,148,21691,2,0,B|376:96|432:84,1,105,2|2
252,112,21952,1,0
164,188,22083,6,0,B|64:148,1,105,2|0
368,364,22344,2,0,B|472:332,1,105,2|0
492,204,22604,6,0,B|500:176,2,26.25,2|0|4
332,200,22996,6,0,B|295:82|408:26,1,210,6|0
228,136,23386,2,0,B|160:132|136:64,1,105
228,252,23647,6,0,B|258:312|211:367,1,105,0|2
124,296,23909,1,2
104,184,24038,1,0
4,240,24170,6,0,B|-12:300|32:344,1,105,2|0
192,104,24431,2,0,B|151:55|89:67,1,105,2|0
260,316,24690,22,0,B|292:364|360:364,1,105,4|0
452,308,24951,1,0
344,264,25083,2,0,B|372:208|428:196|428:196|484:184|500:120,1,210,2|0
384,108,25473,1,0
456,16,25603,1,0
283,71,25735,6,0,B|268:128|300:172,1,105,0|2
168,56,25996,1,2
212,248,26125,1,0
124,172,26257,6,0,B|64:180|32:236,1,105,2|0
392,240,26516,2,0,B|452:232|484:176,1,105,2|0
184,340,26778,22,0,B|132:320|120:260,1,105,4|0
248,154,27028,2,0,B|256:208|212:248,1,105,8|0
56,192,27278,2,0,B|99:156|157:176,1,105
336,188,27528,6,0,B|348:136|316:88,1,105,8|0
328,328,27778,2,0,B|367:364|424:360,1,105
212,248,28028,2,0,B|160:263|135:315,1,105,8|0
404,260,28278,6,0,B|455:244|480:192,1,105
248,154,28528,2,0,B|173:70,1,105,8|0
328,328,28778,2,0,B|295:370|238:376,1,105
80,264,29028,22,0,B|88:316|136:349,1,105,8|0
124,152,29278,2,0,B|89:110|31:106,1,105
196,240,29528,1,8
312,224,29653,1,8
360,120,29778,6,0,B|400:76|464:92,1,105,4|0
248,132,30028,2,0,B|189:119|171:55,1,105,8|0
312,224,30278,2,0,B|330:280|284:328,1,105
224,224,30528,6,0,B|184:268|120:252,1,105,8|0
400,212,30778,2,0,B|458:224|476:288,1,105
304,100,31028,2,0,B|285:43|331:-5,1,105,8|0
364,284,31278,22,0,B|383:341|337:389,1,105
256,148,31528,2,0,B|256:40,1,105,8|0
148,284,31778,2,0,B|129:341|175:389,1,105
140,172,32028,6,0,B|88:176|52:228,1,105,8|0
256,240,32278,2,0,B|256:344,1,105
372,172,32528,2,0,B|424:176|460:228,1,105,8|8
436,84,32778,6,0,B|384:80|348:28,1,105,4|0
256,116,33038,1,10
162,30,33169,2,0,B|128:80|76:84,1,105,0|0
24,200,33430,1,2
148,172,33560,22,0,B|116:276,1,105,8|0
240,240,33821,2,0,B|273:343,1,105,2|0
360,248,34082,2,0,B|446:313,1,105,10|0
444,184,34343,6,0,B|432:128|468:84,1,105,2|2
384,28,34604,1,10
268,76,34734,2,0,B|225:114|169:105,1,105,0|2
76,192,34995,1,0
192,236,35125,6,0,B|246:253|266:306,1,105,10|2
152,360,35386,1,2
332,232,35517,2,0,B|320:175|356:132,1,105,0|10
456,212,35778,1,0
256,36,35908,22,0,B|238:89|181:106,1,105,4|0
88,20,36169,1,10
208,248,36299,2,0,B|162:281|106:262,1,105,0|0
80,140,36560,1,2
84,356,36691,6,0,B|30:338|13:281,1,105,8|0
272,136,36951,2,0,B|325:153|342:210,1,105,2|0
80,140,37212,2,0,B|97:86|154:69,1,105,10|0
308,352,37473,6,0,B|364:368|424:316,1,105,6|2
488,232,37734,1,10
332,256,37864,2,0,B|387:236|406:159,1,105,0|2
410,54,38125,1,0
204,352,38256,22,0,B|148:368|88:316,1,105,14|2
24,232,38517,1,2
180,256,38647,2,0,B|124:236|105:159,1,105,0|10
102,54,38908,1,0
256,112,39038,1,4
468,36,41438,6,0,B|364:68,1,105,12|0
456,140,41738,2,0,B|352:172,1,105,0|0
508,228,42038,2,0,B|404:260,1,105,8|0
496,332,42338,2,0,B|392:364,1,105,0|0
280,344,42638,6,0,B|240:300|184:308,1,105,8|0
104,216,42938,2,0,B|148:176|140:120,1,105
232,40,43238,2,0,B|272:84|328:76,1,105,8|0
408,168,43538,2,0,B|364:208|372:264,1,105
144,317,43838,22,0,B|44:348,1,105,8|0
156,213,44138,2,0,B|56:244,1,105,0|0
104,125,44438,2,0,B|4:156,1,105,8|0
116,21,44738,2,0,B|16:52,1,105,0|0
228,44,45038,6,0,B|276:88|276:88|320:88,2,105,8|0|0
256,192,45488,1,0
284,340,45638,2,0,B|236:296|236:296|192:296,2,105,8|0|0
396,368,46088,1,0
360,256,46238,6,0,B|472:208,1,105,8|0
480,100,46538,1,0
152,128,46838,2,0,B|40:176,1,105,8|0
32,284,47138,1,0
312,148,47438,22,0,B|368:124|420:148,1,105,8|0
256,240,47738,2,0,B|296:285|289:342,1,105
168,312,48038,5,8
143,302,48113,1,0
119,289,48188,1,0
100,271,48263,1,0
83,252,48338,1,0
69,229,48413,1,0
60,204,48488,1,0
56,178,48563,1,0
61,150,48638,6,0,B|80:112|80:112|148:88,1,105,4|8
252,144,48910,2,0,B|152:178,1,105,0|8
268,268,49183,1,0
348,60,49319,1,0
372,184,49456,2,0,B|408:228|388:304,1,105,0|8
488,148,49728,22,0,B|452:104|472:28,1,105,0|8
267,268,50001,2,0,B|224:304|168:288,1,105,0|8
196,164,50274,1,0
0,220,50410,2,0,B|43:184|98:200,1,105,8|0
75,324,50683,1,0
336,152,50819,6,0,B|386:175|397:232,1,105,0|8
312,328,51092,2,0,B|261:304|250:247,1,105,0|8
420,336,51365,1,0
420,336,51910,6,0,B|470:312|481:255,1,105,0|8
396,160,52182,2,0,B|345:183|334:240,2,105,0|8|0
312,68,52591,1,0
180,232,52728,2,0,B|235:226|263:176,1,105,8|0
155,106,53000,21,0
28,128,53137,2,0,B|31:183|80:213,1,105,8|8
155,106,53410,1,0
108,312,53546,1,0
292,280,53682,2,0,B|236:283|206:332,1,105,8|0
336,148,53955,1,8
416,244,54091,6,0,B|504:172,1,105,0|8
260,56,54364,2,0,B|178:122,1,105,0|8
116,232,54637,1,0
24,20,54773,1,12
24,20,55182,6,0,B|12:76|44:120,1,105,4|8
148,48,55456,1,0
116,232,55591,2,0,B|152:280|224:264,1,105,8|0
312,192,55865,1,0
196,144,56000,1,0
320,312,56138,1,8
420,128,56274,22,0,B|392:76|328:72,1,105
312,192,56547,1,0
460,352,56682,2,0,B|419:255,1,105,8|0
379,31,56956,2,0,B|420:128,1,105,8|0
320,312,57227,1,8
196,144,57365,5,8
236,24,57500,2,0,B|296:48|316:108,1,105,0|8
158,265,57774,2,0,B|102:241|84:196,1,105
320,312,58047,1,12
96,76,58456,1,4
256,192,58606,12,0,60556
256,192,60856,5,0
476,192,62956,21,0
476,192,63256,6,0,B|500:216,1,26.25,6|0
424,272,63556,2,0,B|429:305,1,26.25,0|0
336,320,63856,2,0,B|321:350,1,26.25,2|0
243,298,64156,2,0,B|213:314,1,26.25,0|0
168,232,64456,6,0,B|134:229,1,26.25,2|0
288,192,64756,2,0,B|321:194,1,26.25,0|0
148,120,65056,2,0,B|150:86,1,26.25,2|0
304,304,65356,2,0,B|301:337,1,26.25,0|0
272,104,65656,21,6
297,54,65806,1,0
346,29,65956,1,0
402,36,66106,1,0
444,68,66256,5,2
456,122,66406,1,0
435,173,66556,1,0
388,203,66706,1,0
332,192,66856,5,2
273,229,67006,1,0
248,296,67156,1,2
189,333,67306,1,0
120,324,67456,21,2
53,264,67606,1,0
55,176,67756,1,2
123,120,67906,1,0
256,192,68056,12,2,68874
376,212,69146,6,0,B|361:157|397:106,1,105,4|8
498,253,69419,2,0,B|512:307|476:358,1,105,0|8
490,144,69692,1,0
387,333,69828,1,0
252,324,69965,6,0,B|200:300|186:246,1,105,0|8
252,48,70237,2,0,B|292:87|287:143,1,105,0|8
88,324,70510,2,0,B|47:284|52:228,1,105,0|8
140,120,70783,1,0
140,120,71056,21,0
272,144,71192,1,0
372,52,71328,2,0,B|256:32,1,105,0|8
352,252,71601,2,0,B|468:272,1,105,0|8
4,36,72009,5,4
4,36,72419,6,0,B|60:32|100:88,1,105,4|8
0,184,72691,1,0
236,104,72828,1,8
228,240,72964,2,0,B|172:244|132:188,1,105,0|8
137,195,73373,22,0,B|136:256|72:288,1,105
236,104,73645,1,8
344,304,73782,1,8
444,212,73918,2,0,B|400:164|332:172,1,105
476,336,74191,1,8
344,304,74327,1,0
344,304,74600,6,0,B|236:348,1,105,0|8
296,216,74874,1,0
172,268,75009,1,8
248,128,75145,1,0
248,128,75556,6,0,B|304:108|352:136,1,105,4|4
68,32,75828,1,8
116,160,75965,1,0
96,292,76101,2,0,B|37:285|7:241,1,105,8|0
7,241,76510,21,0
116,160,76646,1,8
192,276,76783,1,0
296,188,76919,1,0
372,304,77056,1,0
372,304,77328,5,0
500,256,77465,1,8
500,256,77874,5,8
388,160,78010,1,0
492,56,78146,1,0
492,56,78419,21,0
305,40,78556,1,12
305,40,78965,6,0,B|208:92,1,105,12|0
76,80,79237,1,0
109,258,79374,2,0,B|168:234|168:180,1,105,8|0
32,176,79646,1,0
4,308,79783,5,0
180,328,79919,1,12
496,228,80327,21,0
300,248,80465,1,12
16,100,80874,5,0
224,120,81010,1,12
472,16,81419,5,12
272,376,81692,22,0,B|319:369|319:369|347:345|347:345|401:334,2,140,2|0|2
128,324,82237,5,4
128,324,82299,1,0
128,324,82362,1,2
128,324,82424,1,0
128,324,82487,2,0,B|28:280,1,105,0|2
20,168,82737,2,0,B|49:61|168:37,1,210,0|0
280,76,83112,1,2
264,192,83237,6,0,B|208:180|180:136,1,105,0|2
380,144,83487,2,0,B|436:156|464:200,1,105,0|2
360,252,83737,21,0
220,364,83862,1,2
160,196,83987,1,0
20,308,84112,1,2
4,116,84237,6,0,B|48:80|104:96,1,105,0|2
224,256,84487,2,0,B|180:292|124:276,1,105,0|2
272,136,84737,2,0,B|384:176|376:312,1,210
284,368,85112,1,2
168,356,85237,5,0
12,232,85362,1,2
200,160,85487,1,0
44,36,85612,1,2
44,36,86237,22,0,B|56:96|56:96|96:120,1,105,4|2
288,164,86477,2,0,B|276:104|276:104|236:80,1,105,0|2
208,248,86717,1,0
260,352,86837,1,0
376,368,86957,1,0
456,284,87077,1,2
404,180,87197,5,0
340,24,87317,1,2
304,188,87437,1,0
432,80,87557,1,2
264,100,87677,6,0,B|164:68,1,105,0|2
100,224,87917,2,0,B|0:191,1,105,0|2
216,348,88157,22,0,B|264:384|324:368,1,105,0|2
484,224,88397,2,0,B|436:188|376:204,1,105,0|2
412,312,88637,1,0
300,280,88757,1,0
268,168,88877,1,0
352,88,88997,1,2
464,120,89117,5,0
412,312,89237,1,2
220,256,89357,1,0
272,64,89477,1,2
272,64,90077,6,0,B|272:124|224:152,1,105,4|0
120,108,90307,1,0
120,276,90423,2,0,B|236:300|311:219,1,210,2|0
368,120,90769,2,0,B|404:72|464:76,1,105,0|0
460,192,91000,21,0
439,362,91115,2,0,B|493:332|499:281,1,105,2|2
368,236,91346,1,0
244,284,91461,6,0,B|211:336|232:384,1,105,2|0
368,120,91692,2,0,B|400:67|379:19,1,105,2|0
68,104,91923,6,0,B|120:128|136:184,1,105,4|0
84,284,92153,1,0
236,128,92269,2,0,B|268:180|245:239|245:239|256:288|304:308,1,210,2|0
216,356,92615,2,0,B|172:388|112:380,1,105
356,200,92846,21,0
510,350,92961,2,0,B|508:300|452:268,1,105,2|2
400,380,93192,1,0
304,308,93307,6,0,B|205:270,1,105,2|0
400,64,93538,2,0,B|504:104,1,105,2|0
380,280,93769,22,0,B|396:320,2,26.25,2|0|4
332,176,94111,38,0,B|275:284|155:245,1,210,6|0
304,80,94444,2,0,B|324:24|392:12,1,105
212,132,94666,21,0
176,336,94777,2,0,B|117:346|73:293,1,105,2|2
72,188,94999,1,0
104,76,95110,6,0,B|46:60|-5:99,1,105,2|0
261,257,95332,2,0,B|318:272|370:233,1,105,2|0
8,280,95554,6,0,B|-7:337|31:389,1,105,4|0
124,288,95777,1,0
261,257,95888,2,0,B|178:175|72:188,1,210,2|0
296,368,96221,2,0,B|353:352|378:293,1,105,0|0
396,104,96444,21,4
284,132,96554,2,0,B|294:187|348:209,1,105,2|2
396,104,96776,1,0
276,44,96888,6,0,B|223:25|177:60,1,105,6|0
396,104,97111,2,0,B|438:67|430:10,1,105,6|0
296,368,97554,5,6
172,295,98222,1,4
47,223,99111,1,4
