osu file format v9

[General]
AudioFilename: Pluto.mp3
AudioLeadIn: 2000
PreviewTime: 18441
Countdown: 0
SampleSet: Normal
StackLeniency: 0.7
Mode: 0
LetterboxInBreaks: 1

[Editor]
Bookmarks: 104,9704,18431,26778,32778,39038,48638,58454,69146,82237,90077,97554,99108
DistanceSpacing: 1.1
BeatDivisor: 8
GridSize: 4

[Metadata]
Title:Pluto
Artist:Black Hole
Creator:7odoa
Version:Difficult
Source:Dance Dance Revolution SuperNOVA 2
Tags:Supernova Beat Ex DDRSN2 Bemani Konami CS Beatmania IIDX 15 DJ Troopers NAOKI MAEDA

[Difficulty]
HPDrainRate:5
CircleSize:4
OverallDifficulty:5
ApproachRate:8
SliderMultiplier:1.6
SliderTickRate:4

[Events]
//Background and Video events
0,0,"PlutoBG.jpg"
//Break Periods
2,39238,40688
2,61056,62206
//Storyboard Layer 0 (Background)
//Storyboard Layer 1 (Fail)
//Storyboard Layer 2 (Pass)
//Storyboard Layer 3 (Foreground)
//Storyboard Sound Samples
//Background Colour Transformations
3,100,163,162,255

[TimingPoints]
104,600,4,2,1,95,1,0
104,-200,4,2,1,95,0,0
179,-200,4,2,1,5,0,0
329,-200,4,2,1,95,0,0
479,-200,4,2,1,5,0,0
629,-200,4,2,1,95,0,0
779,-200,4,2,1,5,0,0
929,-200,4,2,1,95,0,0
1079,-200,4,2,1,5,0,0
1229,-200,4,2,1,95,0,0
2579,-200,4,2,1,5,0,0
2729,-200,4,2,1,95,0,0
2879,-200,4,2,1,5,0,0
3029,-200,4,2,1,95,0,0
3179,-200,4,2,1,5,0,0
3329,-200,4,2,1,95,0,0
3479,-200,4,2,1,5,0,0
3629,-200,4,2,1,95,0,0
4979,-200,4,2,1,5,0,0
5129,-200,4,2,1,95,0,0
5279,-200,4,2,1,5,0,0
5429,-200,4,2,1,95,0,0
5579,-200,4,2,1,5,0,0
5729,-200,4,2,1,95,0,0
5879,-200,4,2,1,5,0,0
6029,-200,4,2,1,95,0,0
7379,-200,4,2,1,5,0,0
7529,-200,4,2,1,95,0,0
7679,-200,4,2,1,5,0,0
7829,-200,4,2,1,95,0,0
7979,-200,4,2,1,5,0,0
8129,-200,4,2,1,95,0,0
8279,-200,4,2,1,5,0,0
8429,-200,4,2,1,95,0,0
9704,545.454545454546,4,1,2,60,1,0
9704,-50,4,1,2,60,0,0
18431,521.739130434783,4,1,1,70,1,1
18431,-50,4,1,1,70,0,1
22604,-200,4,2,1,95,0,0
22865,-50,4,1,1,70,0,0
22996,-50,4,1,1,70,0,1
26778,500,6,1,1,70,1,0
26778,-50,6,1,1,70,0,0
32778,521.739130434783,6,1,1,70,1,1
32778,-50,6,1,1,70,0,1
39038,600,4,1,1,70,1,0
41438,-50,4,1,2,60,0,0
48638,545.454545454546,4,1,1,70,1,0
48638,-50,4,1,1,70,0,0
58456,600,4,1,1,70,1,0
58456,-200,4,1,1,70,0,0
59056,-200,4,1,1,63,0,0
59656,-200,4,1,1,56,0,0
60256,-200,4,1,1,49,0,0
63106,-200,4,2,2,95,0,0
63331,-200,4,2,2,5,0,0
63481,-200,4,2,2,95,0,0
63631,-200,4,2,2,5,0,0
63781,-200,4,2,2,95,0,0
64531,-200,4,2,2,5,0,0
64681,-200,4,2,2,95,0,0
64831,-200,4,2,2,5,0,0
64981,-200,4,2,2,95,0,0
68056,545.454545454546,4,1,1,80,1,0
68056,-50,4,1,1,80,0,0
80327,-50,4,1,1,85,0,0
80806,-50,4,1,1,90,0,0
81351,-50,4,1,1,95,0,0
81624,-50,4,2,1,90,0,0
82237,500,4,1,2,65,1,0
82237,-50,4,1,2,65,0,0
86237,480,4,1,2,65,1,0
86237,-50,4,1,2,65,0,0
90077,461.538461538462,4,1,1,75,1,1
90077,-50,4,1,1,75,0,1
93769,-200,4,2,1,95,0,0
94000,444.444444444444,4,1,1,80,1,0
94000,-50,4,1,1,80,0,0
94111,-50,4,1,1,80,0,1
95499,-50,4,1,1,85,0,1
97222,-50,4,1,1,85,0,0
97331,-50,4,1,1,70,0,0

[Colours]
Combo1 : 255,255,255
Combo2 : 0,0,234
Combo3 : 234,0,0
Combo4 : 175,0,234

[HitObjects]
336,148,104,2,0,B|384:148|384:148|420:100|420:100|480:100,1,160,2|8
472,188,1904,1,2
472,276,2504,2,0,B|420:276|420:276|384:228|384:228|336:228,1,160,2|8
336,316,4304,1,2
256,280,4904,6,0,B|256:188|256:188|200:144,1,160,2|8
168,228,6704,1,2
168,316,7304,2,0,B|4:316,1,160,2|8
8,228,8954,1,2
8,228,9104,1,2
220,76,9704,6,0,B|256:168|364:144,1,160,4|0
428,108,10113,1,2
464,188,10249,2,0,B|496:272|416:332,1,160
340,304,10658,1,2
288,376,10794,22,0,B|248:352|252:296,1,80,0|2
164,320,11067,2,0,B|152:274|195:237,1,80,0|2
264,204,11340,2,0,B|236:161|173:148|123:184,1,160,0|4
332,148,11885,6,0,B|388:146|427:99|419:38,1,160
332,60,12294,1,2
332,60,12431,2,0,B|276:60|276:60|236:76|236:76|176:76,1,160
96,36,12840,1,2
96,124,12976,6,0,B|136:152|140:200,1,80,0|2
56,280,13249,2,0,B|16:252|12:204,1,80,0|2
460,216,13930,21,4
460,216,14067,2,0,B|472:308|388:348,1,160,0|0
372,172,14612,2,0,B|286:136|293:43,1,160,0|0
376,20,15021,1,2
424,96,15158,5,0
292,212,15431,1,0
228,152,15567,1,2
52,164,15840,1,0
28,248,15976,1,4
56,332,16113,1,2
136,368,16248,6,0,B|224:356|248:264,1,160
328,308,16657,1,2
320,220,16794,2,0,B|384:220|412:280|412:280|456:292,1,160
468,204,17203,1,2
396,152,17339,22,0,B|444:80,1,80,0|2
320,96,17612,2,0,B|272:168,1,80,0|2
108,256,18431,6,0,B|200:272|216:380,1,160,4|0
299,362,18822,2,0,B|312:272|404:256,1,160,2|0
492,248,19213,2,0,B|492:292|456:320,1,80
444,180,19474,2,0,B|484:112,1,80,0|2
444,44,19735,1,2
292,132,19996,5,2
76,32,20257,1,2
132,264,20517,22,0,B|164:320|84:372|44:312,1,160,4|0
56,224,20909,2,0,B|24:168|104:116|144:176,1,160,2|0
220,224,21300,2,0,B|236:312,1,80
304,356,21561,1,0
380,316,21691,2,0,B|361:279|317:266,1,80,2|2
256,124,22083,5,2
128,328,22344,1,2
8,120,22604,5,2
8,120,22734,1,0
8,120,22865,1,4
56,192,22995,22,0,B|106:265|194:253,1,160,6|0
272,212,23386,2,0,B|356:260,1,80
424,220,23647,1,0
493,272,23777,2,0,B|466:303|424:308,1,80,2|2
488,144,24170,5,2
336,332,24431,1,2
256,104,24690,6,0,B|288:72|288:72|360:72|360:72|392:36,1,160,4|0
432,116,25083,2,0,B|400:148|400:148|328:148|328:148|296:184,1,160,2|0
210,179,25473,2,0,B|122:179,1,80
68,120,25735,1,0
44,204,25864,2,0,B|48:256|8:288,1,80,2|2
176,360,26257,21,2
424,292,26516,1,2
256,84,26778,6,0,B|324:16|416:40,1,160,4|8
288,172,27278,2,0,B|312:264|246:332,1,160,0|8
200,156,27778,2,0,B|107:131|81:39,1,160,0|8
44,224,28278,6,0,B|116:276|204:236,1,160,0|8
340,344,28778,2,0,B|349:255|270:199,1,160,0|8
288,32,29278,2,0,B|208:68|200:156,1,160,0|8
120,120,29653,1,8
120,32,29778,21,4
44,192,30028,1,8
120,352,30278,1,0
256,240,30528,1,8
392,352,30778,1,0
468,192,31028,1,8
392,32,31278,5,0
380,208,31528,1,8
256,332,31778,1,0
132,208,32028,1,8
120,32,32278,1,0
256,144,32528,1,8
256,144,32653,1,0
256,144,32778,6,4,B|316:76|412:104,1,160,4|10
464,164,33169,1,0
456,252,33299,2,0,B|397:240|377:189|377:189|352:184|320:204,1,160,0|10
276,276,33691,1,0
288,364,33821,1,0
116,320,34082,1,10
40,84,34343,22,0,B|52:176|128:212,1,160,2|8
212,232,34734,2,0,B|292:242|352:172,1,160,0|0
376,88,35125,2,0,B|288:58|222:110,1,160,10|0
167,177,35516,2,0,B|121:244|158:329,1,160,8|8
236,372,35908,6,0,B|264:344|264:344|344:344|344:344|376:316,1,160,4|10
460,344,36299,1,0
440,256,36430,2,0,B|412:228|412:228|332:228|332:228|300:200,1,160,0|10
376,152,36821,1,0
408,68,36951,1,0
236,24,37212,1,10
240,360,37473,6,0,B|154:395|95:329,1,160,6|8
76,244,37864,2,0,B|122:164|210:181,1,160,0|0
301,202,38256,2,0,B|389:219|436:140,1,160,14|0
417,55,38647,2,0,B|357:-11|272:24,1,160,8|8
204,76,39038,1,4
258,214,41438,21,12
164,369,41738,1,0
147,187,42038,1,8
268,325,42338,1,0
90,285,42638,5,8
76,103,42938,1,0
196,240,43238,1,8
17,199,43538,1,0
17,199,43688,1,0
17,199,43838,6,0,B|104:216|164:152,1,160,8|0
341,194,44438,2,0,B|254:177|196:240,1,160,8|0
168,332,44888,1,0
264,332,45038,22,0,B|320:332|320:332|356:304|356:304|420:304,1,160,8|0
500,348,45488,1,0
500,252,45638,2,0,B|480:216|436:204,1,80,8|0
342,194,45938,1,0
168,332,46238,6,0,B|120:332|120:332|92:304,2,80,8|0|0
344,332,46838,2,0,B|392:332|392:332|420:304,2,80,8|0|0
200,232,47438,6,0,B|164:200|164:200|164:168,1,80,8|0
256,160,47738,2,0,B|256:72,1,80
312,232,48038,2,0,B|348:200,3,40,8|0|0|0
388,208,48338,2,0,B|424:176,3,40
452,148,48638,21,4
448,324,48910,1,0
368,288,49047,1,8
304,348,49183,2,0,B|152:304,1,160
76,356,49592,1,8
68,268,49728,6,0,B|32:192,1,80,0|8
80,120,50001,1,0
128,196,50138,2,0,B|164:176|168:128,1,80,8|0
152,44,50410,1,8
236,76,50547,2,0,B|320:48,1,80,0|0
396,68,50819,6,0,B|388:112|344:128,1,80,0|8
388,204,51092,2,0,B|351:229|308:209,1,80,0|8
320,300,51365,1,0
76,320,51910,22,0,B|100:364|144:368,2,80,0|8|0
156,284,52319,2,0,B|128:240|80:236|80:236|60:168,1,160,8|0
148,160,52728,2,0,B|128:96|128:96|164:60|216:68,1,160,8|0
260,140,53137,6,0,B|308:144|336:112,1,80,8|8
332,28,53410,1,0
408,72,53546,2,8,B|492:88,2,80,0|8|0
408,160,53955,2,0,B|408:256|496:304,1,160,8|8
420,360,54364,1,0
332,344,54500,1,8
336,256,54637,2,0,B|272:184,1,80,0|12
60,56,55182,5,4
32,140,55318,2,0,B|96:140|96:140|136:100|136:100|176:100,1,160,8|0
168,188,55727,2,0,B|111:244,1,80,0|0
24,228,56000,1,0
52,312,56138,1,8
136,328,56274,22,0,B|224:304|288:368,1,160
360,316,56682,1,8
440,348,56818,1,0
504,284,56956,2,0,B|452:212,1,80,8|0
368,232,57227,1,8
312,164,57365,1,8
344,80,57500,6,0,B|384:64|440:76,1,80,0|8
312,164,57774,2,0,B|272:180|216:168,1,80,0|8
160,92,58047,1,12
8,252,58456,1,4
256,192,58606,12,0,60556
256,192,60856,5,0
456,144,62956,21,0
456,144,63256,6,0,B|412:56,1,80,6|2
340,112,64456,2,0,B|296:24,1,80,2|2
236,96,65656,5,6
236,184,66256,1,2
160,232,66856,1,2
116,232,67156,1,2
76,212,67456,1,2
60,172,67756,1,2
256,192,68056,12,2,68874
384,288,69146,22,0,B|392:336|440:360,1,80,4|8
448,232,69419,2,0,B|440:184|392:160,1,80,0|8
320,148,69692,2,0,B|231:145|192:229,1,160
188,316,70101,1,8
108,368,70237,6,0,B|42:322,1,80,0|8
100,244,70510,2,0,B|72:168,1,80,0|8
168,148,70783,1,0
312,20,71056,6,0,B|268:48|268:100,2,80
368,104,71465,1,8
329,184,71601,2,0,B|404:214,1,80,0|8
504,336,72009,1,4
152,356,72419,22,0,B|192:348|212:304,1,80,4|8
120,272,72691,1,0
28,248,72828,1,8
96,180,72964,2,0,B|168:128,1,80,0|8
348,88,73373,6,0,B|276:140,1,80
224,212,73645,1,8
320,232,73782,1,8
271,316,73918,2,0,B|308:337|354:323,1,80
490,263,74191,2,0,B|452:241|412:253,1,80,8|0
468,32,74600,6,0,B|508:112,1,80,0|8
384,52,74874,2,0,B|404:136,1,80,0|8
296,52,75145,1,0
120,280,75556,21,4
180,352,75692,1,0
276,368,75828,1,8
364,332,75965,1,0
404,244,76101,2,0,B|412:164,1,80,8|0
276,28,76510,6,0,B|296:108,1,80,0|8
308,200,76783,1,0
220,236,76919,1,0
144,176,77056,1,0
40,336,77328,5,0
132,304,77465,1,8
412,360,77874,21,8
380,268,78010,1,0
468,232,78146,1,0
408,48,78419,5,0
440,140,78556,1,12
156,84,78965,6,0,B|168:40|216:20,2,80,12|0|0
168,180,79374,2,0,B|156:224|108:244,1,80,8|0
24,252,79646,1,0
84,328,79783,21,0
180,344,79919,1,12
456,252,80327,5,0
349,268,80465,1,12
64,136,80874,5,0
178,156,81010,1,12
464,48,81419,21,12
408,336,81692,6,0,B|438:336|438:336|468:308|468:308|502:308,2,106.666666666667,2|0|2
288,304,82237,6,0,B|224:360|132:332,1,160,4|0
76,272,82612,1,2
104,188,82737,2,0,B|168:132|260:160,1,160,0|0
320,216,83112,1,2
376,284,83237,22,0,B|414:305|460:289,1,80,0|2
420,208,83487,2,0,B|462:196|483:152,1,80,0|2
400,116,83737,2,0,B|364:40|256:36,1,160
236,208,84237,6,0,B|180:276|80:240,1,160
20,188,84612,1,2
52,104,84737,2,0,B|92:128|104:164|104:164|144:176|184:148,1,160
244,92,85112,1,2
304,156,85237,6,0,B|384:120,1,80,0|2
484,180,85487,2,0,B|404:216,1,80,0|2
116,352,86237,22,0,B|164:340|188:304|188:304|164:272|172:228,1,160,4|0
256,252,86597,1,2
224,168,86717,2,0,B|176:96|84:112,1,160
4,152,87077,1,2
76,204,87197,6,0,B|24:272,1,80,0|2
112,288,87437,2,0,B|123:372,1,80,0|2
200,324,87677,1,0
272,372,87797,1,2
356,348,87917,1,0
472,216,88157,6,0,B|395:258|311:196,1,160
252,148,88517,1,2
188,88,88637,2,0,B|114:32|37:75,1,160
12,160,88997,1,2
64,229,89117,22,0,B|96:208|100:160,1,80,0|2
132,280,89357,2,0,B|101:317|52:317,1,80,0|2
496,80,90077,6,0,B|428:24|340:52,1,160,4|0
276,104,90423,2,0,B|223:172|252:255,1,160,2|0
284,336,90769,2,0,B|208:368,1,80
128,332,91000,1,0
164,252,91115,2,0,B|160:208|124:172,1,80,2|2
44,168,91346,1,0
4,248,91461,5,2
152,60,91692,1,2
280,264,91923,22,0,B|300:223|351:217|351:217|410:267,1,160,4|0
464,196,92269,2,0,B|410:147|410:147|409:97|446:70,1,160,2|0
368,28,92615,2,0,B|336:56|332:100,1,80
340,184,92846,1,0
264,140,92961,2,0,B|244:100|260:56,1,80,2|2
176,96,93192,1,0
192,184,93307,5,2
420,264,93538,1,2
188,328,93769,5,2
188,328,93884,1,0
188,328,93999,1,4
112,284,94111,22,0,B|44:228|48:136,1,160,6|0
68,60,94444,2,0,B|156:84,1,80
196,152,94666,1,0
232,72,94777,2,0,B|304:32,1,80,2|2
384,68,94999,1,0
460,24,95110,5,2
504,260,95332,1,2
288,364,95554,6,0,B|240:288|140:304,1,160,4|0
80,356,95888,2,0,B|132:281|85:205,1,160,2|0
16,156,96221,2,0,B|52:84,1,80
128,40,96443,1,0
124,128,96555,2,0,B|200:102,1,80,2|2
285,125,96777,1,0
288,212,96887,22,0,B|244:212|212:176,1,80,6|0
360,80,97111,2,0,B|382:118|366:163,1,80,6|0
472,288,97554,5,6
434,310,98222,1,4
384,336,99111,1,4
