osu file format v9

[General]
AudioFilename: Pluto.mp3
AudioLeadIn: 2000
PreviewTime: 18441
Countdown: 0
SampleSet: Normal
StackLeniency: 0.7
Mode: 0
LetterboxInBreaks: 1

[Editor]
Bookmarks: 104,9704,18431,26778,32778,39038,48638,58454,69146,82237,90077,97554,99108
DistanceSpacing: 1.1
BeatDivisor: 8
GridSize: 4

[Metadata]
Title:Pluto
Artist:Black Hole
Creator:7odoa
Version:Challenge
Source:Dance Dance Revolution SuperNOVA 2
Tags:Supernova Beat Ex DDRSN2 Bemani Konami CS Beatmania IIDX 15 DJ Troopers NAOKI MAEDA

[Difficulty]
HPDrainRate:7
CircleSize:4
OverallDifficulty:8
ApproachRate:9
SliderMultiplier:2.7
SliderTickRate:4

[Events]
//Background and Video events
0,0,"PlutoBG.jpg"
//Break Periods
2,39238,40838
2,61056,62356
//Storyboard Layer 0 (Background)
//Storyboard Layer 1 (Fail)
//Storyboard Layer 2 (Pass)
//Storyboard Layer 3 (Foreground)
//Storyboard Sound Samples
//Background Colour Transformations
3,100,163,162,255

[TimingPoints]
104,600,4,2,1,95,1,0
104,-200,4,2,1,95,0,0
9704,545.454545454546,4,1,2,60,1,0
9704,-50,4,1,2,60,0,0
13385,-200,4,1,2,60,0,0
13454,-200,4,1,2,5,0,0
13794,-200,4,1,2,60,0,0
14031,-50,4,1,2,60,0,0
17749,-200,4,1,2,60,0,0
17817,-200,4,1,2,5,0,0
18431,521.739130434783,4,1,1,70,1,1
18431,-50,4,1,1,70,0,1
22539,-200,4,2,1,95,0,1
22604,-200,4,2,1,95,0,0
22800,-200,4,1,1,70,0,0
22965,-50,4,1,1,70,0,0
22996,-50,4,1,1,70,0,1
26778,500,6,1,1,70,1,0
26778,-50,6,1,1,70,0,0
32778,521.739130434783,6,1,1,70,1,1
32778,-50,6,1,1,70,0,1
39038,600,4,1,1,70,1,0
41438,-50,4,1,2,60,0,0
48638,545.454545454546,4,1,1,70,1,0
48638,-50,4,1,1,70,0,0
51365,-200,4,1,1,70,0,0
51433,-200,4,1,1,5,0,0
51910,-50,4,1,1,70,0,0
54773,-200,4,1,1,70,0,0
54842,-200,4,1,1,5,0,0
55182,-50,4,1,1,70,0,0
58251,-50,4,1,1,5,0,0
58456,600,4,1,1,70,1,0
58456,-200,4,1,1,70,0,0
59056,-200,4,1,1,63,0,0
59656,-200,4,1,1,56,0,0
60256,-200,4,1,1,49,0,0
63106,-200,4,2,2,95,0,0
68056,545.454545454546,4,1,1,80,1,0
68156,-50,4,1,1,80,0,0
70783,-200,4,1,1,80,0,0
71056,-50,4,1,1,80,0,0
71737,-200,4,1,1,80,0,0
72419,-50,4,1,1,80,0,0
73100,-200,4,1,1,80,0,0
73373,-50,4,1,1,80,0,0
74327,-200,4,1,1,80,0,0
74600,-50,4,1,1,80,0,0
75145,-200,4,1,1,80,0,0
75351,-200,4,1,1,5,0,0
75554,-50,4,1,1,80,0,0
76235,-200,4,1,1,80,0,0
76508,-50,4,1,1,80,0,0
77053,-200,4,1,1,80,0,0
77326,-50,4,1,1,80,0,0
77462,-200,4,1,1,80,0,0
77533,-200,4,1,1,5,0,0
77871,-50,4,1,1,80,0,0
78143,-200,4,1,1,80,0,0
78416,-50,4,1,1,80,0,0
78552,-200,4,1,1,80,0,0
78961,-50,4,1,1,80,0,0
79919,-200,4,1,1,80,0,0
79987,-200,4,1,1,5,0,0
80327,-50,4,1,1,85,0,0
80465,-200,4,1,1,85,0,0
80533,-200,4,1,1,5,0,0
80872,-50,4,1,1,90,0,0
81010,-200,4,1,1,95,0,0
81078,-200,4,1,1,5,0,0
81351,-200,4,1,1,95,0,0
81624,-50,4,2,1,90,0,0
81690,-50,4,2,1,90,0,0
82237,500,4,1,2,65,1,0
82237,-50,4,1,2,65,0,0
85612,-200,4,1,2,65,0,0
85674,-200,4,1,2,5,0,0
86049,-200,4,1,2,65,0,0
86237,480,4,1,2,65,1,0
86237,-50,4,1,2,65,0,0
89477,-200,4,1,2,65,0,0
89537,-200,4,1,2,5,0,0
90077,461.538461538462,4,1,1,75,1,1
90077,-50,4,1,1,75,0,1
93769,-200,4,2,1,95,0,0
94000,444.444444444444,4,1,1,80,1,0
94000,-50,4,1,1,80,0,0
94111,-50,4,1,1,80,0,1
95499,-50,4,1,1,85,0,1
96443,-50,4,1,1,85,0,1
96831,-50,4,1,1,85,0,1
97222,-100,4,1,1,85,0,0
97331,-100,4,1,1,70,0,0

[Colours]
Combo1 : 255,255,255
Combo2 : 0,0,234
Combo3 : 234,0,0
Combo4 : 175,0,234

[HitObjects]
256,68,104,5,2
144,144,404,2,0,B|112:168,1,33.75
256,208,854,2,0,B|256:256,1,33.75
368,144,1304,1,8
368,144,1454,2,0,B|400:168,1,33.75
480,308,1904,5,2
280,284,2204,1,0
92,368,2504,1,2
20,252,2804,6,0,B|52:268,1,33.75
168,204,3254,2,0,B|140:224,1,33.75
40,132,3704,1,8
40,132,3854,2,0,B|72:148,1,33.75
184,72,4304,21,2
324,216,4604,1,0
500,108,4904,1,2
468,240,5204,6,0,B|428:208,1,33.75
360,328,5654,2,0,B|341:280,1,33.75
228,356,6104,1,8
228,356,6254,2,0,B|235:305,1,33.75
96,320,6704,5,2
256,192,7004,1,0
96,64,7304,1,2
24,180,7604,22,0,B|64:160,1,33.75
152,260,8054,2,0,B|166:217,1,33.75,0|0
292,264,8504,1,8
292,264,8654,2,0,B|272:224,1,33.75
360,232,8954,2,0,B|375:262,1,33.75,2|2
428,204,9254,2,0,B|468:184,1,33.75
212,104,9704,6,0,B|136:112|84:48,1,135,4|2
228,280,9976,2,0,B|304:272|356:336,1,135,0|2
104,336,10249,2,0,B|92:248|200:156|284:196,1,270
416,268,10658,1,2
368,128,10794,6,0,B|496:64,1,135,0|2
488,216,11067,1,0
264,100,11204,1,2
284,324,11340,2,0,B|156:388,1,135,0|2
0,244,11613,2,0,B|128:180,1,135,4|2
196,56,11885,21,0
268,188,12022,2,0,B|337:155|337:80,1,135,2|0
64,108,12294,1,2
144,272,12431,2,0,B|243:381|391:329,1,270
448,192,12840,1,2
332,44,12976,5,0
343,231,13113,1,2
444,71,13249,1,0
269,141,13385,22,0,B|140:92,1,135,2|4
16,152,14067,37,0
144,228,14203,2,0,B|112:292|24:300,1,135,2|0
168,368,14476,1,2
276,264,14612,2,0,B|356:208|432:236|432:236|488:224|504:164,1,270
368,108,15021,22,0,B|300:108|300:108|252:60,1,135,2|0
140,156,15294,1,2
16,76,15431,2,0,B|65:29|65:29|132:29,1,135,0|2
0,232,15703,5,0
89,348,15840,1,2
238,350,15976,1,4
342,243,16112,1,2
312,96,16249,6,0,B|264:36|184:44,1,135,0|2
200,288,16521,2,0,B|248:348|328:340,1,135,0|2
124,204,16794,22,0,B|64:252|72:332,1,135
388,180,17066,2,0,B|448:132|440:52,1,135,0|2
200,288,17340,5,0
352,248,17476,1,2
312,96,17612,1,0
160,136,17749,22,0,B|101:147|101:147|60:117|60:117|61:58,1,168.75,2|4
24,204,18561,37,0
172,212,18691,1,0
160,360,18822,2,0,B|320:380|404:272,1,270,2|0
304,164,19213,1,0
384,36,19344,1,0
192,60,19474,21,0
172,212,19604,2,0,B|91:211|55:135,1,135,2|2
304,164,19865,1,0
448,200,19996,6,0,B|504:140|476:60,1,135,2|0
252,260,20257,2,0,B|196:320|224:400,1,135,2|0
376,276,20517,5,4
384,128,20648,1,0
256,56,20778,1,0
124,124,20909,2,0,B|64:136|16:112|16:112|0:196|68:256,1,270,2|0
192,336,21300,1,0
44,348,21430,1,0
160,256,21561,21,0
280,168,21691,2,0,B|324:240|284:322,1,135,2|2
184,168,21952,1,0
40,132,22083,6,0,B|52:56|124:36,1,135,2|0
480,264,22344,2,0,B|468:340|396:360,1,135,2|0
432,92,22604,22,0,B|448:48,1,33.75,2|0
300,24,22864,1,4
384,208,22996,38,0,B|236:264|144:120,1,270,6|0
8,172,23387,2,0,B|40:36,1,135
188,352,23648,21,0
100,232,23778,2,0,B|68:368,1,135,2|2
180,264,24039,1,0
312,316,24170,6,0,B|440:368,1,135,2|0
133,121,24431,2,0,B|8:172,1,135,2|0
388,248,24692,6,0,B|464:252|510:201,1,135,4|0
288,140,24953,1,0
256,368,25083,2,0,B|100:356|64:200,1,270,2|0
288,140,25474,2,0,B|300:216|232:264,1,135
140,152,25734,21,0
368,172,25865,2,0,B|380:248|312:296,1,135,2|2
140,152,26126,1,0
360,48,26256,6,0,B|432:32|492:64,1,135,2|0
152,336,26517,2,0,B|80:352|20:320,1,135,2|0
304,348,26778,5,4
389,364,26903,1,0
466,321,27028,1,8
498,238,27153,1,0
469,156,27278,1,0
393,111,27403,1,0
307,125,27528,21,8
249,191,27653,1,0
249,275,27778,1,0
191,342,27903,1,0
104,356,28028,2,0,B|24:352|0:280,1,135,8|0
208,36,28278,5,0
123,20,28403,1,0
46,63,28528,1,8
14,146,28653,1,0
43,228,28778,1,0
119,273,28903,1,0
205,259,29028,5,8
263,193,29153,1,0
263,109,29278,1,0
321,42,29403,1,0
408,28,29528,2,0,B|488:32|512:104,1,135,8|8
496,348,29778,21,4
418,305,29903,1,0
342,346,30028,1,8
266,304,30153,1,0
189,345,30278,1,0
111,302,30403,1,0
32,336,30528,5,8
16,251,30653,1,0
59,174,30778,1,0
142,142,30903,1,0
224,171,31028,2,0,B|296:172|332:96,1,135,8|0
508,40,31278,5,0
428,76,31403,1,0
416,164,31528,1,8
488,212,31653,1,0
476,304,31778,2,0,B|428:368|344:348,1,135
136,348,32028,21,8
56,312,32153,1,0
44,224,32278,1,0
116,176,32403,1,0
196,216,32528,2,0,B|260:264|240:348,1,135,8|8
296,172,32778,6,0,B|232:124|252:40,1,135,4|0
412,68,33038,1,10
404,232,33169,2,0,B|484:352,1,135,0|0
316,344,33430,1,2
156,356,33560,6,0,B|80:328|79:240,1,135,8|0
220,108,33821,2,0,B|296:136|296:223,1,135,2|0
96,168,34082,2,0,B|56:36,1,135,10|0
336,44,34343,22,0,B|400:9|464:44,1,135,2|2
400,191,34604,1,10
336,340,34734,2,0,B|401:375|466:340,1,135,0|2
256,192,34995,1,0
176,44,35125,6,0,B|111:9|47:44,1,135,10|2
112,191,35386,1,2
176,340,35517,2,0,B|111:375|46:340,1,135,0|10
256,192,35777,1,0
396,104,35908,6,0,B|480:116|484:204,1,135,4|0
440,348,36169,1,10
296,272,36299,1,0
312,108,36430,2,0,B|323:24|412:20,1,135,0|2
200,276,36691,22,0,B|188:360|100:364,1,135,8|0
358,197,36951,2,0,B|435:166|476:231,1,135,2|0
153,186,37212,2,0,B|76:217|35:152,1,135,10|0
404,264,37473,5,6
256,380,37604,1,2
108,264,37734,1,10
375,192,37864,5,0
256,284,37995,1,2
138,192,38125,1,0
404,120,38256,21,14
256,4,38387,1,2
108,120,38517,1,2
375,192,38647,5,0
256,100,38778,1,10
138,192,38908,1,0
256,284,39038,1,4
300,120,41438,6,0,B|340:120|340:120|380:144|380:144|428:144,1,135,12|0
212,264,41738,2,0,B|172:264|172:264|132:240|132:240|84:240,1,135
320,240,42038,2,0,B|320:328|320:328|276:364,1,135,8|0
192,144,42338,2,0,B|192:56|192:56|236:20,1,135
456,100,42638,21,8
400,236,42788,1,0
264,176,42938,1,0
320,40,43088,1,0
460,242,43238,5,8
329,309,43388,1,0
264,176,43538,1,0
394,108,43688,1,0
329,309,43838,6,0,B|256:328|192:276,1,135,8|0
148,144,44138,1,0
148,144,44288,1,0
54,363,44438,2,0,B|35:290|80:236,1,135,8|0
264,176,44738,1,0
32,120,44888,1,0
212,60,45038,22,0,B|280:60|280:60|332:100,1,135,8|0
468,36,45338,1,0
416,176,45488,1,0
288,252,45638,5,8
416,92,45788,1,0
500,276,45938,2,0,B|468:348|380:344,1,135,0|0
244,348,46238,5,8
116,268,46388,1,0
168,128,46538,2,0,B|240:108|300:144,1,135
60,104,46838,21,8
224,232,46988,1,0
344,60,47138,2,0,B|412:28|488:56,1,135
404,264,47438,6,0,B|412:344|348:388,1,135,8|0
168,128,47738,2,0,B|160:48|224:4,1,135
292,304,48038,5,8
253,342,48113,1,0
202,364,48188,1,0
149,361,48263,1,0
99,341,48338,1,0
68,296,48413,1,0
55,243,48488,1,0
67,190,48563,1,0
104,148,48638,22,0,B|168:112|240:140,1,135,4|8
372,220,48910,2,0,B|419:277|404:347,1,135,0|8
204,268,49183,1,0
412,88,49319,1,0
196,48,49456,2,0,B|144:48|144:48|116:36|116:36|60:36,1,135,0|8
372,220,49728,2,0,B|508:220,1,135,0|8
144,348,50001,6,0,B|92:348|92:348|64:360|64:360|11:360,1,135,0|8
28,200,50274,1,0
256,228,50410,2,0,B|323:273|306:369,1,135,8|0
140,232,50683,1,0
248,112,50819,2,0,B|192:53|100:87,1,135,0|8
352,132,51092,2,0,B|353:51|265:10,1,135,0|8
424,204,51365,22,0,B|457:171|457:171|452:128|452:128|482:95,1,135
288,240,52046,5,8
148,160,52182,1,0
56,296,52319,2,0,B|116:340|196:312,1,135,8|0
256,156,52591,1,0
452,216,52728,1,8
354,350,52864,2,0,B|295:318|288:240,1,135
308,36,53137,5,8
148,160,53273,1,8
208,312,53410,2,0,B|160:356|160:356|88:344,1,135
60,188,53682,1,8
220,224,53819,1,0
36,276,53955,1,8
148,160,54091,6,0,B|220:124|224:56,1,135,0|8
364,224,54364,2,0,B|292:260|288:328,1,135,0|8
452,340,54637,1,0
444,156,54773,6,0,B|407:113|347:127,1,101.25,12|4
220,224,55318,5,8
164,376,55456,1,0
36,276,55591,2,0,B|40:204|104:160,1,135,8|0
188,296,55865,1,0
300,128,56000,1,0
132,16,56138,1,8
320,216,56274,6,0,B|400:192|388:100,1,135
228,88,56547,1,0
36,156,56682,1,8
188,296,56818,1,0
388,256,56956,2,0,B|396:336|316:372,1,135,8|0
220,192,57227,1,8
404,108,57365,1,8
292,280,57500,6,0,B|220:300|156:248,1,135,0|8
296,88,57774,2,0,B|349:140|336:221,1,135,0|8
195,335,58047,2,0,B|146:353|89:340|48:284|53:202|109:148|194:168|194:168|256:192,1,405,12|4
256,192,58606,12,0,60556
256,192,60856,21,0
396,80,62956,5,0
396,80,63256,6,0,B|383:33,1,33.75,6|0
266,56,63556,2,0,B|228:25,1,33.75,0|0
161,124,63856,2,0,B|112:120,1,33.75,2|0
94,236,64156,2,0,B|52:260,1,33.75,0|0
188,324,64456,22,0,B|229:299,1,33.75,2|0
256,176,64756,2,0,B|297:200,1,33.75,0|0
336,364,65056,2,0,B|377:339,1,33.75,2|0
400,132,65356,2,0,B|441:156,1,33.75,0|0
506,300,65656,5,6
467,356,65806,1,0
403,380,65956,1,0
336,364,66106,1,0
291,311,66256,1,2
284,243,66406,1,0
308,180,66556,1,0
301,112,66706,1,0
256,60,66856,5,2
168,36,67006,1,0
88,80,67156,1,2
62,167,67306,1,0
104,248,67456,21,2
228,188,67606,1,0
256,324,67756,1,2
380,264,67906,1,0
256,192,68056,12,2,68874
192,59,69146,6,0,B|257:25|321:59,1,135,4|8
320,325,69419,2,0,B|256:358|192:325,1,135,0|8
96,192,69692,1,0
256,144,69828,1,0
416,192,69965,2,0,B|464:252|436:320,1,135,0|8
36,264,70237,6,0,B|-12:204|16:136,1,135,0|8
316,24,70510,2,0,B|364:84|336:152,1,135,0|8
136,356,70783,6,0,B|120:328|126:292,1,67.5
256,192,71192,5,0
316,344,71328,2,0,B|392:352|436:284,1,135,0|8
196,40,71601,2,0,B|120:32|76:100,1,135,0|8
364,280,72009,5,4
364,280,72419,6,0,B|431:314|493:278,1,135,4|8
256,352,72691,1,0
180,208,72828,2,0,B|112:173|50:209,1,135,8|0
116,360,73101,6,0,B|152:352|180:320,1,67.5,8|0
12,304,73509,5,0
280,252,73645,2,0,B|298:178|249:126,1,135,8|8
92,80,73918,1,0
104,280,74056,1,0
292,356,74191,1,8
468,256,74327,38,0,B|472:220|440:184,1,67.5
304,272,74736,21,8
148,228,74874,2,0,B|128:304|180:368,1,135,0|8
352,192,75145,22,0,B|372:136|346:92,1,101.25,0|4
196,148,75692,37,4
48,268,75828,2,0,B|-8:212|12:136,1,135,8|0
196,148,76101,1,8
360,272,76237,6,0,B|364:308|332:344,1,67.5
276,172,76646,22,0,B|328:116|403:137,1,135,8|0
256,312,76919,1,0
112,148,77056,22,0,B|111:111|146:78,1,67.5,0|0
484,120,77465,2,0,B|482:175|441:206,1,101.25,8|8
308,56,78010,37,0
195,286,78146,6,0,B|220:312|256:312,1,67.5
256,192,78556,5,12
256,192,78965,6,0,B|216:128|128:132,1,135,12|0
0,204,79237,1,0
196,286,79374,2,0,B|236:350|324:346,1,135,8|0
456,276,79646,1,0
380,144,79783,1,0
132,240,79919,22,0,B|77:233|56:175,1,101.25,12|0
359,275,80465,2,0,B|381:324|340:372,1,101.25,12|0
276,60,81010,2,0,B|307:16|368:27,1,101.25,12|12
504,188,81692,6,0,B|520:84|456:20,2,180,2|0|2
364,356,82237,5,4
350,352,82300,1,0
336,348,82362,1,2
323,345,82425,1,0
309,341,82487,2,0,B|240:320|180:364,1,135,0|2
104,236,82737,2,0,B|232:168|368:200,1,270
504,252,83112,1,2
412,116,83237,6,0,B|436:44|504:16,1,135,0|2
424,312,83487,2,0,B|349:327|291:282,1,135,0|2
256,64,83737,21,0
60,185,83862,1,2
212,356,83987,1,0
407,235,84112,1,2
164,108,84237,6,0,B|116:172|140:248,1,135,0|2
456,164,84487,2,0,B|504:100|480:24,1,135,0|2
56,220,84737,2,0,B|8:284|32:360,1,135
348,276,84987,2,0,B|396:212|372:136,1,135,0|2
172,304,85237,5,0
340,80,85362,1,2
304,344,85487,1,0
208,40,85612,6,0,B|140:12|72:44,1,135,2|4
40,184,86237,5,0
176,128,86357,1,2
148,272,86477,2,0,B|112:336|32:344,1,135,0|2
176,128,86717,2,0,B|240:91|313:124,1,135
384,220,86957,1,0
304,344,87077,1,2
384,120,87197,6,0,B|464:128|488:204,1,135,0|2
160,220,87437,2,0,B|80:212|56:136,1,135,0|2
352,16,87677,5,0
144,128,87797,1,2
352,256,87917,1,0
144,368,88037,1,2
396,168,88157,22,0,B|452:208|448:288,1,135,0|2
100,28,88397,2,0,B|44:68|48:148,1,135,0|2
60,296,88637,1,0
188,372,88757,1,0
332,332,88877,1,0
404,204,88997,1,2
352,64,89117,5,0
128,96,89237,1,2
160,320,89357,1,0
384,288,89477,22,0,B|440:272|440:272|500:252|492:184,1,168.75,2|4
440,48,90192,37,0
340,156,90307,1,0
263,28,90423,2,0,B|157:7|88:122|169:199,1,270,2|0
220,340,90769,1,0
76,372,90884,1,0
64,224,91000,21,0
264,244,91115,2,0,B|288:176|232:120,1,135,2|2
140,316,91346,1,0
340,336,91461,6,0,B|416:336|452:272,1,135,2|0
264,28,91692,2,0,B|188:28|152:92,1,135,2|0
220,340,91923,6,0,B|278:211,1,135,4|0
132,248,92153,1,0
380,280,92269,2,0,B|486:300|555:185|473:108,1,270,2|0
320,60,92615,1,0
408,184,92730,1,0
256,192,92846,21,0
112,159,92961,2,0,B|132:88|196:61,1,135,2|2
148,304,93192,1,0
16,236,93307,6,0,B|16:280|16:280|40:324|40:324|40:364,1,135,2|0
408,184,93538,2,0,B|408:140|408:140|384:96|384:96|384:56,1,135,2|0
288,311,93769,22,0,B|299:354,1,33.75,2|0
256,192,94000,37,4
136,368,94111,2,0,B|29:388|-39:273|40:196,1,270,6|0
180,240,94444,1,0
256,112,94555,1,0
472,196,94666,21,0
336,256,94777,2,0,B|372:324|441:333,1,135,2|2
356,108,94999,1,0
224,172,95110,5,2
78,21,95221,1,0
107,228,95332,1,2
205,43,95443,1,0
17,135,95554,6,0,B|-8:208|44:276,1,135,4|0
184,356,95777,1,0
356,312,95888,2,0,B|381:239|329:171,1,135,2|0
189,91,96111,1,0
152,260,96221,2,0,B|225:285|293:233,1,135
120,164,96443,21,0
368,116,96554,2,0,B|352:44|272:8,1,135,2|2
256,356,96776,1,0
392,220,96888,6,0,B|376:364,1,135,6|0
120,164,97111,2,0,B|136:20,1,135,6|0
512,192,97554,5,6
256,192,98222,1,4
0,192,99111,1,4
