osu file format v9

[General]
AudioFilename: Pluto.mp3
AudioLeadIn: 2000
PreviewTime: 18441
Countdown: 0
SampleSet: Normal
StackLeniency: 0.7
Mode: 0
LetterboxInBreaks: 1

[Editor]
Bookmarks: 104,9704,18431,26778,32778,39038,48638,58454,69146,82237,90077,97554,99108
DistanceSpacing: 1
BeatDivisor: 4
GridSize: 4

[Metadata]
Title:Pluto
Artist:Black Hole
Creator:7odoa
Version:Beginner
Source:Dance Dance Revolution SuperNOVA 2
Tags:Supernova Beat Ex DDRSN2 Bemani Konami CS Beatmania IIDX 15 DJ Troopers NAOKI MAEDA

[Difficulty]
HPDrainRate:2
CircleSize:3
OverallDifficulty:2
ApproachRate:3
SliderMultiplier:0.6
SliderTickRate:4

[Events]
//Background and Video events
0,0,"PlutoBG.jpg"
//Break Periods
2,39238,39998
2,61056,61816
//Storyboard Layer 0 (Background)
//Storyboard Layer 1 (Fail)
//Storyboard Layer 2 (Pass)
//Storyboard Layer 3 (Foreground)
//Storyboard Sound Samples
//Background Colour Transformations
3,100,163,162,255

[TimingPoints]
104,600,4,2,1,95,1,0
104,-200,4,2,1,95,0,0
9704,545.454545454546,4,1,2,60,1,0
9704,-50,4,1,2,60,0,0
18431,521.739130434783,4,1,1,70,1,1
18431,-50,4,1,1,70,0,1
22604,-50,4,1,1,70,0,0
22996,-50,4,1,1,70,0,1
26778,500,6,1,1,70,1,0
26778,-50,6,1,1,70,0,0
32778,521.739130434783,6,1,1,70,1,1
32778,-50,6,1,1,70,0,1
39038,600,4,1,1,70,1,0
41438,-50,4,1,2,60,0,0
48638,545.454545454546,4,1,1,70,1,0
48638,-50,4,1,1,70,0,0
58456,600,4,1,1,70,1,0
59056,-200,4,1,1,63,0,0
59656,-200,4,1,1,56,0,0
60256,-200,4,1,1,49,0,0
63106,-200,4,1,1,70,0,0
68056,545.454545454546,4,1,1,80,1,0
68056,-50,4,1,1,80,0,0
81008,-50,4,1,1,90,0,0
81351,-50,4,1,1,95,0,0
81690,-50,4,2,1,90,0,0
82237,500,4,1,2,65,1,0
82237,-50,4,1,2,65,0,0
86237,480,4,1,2,65,1,0
86237,-50,4,1,2,65,0,0
90077,461.538461538462,4,1,1,75,1,1
90077,-50,4,1,1,75,0,1
93769,-50,4,1,1,80,0,0
94000,444.444444444444,4,1,1,80,1,0
94111,-50,4,1,1,80,0,1
95499,-50,4,1,1,85,0,1
97222,-50,4,1,1,70,0,0

[Colours]
Combo1 : 255,255,255
Combo2 : 0,0,234
Combo3 : 234,0,0
Combo4 : 175,0,234

[HitObjects]
256,32,104,5,2
496,192,2504,1,2
256,352,4904,1,2
16,192,7304,1,2
256,102,9704,6,0,B|315:102|315:102|358:144|358:144|358:205|358:205|399:250,1,240,4|0
356,364,11340,1,2
256,296,11885,2,0,B|192:276|140:324,1,120,0|2
80,220,12976,2,0,B|32:140,1,90,0|2
84,32,13931,6,0,B|92:104|180:120|224:48|224:48|272:44|312:76,1,270,4|0
344,180,15703,1,2
408,80,16248,2,0,B|464:132|452:208,1,120,0|2
388,288,17339,2,0,B|308:332,1,90,0|2
152,348,18431,22,0,B|132:284|64:280|64:280|12:236|24:164,1,240,4|0
140,188,19996,1,2
124,68,20517,2,0,B|192:64|232:116|232:116|280:76|344:88,1,240,4|0
316,204,22083,1,2
168,352,22995,6,0,B|216:285|299:293,1,150,6|0
400,356,24170,1,2
468,256,24690,2,0,B|468:184|420:148,1,120,4|2
304,140,25735,2,0,B|258:105|258:33,1,120,0|2
200,144,26778,6,0,B|240:224|316:240|316:240|352:276|336:328,1,240,4|8
232,372,28278,2,0,B|136:372|136:372|64:340|64:256,1,240,0|8
184,260,29778,22,0,B|197:204|159:154|84:191|46:141|60:86,1,240,4|8
180,100,31278,2,0,B|282:128|257:230|367:251,1,240,0|8
456,188,32778,6,0,B|488:128|456:68,2,120,4|10|0
396,292,34343,2,0,B|328:304|312:368,1,120,2|8
256,260,35386,1,2
199,367,35908,6,0,B|184:304|116:292,2,120,4|10|0
316,336,37473,1,6
364,224,37995,2,0,B|356:164|284:136,1,120,8|2
168,184,39038,1,4
416,304,41438,22,0,B|396:328|396:328|336:328|336:328|316:348,1,120,12|8
196,348,42638,2,0,B|176:328|176:328|116:328|116:328|96:304,1,120,8|8
160,204,43838,2,0,B|160:140|160:140|200:96,1,120,8|8
314,98,45038,2,0,B|352:140|352:140|352:204,1,120,8|8
352,263,45938,1,0
308,304,46238,6,0,B|252:336|188:309,1,120,8|8
100,232,47438,2,0,B|164:200|164:124,1,120,8|8
256,44,48638,6,0,B|300:140|424:124,2,180,4|8|0
160,116,50819,1,0
48,72,51365,1,8
36,192,51910,22,0,B|24:296|128:336,2,180,0|8|0
152,216,54091,2,0,B|208:272|300:256,1,150,0|12
364,208,55182,6,0,B|416:120|364:36,1,180,4|8
460,224,56956,2,0,B|440:312|356:340,1,150,8|0
280,348,58047,1,12
256,192,58456,12,0,60856
256,192,63256,12,4,68056
64,192,69146,6,0,B|56:132|56:132|84:64|164:68,1,180,4|0
256,124,70510,2,0,B|388:72,1,120,0|0
464,148,71601,2,0,B|424:236,1,90,0|8
436,320,72419,6,0,B|372:332|316:268|340:200,1,180,4|0
256,292,73783,2,0,B|240:356|160:376|104:320,1,180,8|0
112,208,75146,2,0,B|184:280,1,90,0|4
256,184,76101,5,8
336,271,76646,2,0,B|400:208,2,90,8|0|8
256,232,77874,2,0,B|256:64,1,150,8|12
172,120,78965,6,0,B|172:220,1,90,12|8
256,296,79919,1,12
368,256,80465,1,12
396,140,81010,2,0,B|424:92|480:84,1,90,12|12
272,36,82237,6,0,B|312:88|300:152|300:152|240:160|208:220,1,240,4|0
316,268,83737,1,2
224,344,84237,2,0,B|172:380|100:368,1,120,0|2
4,312,85237,2,0,B|44:224,1,90,0|2
108,88,86237,6,0,B|164:48|232:60,1,120,4|2
312,136,87197,2,0,B|369:146|425:106,1,120,0|2
504,196,88157,1,0
392,244,88637,1,2
272,232,89117,2,0,B|188:184,1,90,0|2
168,32,90077,22,0,B|172:104|96:116|96:116|32:136|32:208,1,240,4|0
40,320,91461,1,2
132,244,91923,2,0,B|196:272|212:332,1,120,4|0
328,348,92846,1,0
400,252,93307,1,2
344,40,94111,6,0,B|380:73|380:73|430:73|430:73|469:102,1,150,6|0
372,168,95110,1,2
296,264,95554,2,0,B|252:220|252:148,1,120,4|0
180,60,96443,1,0
156,176,96887,2,0,B|124:180|96:160,1,60,6|6
8,240,97554,5,6
160,336,98222,1,4
352,192,99111,1,4
