osu file format v7

[General]
AudioFilename: black eyed peas - pump it.mp3
AudioLeadIn: 0
PreviewTime: 18407
Countdown: 0
SampleSet: Normal
StackLeniency: 0.5
Mode: 0
LetterboxInBreaks: 1

[Editor]
DistanceSpacing: 0.899999976158142
BeatDivisor: 4
GridSize: 8

[Metadata]
Title:Pump It
Artist:Black Eyed Peas
Creator:yeahyeahyeahhh
Version:Quiet
Source:
Tags:Nexy rap hip hop william taboo apl de ap Monkey Business

[Difficulty]
HPDrainRate:2
CircleSize:3
OverallDifficulty:4
SliderMultiplier:0.999999999999999
SliderTickRate:1

[Events]
//Background and Video events
0,0,"10zp6iq.jpg"
//Break Periods
2,29544,29977
2,43215,48335
2,52588,56147
2,107273,107706
//Storyboard Layer 0 (Background)
//Storyboard Layer 1 (Fail)
//Storyboard Layer 2 (Pass)
//Storyboard Layer 3 (Foreground)
//Storyboard Sound Samples
//Background Colour Transformations
3,100,163,162,255

[TimingPoints]
9033,390.599570340473,4,1,1,70,1,0
9033,-100,4,1,0,70,0,1
9130,-100,4,1,1,70,0,0
15282,-100,4,1,0,70,0,1
15380,-100,4,1,0,70,0,0
30711,-100,4,1,0,61,0,0
60592,-100,4,1,0,70,0,0
62154,-100,4,1,0,70,0,1
85590,-100,4,1,0,70,0,0
87348,-100,4,2,2,100,0,0
92718,-100,4,1,2,70,0,0
93597,-100,4,2,2,100,0,0
94867,-100,4,1,2,70,0,0
95062,-100,4,2,2,100,0,0
97406,-100,4,1,2,70,0,0
97601,-100,4,2,2,100,0,0
97894,-100,4,1,2,71,0,0
98285,-100,4,2,2,100,0,0
98968,-100,4,1,2,70,0,0
99163,-100,4,2,2,100,0,0
99456,-100,4,1,0,70,0,0
118400,-100,4,1,0,70,0,1
141836,-100,4,1,0,70,0,0

[Colours]
Combo1 : 0,255,0
Combo2 : 255,255,0
Combo3 : 255,0,128
Combo4 : 0,128,255
Combo5 : 255,125,64

[HitObjects]
176,296,7470,2,0,B|216:360|256:352|296:360|344:288,2,200
256,192,9130,12,8,11767
256,328,12157,5,0
256,328,12353,1,0
176,80,13720,6,0,B|216:16|256:24|296:16|344:88,2,200
256,192,15380,12,8,18016
96,72,18407,5,0
96,72,18602,1,0
416,72,19579,5,8
416,152,19969,2,0,B|416:216,1,50,0|0
96,312,21141,5,8
96,232,21531,2,0,B|96:168,1,50,0|0
416,312,22703,5,8
416,232,23093,2,0,B|416:168,1,50,0|0
256,192,24266,5,8
72,304,24852,2,0,B|32:240|8:192|24:152|80:64,1,250,0|8
440,304,26414,2,0,B|480:240|504:192|488:152|432:64,1,250,0|8
256,192,27781,12,0,29344
352,64,31297,5,8
400,64,31492,2,8,B|464:64|464:104|464:160|392:160,1,150
152,320,32859,5,8
112,320,33054,2,8,B|48:320|48:280|48:224|120:224,1,150
256,192,34421,12,8,36765
337,191,37546,6,0,B|384:168|384:216|432:196,3,99.9999999999999,8|0|8|0
174,191,39109,6,0,B|128:168|128:216|79:196,3,99.9999999999999,8|0|8|0
80,120,40671,5,8
128,56,41062,2,0,B|200:8|256:0|312:8|432:64,1,300,0|8
472,104,42624,1,0
472,184,43015,1,8
200,240,49655,6,0,B|152:288,6,50,0|0|8|8|0|0|8
312,144,51217,6,0,B|360:96,6,50,0|0|8|8|0|0|8
104,248,57467,6,2,B|56:240|48:192|56:152|112:136,1,150
408,248,59029,6,2,B|456:240|464:192|456:152|400:136,1,150
256,192,60787,12,4,62154
96,72,63326,5,8
96,72,63716,1,4
96,312,64888,5,8
96,312,65278,1,4
416,312,66451,5,8
416,312,66841,1,4
416,72,68013,5,8
416,72,68403,1,4
256,192,69575,5,8
256,192,69965,1,4
64,336,71528,6,0,B|64:152|256:152,1,300,2|8
256,232,73091,2,0,B|442:232|442:48,1,300,2|8
256,64,74849,6,0,B|256:136,5,50,0|8|8|0|0|8
256,270,76411,6,0,B|256:320,5,50,0|8|8|0|0|8
256,192,77778,12,4,80903
160,192,81293,6,0,B|160:264|232:264,3,99.9999999999999,8|0|8|0
296,264,82856,2,0,B|351:265|351:193,3,99.9999999999999,8|0|8|0
256,192,84125,12,0,85590
416,72,87152,5,0
416,152,87542,2,8,B|416:216,1,50,8|8
416,336,88324,1,8
256,192,89105,6,0,B|256:128,4,50,0|0|0|0|8
96,336,90668,6,8,B|96:286,1,50,8|8
96,152,91450,1,8
416,48,92230,6,0,B|416:98,1,50,8|8
416,232,93012,1,2
416,232,93402,1,2
416,312,93793,5,8
336,312,94183,1,0
256,312,94574,1,8
176,312,94964,1,0
96,312,95355,1,8
96,232,95746,1,0
96,232,96136,1,8
344,96,96917,6,8,B|272:96,1,50,8|8
160,96,97699,1,8
168,288,98480,6,8,B|240:288,1,50,8|8
352,288,99262,1,8
304,104,100433,6,0,B|256:72|192:112,5,99.9999999999999,0|8|0|8|0|8
256,288,103167,6,0,B|264:312|240:312|256:336,12,50,8|8|0|0|8|0|0|0|8|8|0|0|10
160,64,106292,5,2
352,64,107073,5,2
184,192,109026,6,2,B|160:184|160:208|136:192,3,50,0|0|8|8
328,192,110198,1,8
184,344,110979,6,8,B|120:344,1,50
328,344,111760,1,8
408,248,113713,6,2,B|456:240|464:192|456:152|400:136,1,150
104,248,115275,6,2,B|56:240|48:192|56:152|112:136,1,150
256,192,117033,12,4,118400
96,312,119572,5,8
96,312,119962,1,4
96,72,121134,5,8
96,72,121524,1,4
416,72,122697,5,8
416,72,123087,1,4
416,312,124259,5,8
416,312,124649,1,4
256,192,125821,5,8
256,192,126211,1,4
64,48,127774,6,0,B|64:232|256:232,1,300,2|8
256,152,129337,2,0,B|442:152|442:336,1,300,2|8
256,320,131095,6,0,B|256:248,5,50,0|8|8|0|0|8
256,114,132657,6,0,B|256:64,5,50,0|8|8|0|0|8
256,192,134024,12,4,137149
160,192,137539,6,0,B|160:120|232:120,3,99.9999999999999,8|0|8|0
296,120,139102,2,0,B|351:119|351:191,3,99.9999999999999,8|0|8|0
256,192,140371,12,0,141836
