osu file format v7

[General]
AudioFilename: black eyed peas - pump it.mp3
AudioLeadIn: 0
PreviewTime: 18407
Countdown: 0
SampleSet: Normal
StackLeniency: 0.5
Mode: 0
LetterboxInBreaks: 1

[Editor]
DistanceSpacing: 0
BeatDivisor: 4
GridSize: 16

[Metadata]
Title:Pump It
Artist:Black Eyed Peas
Creator:yeahyeahyeahhh
Version:Fresh!
Source:
Tags:Nexy rap hip hop william taboo apl de ap Monkey Business

[Difficulty]
HPDrainRate:4
CircleSize:4
OverallDifficulty:6
SliderMultiplier:1.6
SliderTickRate:2

[Events]
//Background and Video events
0,0,"10zp6iq.jpg"
//Break Periods
2,52979,59737
//Storyboard Layer 0 (Background)
//Storyboard Layer 1 (Fail)
//Storyboard Layer 2 (Pass)
//Storyboard Layer 3 (Foreground)
//Storyboard Sound Samples
//Background Colour Transformations
3,100,163,162,255

[TimingPoints]
9033,390.599570340473,4,2,1,60,1,0
18016,-100,4,1,0,60,0,0
85590,-100,4,1,0,0,0,0
86762,-100,4,2,1,50,0,0
88715,-100,4,1,0,50,0,0
88910,-100,4,2,0,50,0,0
90277,-100,4,1,1,50,0,0
90473,-100,4,2,1,50,0,0
93011,-100,4,1,0,50,0,0
93597,-100,4,2,1,50,0,0
96527,-100,4,1,0,50,0,0
96722,-100,4,2,1,50,0,0
98089,-100,4,1,0,50,0,0
98285,-100,4,2,1,50,0,0
99456,-100,4,1,0,50,0,0
113713,-200,4,1,0,50,0,0
114690,-100,4,1,0,0,0,0
115276,-200,4,1,0,50,0,0
116252,-100,4,1,0,0,0,0
118400,-100,4,1,0,50,0,0

[Colours]
Combo1 : 0,255,0
Combo2 : 255,255,0
Combo3 : 255,0,128
Combo4 : 0,128,255
Combo5 : 255,125,64

[HitObjects]
256,240,9032,1,2
160,256,9423,5,8
160,256,9618,2,0,B|144:304|96:320|48:304|32:256,1,160,8|2
36,266,10204,1,8
256,240,10595,5,2
352,256,10985,5,8
352,256,11180,2,0,B|368:304|416:320|464:304|480:256,1,160,8|2
475,266,11766,1,8
256,240,12157,5,2
256,144,12548,5,8
256,144,12743,2,0,B|256:48,2,80,8|0|2
256,144,13329,1,8
176,224,13720,6,0,B|224:256|288:256|336:224,1,160,2|8
327,228,14306,1,8
336,304,14501,2,0,B|288:336|224:336|176:304,1,160,0|8
256,192,15282,12,0,18016
256,192,18407,5,4
224,64,19579,5,8
224,64,19969,1,4
288,320,21141,5,8
288,320,21532,1,4
80,192,22703,5,8
80,192,23094,1,4
432,192,24266,5,8
432,192,24656,1,0
432,192,24852,2,0,B|384:224|352:224,1,80,0|8
288,224,25242,2,0,B|240:224|208:192,1,80,8|0
214,197,25633,1,0
272,144,25828,2,0,B|192:96|112:128,1,160,8|0
80,192,26414,6,0,B|128:224|160:224,1,80,0|8
224,224,26805,2,0,B|272:224|304:192,1,80,8|0
297,197,27195,1,0
240,144,27391,2,0,B|320:96|400:128,1,160,8|0
256,192,27879,12,4,29344
256,256,29930,6,8,B|160:192|256:128,2,160
368,192,31297,6,8,B|416:192|448:160,1,80
256,192,32078,1,8
256,192,32468,1,2
144,192,32859,6,8,B|96:192|64:224,1,80
256,192,33640,1,8
256,192,34031,1,2
368,192,34421,5,8
368,192,34617,2,0,B|368:256|400:288,2,80,8|0|0
368,192,35203,1,8
256,128,35593,5,2
144,192,35984,5,8
144,192,36180,2,0,B|144:256|112:288,2,80,8|0|0
144,192,36766,1,8
256,128,37156,5,2
320,240,37546,5,8
320,240,37742,2,0,B|387:185|467:249,1,160,8|0
384,288,38327,2,0,B|316:342|236:278,1,160,8|4
272,112,39109,5,8
272,112,39305,2,0,B|192:48|112:112,1,160,8|0
48,144,39890,2,0,B|128:208|208:144,1,160,8|2
384,96,40671,6,0,B|432:96|464:128,2,80,8|8|0
384,96,41257,1,0
336,160,41452,2,0,B|288:160|256:128,2,80,8|0|0
336,160,42038,1,0
384,224,42233,2,0,B|432:224|464:256,2,80,8|8|0
384,224,42819,1,0
384,224,43015,1,8
256,192,43405,5,2
256,192,43796,1,2
176,160,43991,6,0,B|176:112|144:80,2,80,8|0|0
176,160,44577,1,8
176,160,44968,5,2
336,224,45358,5,8
336,224,45554,2,0,B|336:272|368:304,2,80,8|0|0
336,224,46139,1,8
336,224,46530,5,2
176,224,46921,5,8
176,224,47116,1,8
128,288,47311,2,0,B|80:288|48:256,2,80,0|0|8
128,288,47897,1,0
176,224,48092,2,0,B|224:224|256:256,2,80,0|0|8
176,224,48678,1,8
128,160,48874,2,0,B|80:160|48:128,2,80,0|0|8
288,64,49655,6,0,B|336:80|352:128|336:176|288:192,1,160,0|8
298,187,50241,1,8
208,64,50631,1,0
208,64,50827,1,2
224,192,51217,6,0,B|176:208|160:256|176:304|224:320,1,160,0|8
213,315,51803,1,8
304,192,52194,1,0
304,192,52389,1,8
304,192,52584,6,2,B|400:192,1,80,2|4
256,192,60787,12,4,62154
416,224,63326,5,8
416,224,63716,1,4
96,160,64888,5,8
96,160,65279,1,4
224,320,66451,5,8
224,320,66841,1,4
288,64,68013,5,8
288,64,68404,1,4
256,192,69575,5,8
256,192,69966,1,4
224,272,71919,6,0,B|224:368,1,80,8|8
288,192,72505,2,0,B|288:288,1,80,0|8
288,112,73481,6,0,B|288:208,1,80,8|8
224,32,74067,2,0,B|224:128,1,80,0|8
144,192,74849,6,0,B|144:240|176:272,5,80,0|8|8|0|0|8
336,192,76411,6,0,B|336:240|304:272,5,80,0|8|8|0|0|8
256,192,77778,12,0,78950
256,192,79340,12,0,80512
192,192,81098,6,0,B|192:240|224:272,1,80,0|8
288,256,81489,2,0,B|288:304|256:336,2,80,8|0|0
288,256,82075,2,0,B|288:208|320:176|352:144|352:96,1,160,8|0
256,48,82856,5,8
256,48,83051,1,8
256,48,83246,6,0,B|224:80|224:128,2,80,0|0|8
256,192,84028,12,0,85590
256,192,87152,5,2
256,192,87543,1,8
256,192,87738,2,0,B|192:128|112:128,1,160,8|2
112,192,88324,2,0,B|192:192|256:128,1,160,8|2
256,256,89105,6,2,B|256:352,4,80
256,128,90277,5,2
256,128,90668,5,8
256,128,90863,2,0,B|320:192|400:192,1,160,8|2
400,128,91449,2,0,B|320:128|256:192,1,160,8|2
256,192,92230,5,8
256,192,92426,2,0,B|224:256|256:320|304:320,1,160,8|2
320,240,93011,5,4
192,144,93402,1,4
192,144,93793,5,8
192,144,93988,2,0,B|96:208|192:272,1,160,8|2
240,208,94574,2,0,B|336:144|240:80,1,160,8|2
416,112,95355,5,8
416,112,95550,1,8
416,272,95941,1,2
416,272,96136,2,0,B|336:304|256:272,1,160,8|2
96,272,96917,5,8
96,272,97112,1,8
96,112,97503,1,2
96,112,97698,2,0,B|176:80|256:112,1,160,8|2
192,256,98480,5,8
192,256,98675,1,8
320,128,99066,1,0
320,128,99261,1,8
320,128,99652,6,2,B|400:192|320:272,1,160,2|8
288,336,100237,2,0,B|208:272|288:192,1,160,8|0
281,199,100823,1,8
256,48,101214,5,0
256,48,101605,1,8
256,48,101800,2,0,B|256:144,2,80,8|0|0
256,48,102386,1,8
224,336,102776,6,0,B|304:272|224:192,1,160,0|8
176,144,103362,2,0,B|128:144|96:176,11,80,8|0|0|8|0|0|0|8|8|0|0|8
256,192,105901,5,0
240,64,106292,5,2
272,320,107073,5,2
256,192,107464,5,0
128,176,107854,6,8,B|128:128|160:96,1,80
256,192,108440,2,0,B|256:240|224:272,1,80,0|8
384,176,109026,6,2,B|384:128|352:96,3,80
256,192,110002,6,0,B|256:240|288:272,1,80,0|8
256,64,110588,5,0
256,64,110784,1,0
192,96,110979,2,8,B|192:144|160:176,1,80
336,192,111565,2,0,B|336:240|368:272,1,80,0|8
416,208,111955,6,2,B|416:160|384:128,3,80
224,112,113713,6,2,B|176:160|256:192|336:224|288:272,1,200,2|0
288,112,115276,6,2,B|336:160|256:192|176:224|224:272,1,200,2|0
256,192,117033,12,4,118400
112,224,119572,5,8
112,224,119963,1,4
400,160,121135,5,8
400,160,121525,1,4
112,160,122697,5,8
112,160,123088,1,4
400,224,124259,5,8
400,224,124650,1,4
256,352,125822,5,8
256,352,126212,1,4
336,112,128165,6,8,B|336:16,1,80
256,192,128751,2,0,B|256:96,1,80,0|8
256,272,129728,6,8,B|256:176,1,80
336,352,130314,2,0,B|336:256,1,80,0|8
336,144,131095,6,0,B|336:96|368:64,5,80,0|8|8|0|0|8
176,144,132657,6,0,B|176:96|144:64,5,80,0|8|8|0|0|8
256,192,134024,12,0,135196
256,192,135587,12,0,136759
336,192,137344,6,0,B|384:192|416:160,5,80,0|8|8|0|0|8
256,192,138712,1,0
256,192,139102,5,8
176,192,139297,2,0,B|128:192|96:224,3,80,8|0|0|8
256,192,140274,12,0,141836
