osu file format v5

[General]
AudioFilename: Black Eyed Peas-My humps.mp3
AudioLeadIn: 0
PreviewTime: -1
Countdown: 1
SampleSet: Normal
StackLeniency: 0.3
Mode: 0
LetterboxInBreaks: 1
EditorBookmarks: 14823,23408,31392,39739,47481,55223,70828,85223,92844,109054,125022,132522,147280,154054,171353,185869,193490,201232,208974

[Metadata]
Title:My Humps
Artist:Black Eyed Peas
Creator:kingcobra52
Version:Insane
Source:
Tags:

[Difficulty]
HPDrainRate:6
CircleSize:6
OverallDifficulty:7
SliderMultiplier:2
SliderTickRate:2

[Events]
//Background and Video events
0,0,"black_eyed_peas_1024x768.jpg"
//Break Periods
2,62866,70476
2,100366,108701
2,140526,146927
2,162060,171121
//Storyboard Layer 0 (Background)
//Storyboard Layer 1 (Failing)
//Storyboard Layer 2 (Passing)
//Storyboard Layer 3 (Foreground)
//Storyboard Sound Samples
//Background Colour Transformations
3,100,163,162,255

[TimingPoints]
8953,483.870967741935,4,1,0,100,1
215093,241.935483870968,4,1,0,100,1

[HitObjects]
64,192,15727,1,0
96,160,15848,1,0
128,128,15969,1,0
160,160,16090,1,0
192,192,16211,2,0,B|264:264,1,100,8|0
336,312,16694,1,0
424,312,16936,1,0
424,224,17178,2,8,B|472:184|424:128,1,100,8|0
384,56,17662,1,0
296,56,17904,1,0
296,144,18146,1,8
208,144,18388,1,0
120,144,18630,2,2,B|53:158|56:216,1,100
56,296,19114,1,10
424,296,19598,5,0
424,248,19719,1,0
424,200,19840,2,0,B|480:192|504:128,2,100,0|8|0
424,112,20565,1,0
360,48,20807,1,0
296,112,21049,2,0,B|231:135|200:64,1,100,8|0
120,56,21533,2,0,B|68:55|56:128,1,100,2|0
64,208,22017,2,0,B|124:241|168:168,1,100,10|0
200,272,22501,1,2
272,328,22743,1,2
344,272,22985,1,10
24,32,23711,5,0
112,32,23953,1,8
112,120,24194,1,0
200,120,24436,1,4
480,344,25162,1,0
392,344,25404,1,2
392,256,25646,1,0
304,256,25888,1,10
304,168,26130,1,0
216,168,26372,1,2
456,48,27098,5,0
376,88,27340,2,0,B|404:143|472:128,1,100,0|0
400,200,27823,2,0,B|453:184|483:240,1,100,8|0
480,328,28307,1,4
64,328,29033,1,0
64,240,29275,1,2
64,328,29517,1,0
152,328,29759,1,10
64,328,30001,1,0
64,240,30243,1,2
456,48,30969,5,0
456,96,31090,1,0
456,136,31211,2,2,C|426:163|459:177|429:200|460:219|435:238|448:256,1,200,2|10
392,320,31936,5,0
304,320,32178,1,0
216,320,32420,1,0
128,320,32662,1,8
40,320,32904,1,0
40,232,33146,2,2,B|152:232,1,100,2|2
232,232,33630,1,10
320,232,33872,5,0
408,232,34114,1,0
496,232,34356,1,0
496,144,34598,1,8
408,144,34840,1,0
320,144,35082,2,2,B|200:144,1,100,2|2
128,144,35565,1,10
40,144,35807,5,0
40,56,36049,1,0
128,56,36291,1,0
216,56,36533,1,8
304,56,36775,1,0
392,56,37017,2,2,B|512:56,1,100,2|2
496,136,37501,1,10
456,216,37743,5,0
384,272,37985,1,0
296,288,38227,1,0
208,256,38469,1,8
136,200,38711,1,0
216,160,38953,2,2,B|253:206|312:184,1,100,2|2
400,160,39436,1,10
96,248,39920,6,0,B|112:304|56:336,1,100
96,248,40404,2,0,B|44:239|-12:311,1,100,8|0
96,248,40888,2,2,B|80:192|136:160,1,100
131,162,41372,1,10
384,104,41856,6,0,B|368:48|424:16,1,100
384,104,42340,2,0,B|436:113|492:41,1,100,8|0
384,104,42823,2,2,B|400:160|344:192,1,100
349,190,43307,1,10
80,56,43791,5,0
168,56,44033,1,0
80,56,44275,1,8
168,56,44517,1,0
168,144,44759,2,0,B|88:216,1,100
80,296,45243,2,0,B|118:322|184:288,1,100,8|0
264,264,45727,2,0,B|304:228|360:280,1,100
432,320,46211,1,8
432,232,46453,1,0
432,144,46694,2,2,B|352:80,1,100
280,24,47178,1,10
32,192,47662,5,2
120,192,47904,1,0
72,264,48146,1,8
32,344,48388,1,0
120,344,48630,2,0,B|224:344,1,100,0|0
312,344,49114,1,8
392,312,49356,1,0
456,248,49598,5,0
480,160,49840,1,0
456,72,50082,1,8
384,16,50323,1,0
320,80,50565,2,2,B|360:120|328:176,1,100
248,168,51049,2,2,B|208:128|248:72,1,100,10|2
160,40,51533,5,0
72,64,51775,1,0
24,144,52017,2,0,B|-2:205|64:232,1,100
128,280,52501,1,0
208,320,52743,2,0,L|248:354|296:312,1,100,0|8
376,320,53227,1,0
464,320,53469,5,0
480,232,53711,1,0
456,144,53953,1,8
400,72,54194,1,0
312,16,54436,2,2,B|208:16,1,100
208,112,54920,2,2,B|96:112,1,100,10|2
56,192,55404,5,4
88,280,55646,1,0
128,192,55888,1,8
160,280,56130,1,0
200,192,56372,2,0,L|220:231|288:240,1,100,0|0
360,280,56856,1,8
440,232,57098,1,0
464,144,57340,5,0
424,56,57582,1,0
336,16,57823,1,8
32,224,58307,2,2,L|83:201|120:240,1,100,2|2
176,296,58791,1,10
32,40,59275,6,0,B|29:90|120:104,1,100
192,104,59759,1,8
280,104,60001,1,0
368,104,60243,2,0,B|418:101|432:192,1,100
432,256,60727,1,8
368,320,60969,1,0
280,320,61211,5,0
216,256,61453,1,0
280,192,61694,1,8
368,192,61936,1,0
368,104,62178,2,2,B|375:45|320:16,1,100,2|2
232,16,62662,1,10
256,192,71372,12,12,74275
64,56,74759,6,0,B|176:56,1,100
168,144,75243,2,0,B|312:144,1,100
360,144,75727,1,2
440,232,75969,1,2
360,232,76211,1,2
440,144,76453,1,2
64,312,76936,1,0
136,256,77178,1,8
200,312,77420,1,0
288,312,77662,2,0,B|331:268|288:216,1,100,0|0
240,144,78146,1,10
184,72,78388,1,2
256,192,79114,12,12,82017
448,56,82501,6,0,B|336:56,1,100
344,144,82985,2,0,B|200:144,1,100
152,144,83469,1,2
72,232,83711,1,2
152,232,83953,1,2
72,144,84194,1,2
448,312,84678,1,0
488,232,84920,1,8
448,152,85162,1,0
400,72,85404,5,0
352,72,85525,1,0
304,72,85646,1,0
256,72,85767,1,0
208,72,85888,2,0,B|208:176,1,100,8|0
208,264,86372,1,0
136,320,86614,1,0
64,264,86856,2,8,B|16:224|64:168,1,100,8|0
104,104,87340,1,0
168,40,87582,1,0
224,104,87823,1,8
288,40,88065,1,0
352,104,88307,2,2,B|419:118|424:176,1,100
416,256,88791,1,10
88,312,89275,5,0
136,312,89396,1,0
136,264,89517,2,0,B|192:256|216:192,2,100,0|8|0
80,192,90243,1,0
136,120,90485,1,0
200,56,90727,2,0,B|222:109|287:86,1,100,8|0
360,32,91211,2,0,B|412:31|424:104,1,100,2|0
384,176,91694,2,0,B|444:209|488:136,1,100,10|0
472,248,92178,1,2
472,336,92420,1,2
384,336,92662,1,10
56,336,93146,5,0
56,288,93267,1,0
56,240,93388,1,0
56,192,93509,1,0
56,144,93630,2,0,B|160:144,1,100,8|0
248,144,94114,1,0
248,232,94356,1,0
248,320,94598,2,8,B|288:272|344:320,1,100,8|0
424,312,95082,1,0
464,232,95323,1,0
424,152,95565,1,8
464,72,95807,1,0
376,72,96049,2,2,B|296:160,1,100
248,208,96533,1,10
40,48,97017,5,0
72,80,97138,1,0
104,112,97259,2,0,B|160:104|184:40,2,100,0|8|0
104,200,97985,1,0
16,200,98227,1,0
104,200,98469,2,0,B|126:253|191:230,1,100,8|0
264,288,98953,2,0,B|320:304|360:256,1,100,2|0
392,176,99436,2,2,B|384:112|312:112,1,100,10|2
240,72,99920,1,2
160,112,100162,1,2
72,40,109598,6,0,C|107:67|91:95|128:128,1,100,0|0
152,112,109961,1,0
200,112,110082,1,8
200,248,110444,2,0,B|186:309|111:319,1,100,0|0
200,248,110928,1,0
248,248,111049,1,8
320,304,111291,1,0
400,264,111533,2,2,B|400:160,1,100
400,72,112017,1,2
264,72,112380,2,0,B|160:16,1,100,0|0
88,32,112864,1,0
88,80,112985,1,8
88,168,113227,1,0
88,256,113469,5,0
88,304,113590,1,0
136,304,113711,1,0
184,304,113832,1,0
232,304,113953,2,0,B|320:248,1,100,8|0
352,280,114315,2,0,B|400:328|448:272,1,100,0|0
448,232,114678,1,0
472,192,114799,1,0
448,152,114920,1,8
448,64,115162,1,0
360,64,115404,2,0,B|312:32|264:72,1,100,2|0
176,72,115888,2,0,B|128:40|80:80,1,100,10|0
80,168,116372,2,2,B|127:202|175:170,1,100
264,176,116856,5,0
352,176,117098,1,0
352,264,117340,2,2,C|328:288|304:264|248:296,2,100,2|2|10
440,264,118065,1,0
456,176,118307,1,8
424,88,118549,1,8
352,40,118791,1,8
264,56,119033,1,0
176,72,119275,2,2,C|144:108|96:88,1,100
48,160,119759,2,2,C|79:196|128:176,1,100,10|2
136,264,120243,1,8
208,320,120485,1,8
296,320,120727,5,8
368,264,120969,1,0
448,216,121211,2,2,C|448:176|424:176|424:136,2,100,2|2|10
368,264,121936,1,0
296,320,122178,1,8
224,264,122420,1,8
152,208,122662,1,8
88,144,122904,1,0
88,56,123146,2,2,C|135:76|167:40,1,100
256,40,123630,2,2,C|287:76|336:56,1,100,10|2
424,72,124114,2,0,B|504:120|512:208|456:296|368:296|360:280,1,300
280,264,125082,5,0
200,312,125323,1,0
200,224,125565,1,8
120,264,125807,1,0
72,336,126049,2,2,L|32:312|24:248,1,100,2|2
24,168,126533,1,10
24,80,126775,1,0
112,80,127017,5,0
200,80,127259,1,0
200,168,127501,1,8
288,168,127743,1,0
288,80,127985,2,2,L|328:48|380:76,1,100,2|2
440,128,128469,1,10
504,192,128711,1,0
440,256,128953,6,0,B|392:275|344:232,1,100
272,288,129436,2,0,B|248:328|176:320,1,100,8|0
152,232,129920,2,2,B|48:232,1,100
56,160,130404,1,10
408,56,130888,5,0
320,56,131130,1,0
248,104,131372,1,8
176,56,131614,1,0
176,144,131856,2,2,B|216:200|280:160,2,100,2|2|10
472,320,132823,5,0
472,232,133065,1,0
384,232,133307,1,8
384,144,133549,1,0
328,72,133791,2,0,B|296:48|248:56|232:96,1,100,2|0
240,176,134275,2,0,B|280:216|344:176,1,100,10|0
328,272,134759,1,0
240,272,135001,1,0
152,272,135243,1,8
64,272,135485,1,0
56,184,135727,2,0,B|72:152|112:136|152:152,1,100,2|0
232,144,136211,2,0,B|264:128|280:88|264:48,1,100,10|0
472,344,137178,5,8
424,264,137420,1,0
384,344,137662,1,0
336,264,137904,1,0
296,344,138146,1,8
248,264,138388,1,0
208,344,138630,1,0
160,264,138872,1,0
112,344,139114,2,2,B|48:264,1,100,2|2
48,176,139598,2,2,B|112:96,1,100
192,64,140082,2,2,B|312:48,1,100,10|2
80,224,147823,5,8
144,160,148065,1,0
208,96,148307,2,0,B|320:96,1,100,0|0
400,96,148791,1,8
456,168,149033,1,0
400,240,149275,2,2,B|424:304|344:336,1,100,2|2
272,328,149759,1,10
56,40,150485,5,0
56,128,150727,1,8
144,128,150969,1,0
144,40,151211,2,2,B|256:40,1,100,2|2
336,40,151694,1,10
456,232,152178,5,0
416,312,152420,1,0
336,264,152662,1,8
296,344,152904,1,0
232,272,153146,2,2,B|224:328|132:325,1,100,2|2
64,320,153630,1,10
192,40,154356,1,0
280,40,154598,2,0,B|326:71|374:39,1,100,8|0
464,40,155082,1,0
256,320,155807,5,0
168,320,156049,1,0
128,248,156291,1,2
128,248,156533,1,2
168,168,156775,1,0
256,168,157017,1,0
296,248,157259,1,0
256,320,157501,1,8
168,320,157743,1,0
128,248,157985,1,0
472,320,158711,5,0
472,232,158953,1,0
472,144,159194,1,0
472,56,159436,1,8
384,56,159678,1,0
296,56,159920,1,0
256,192,160162,5,2
256,192,160404,1,2
216,328,160646,5,0
128,328,160888,1,0
40,328,161130,1,0
40,240,161372,1,8
40,152,161614,1,0
40,64,161856,1,0
256,192,172017,12,12,174920
448,328,175404,6,0,B|336:328,1,100
344,240,175888,2,0,B|200:240,1,100
152,240,176372,1,2
72,152,176614,1,2
152,152,176856,1,2
72,240,177098,1,2
448,72,177582,1,0
376,128,177823,1,8
312,72,178065,1,0
224,72,178307,2,0,B|181:116|224:168,1,100,0|0
272,240,178791,1,10
328,312,179033,1,2
256,192,179759,12,12,182662
64,328,183146,6,0,B|176:328,1,100
168,240,183630,2,0,B|312:240,1,100
360,240,184114,1,2
440,152,184356,1,2
360,152,184598,1,2
440,240,184840,1,2
64,72,185323,1,0
24,152,185565,1,8
64,232,185807,1,0
136,280,186049,5,0
168,312,186170,1,0
200,280,186291,1,0
232,312,186412,1,0
264,280,186533,2,0,B|368:280,1,100,8|0
440,232,187017,1,0
456,144,187259,1,0
415,64,187501,2,8,B|368:23|320:72,1,100,8|0
248,120,187985,1,0
184,184,188227,1,0
120,120,188469,1,8
64,184,188711,1,0
120,256,188953,2,2,B|136:320|208:320,1,100
280,312,189436,1,10
456,96,189920,5,0
408,96,190041,1,0
408,144,190162,2,0,B|512:144,2,100,0|8|0
320,144,190888,1,0
232,144,191130,1,0
144,144,191372,2,0,B|91:166|114:231,1,100,8|0
200,232,191856,2,0,B|252:231|264:304,1,100,2|0
352,288,192340,2,0,B|412:321|456:248,1,100,10|0
480,192,192823,1,2
480,104,193065,1,2
480,16,193307,1,10
160,248,193791,5,0
112,248,193912,1,0
112,200,194033,1,0
160,200,194154,1,0
208,200,194275,2,0,B|312:200,1,100,8|0
400,200,194759,1,0
464,136,195001,1,0
400,71,195243,2,8,B|353:30|304:80,1,100,8|0
224,80,195727,1,0
136,80,195969,1,0
224,80,196211,1,8
136,80,196453,1,0
48,80,196694,2,2,B|48:216,1,100
48,272,197178,1,10
376,304,197662,5,0
408,272,197783,1,0
376,240,197904,2,0,B|432:232|456:168,2,100,0|8|0
376,152,198630,1,0
376,64,198872,1,0
288,64,199114,2,0,B|184:64,1,100,8|0
152,192,199598,2,0,B|96:208|64:144,1,100,2|0
40,240,200082,2,2,B|56:296|120:288,1,100,10|2
208,288,200565,1,2
304,288,200807,1,2
104,64,201533,5,0
136,96,201654,1,0
168,128,201775,1,0
200,96,201896,1,0
232,64,202017,2,0,B|336:64,1,100,8|0
424,64,202501,1,0
424,152,202743,1,0
336,152,202985,2,8,B|289:111|240:160,1,100,8|0
176,216,203469,1,0
104,160,203711,1,0
32,216,203953,1,8
104,272,204194,1,0
184,312,204436,2,2,B|224:352|280:336,1,100
368,336,204920,1,10
456,64,205404,5,0
408,64,205525,1,0
360,64,205646,2,0,B|360:168,2,100,0|8|0
272,64,206372,1,0
272,152,206614,1,0
183,151,206856,2,0,B|144:103|192:55,1,100,8|0
96,64,207340,2,0,B|136:104|104:160,1,100,2|0
32,104,207823,2,0,B|0:152|32:216,1,100,10|0
72,272,208307,1,2
160,272,208549,1,2
248,272,208791,1,10
448,64,209275,5,0
400,64,209396,1,0
400,112,209517,1,0
352,112,209638,1,0
304,112,209759,2,0,B|192:112,1,100,8|0
112,112,210243,1,0
24,112,210485,1,0
24,200,210727,2,8,L|64:232|104:200,1,100,8|0
192,200,211211,1,0
280,200,211453,1,0
368,200,211694,2,8,L|408:232|448:200,1,100,8|0
448,288,212178,2,4,B|416:329|352:305,1,100
264,304,212662,1,12
72,64,213146,5,0
72,112,213267,1,0
72,160,213388,2,0,B|8:248,2,100,0|8|0
160,160,214114,1,0
160,72,214356,1,0
248,72,214598,1,8
504,328,215093,6,2,B|408:384|312:328,1,200
312,152,215576,2,2,B|416:104|512:176,1,200,10|2
408,8,216060,1,2
224,8,216302,1,2
40,8,216544,1,10
