osu file format v5

[General]
AudioFilename: Black Eyed Peas-My humps.mp3
AudioLeadIn: 0
PreviewTime: -1
Countdown: 1
SampleSet: Normal
StackLeniency: 0.3
Mode: 0
LetterboxInBreaks: 1
EditorBookmarks: 14823,23408,31392,39739,47481,55223,70828,85223,92844,109054,125022,132522,147280,154054,171353,185869,193490,201232,208974

[Metadata]
Title:My Humps
Artist:Black Eyed Peas
Creator:kingcobra52
Version:Hard
Source:
Tags:

[Difficulty]
HPDrainRate:5
CircleSize:5
OverallDifficulty:5
SliderMultiplier:1.6
SliderTickRate:2

[Events]
//Background and Video events
0,0,"black_eyed_peas_1024x768.jpg"
//Break Periods
2,62865,70176
2,100366,108401
2,140526,146627
2,162060,170821
//Storyboard Layer 0 (Background)
//Storyboard Layer 1 (Failing)
//Storyboard Layer 2 (Passing)
//Storyboard Layer 3 (Foreground)
//Storyboard Sound Samples
//Background Colour Transformations
3,100,163,162,255

[TimingPoints]
8953,483.870967741935,4,1,0,100,1

[HitObjects]
224,312,15727,2,0,B|312:312,3,80,0|0|8|0
360,264,16694,1,0
416,216,16936,1,0
472,168,17178,1,8
368,64,17662,1,0
312,112,17904,1,0
256,160,18146,1,8
200,208,18388,1,0
168,272,18630,2,2,B|119:273|128:216,1,80
128,144,19114,1,10
32,32,19598,6,0,B|120:32,3,80,0|0|8|0
184,32,20565,1,0
240,72,20807,1,0
296,32,21049,1,8
432,80,21533,2,0,B|433:132|368:144,1,80,2|0
387,139,22017,2,0,B|334:126|304:176,1,80,10|0
256,200,22501,1,2
288,264,22743,1,2
216,264,22985,1,10
56,48,23711,5,0
112,96,23953,1,8
168,48,24194,1,0
224,96,24436,1,4
432,296,25162,1,0
376,344,25404,1,2
320,296,25646,1,0
264,344,25888,1,10
208,296,26130,1,0
152,344,26372,1,2
80,48,27098,5,0
128,96,27340,2,0,B|140:139|200:136,1,80,0|0
189,136,27823,2,0,B|242:120|272:176,1,80,8|0
320,200,28307,1,4
88,328,29033,1,0
160,312,29275,1,2
208,256,29517,1,0
200,184,29759,1,10
144,136,30001,1,0
72,136,30243,1,2
256,128,31936,5,0
320,96,32178,1,0
384,120,32420,1,0
440,160,32662,1,8
456,232,32904,1,0
424,296,33146,2,2,B|264:336,1,160,2|10
184,336,33872,5,0
112,320,34114,1,0
64,264,34356,1,0
48,192,34598,1,8
80,128,34840,1,0
136,80,35082,2,2,B|296:40,1,160,2|10
360,56,35807,5,0
408,112,36049,1,0
360,168,36291,1,0
408,224,36533,1,8
360,280,36775,1,0
288,280,37017,2,2,B|112:280,1,160,2|10
72,240,37743,5,0
120,192,37985,1,0
72,136,38227,1,0
120,88,38469,1,8
176,48,38711,1,0
248,48,38953,2,0,B|416:48,1,160,0|10
472,184,39920,6,0,B|488:240|432:272,1,80
452,257,40404,2,0,B|400:248|376:304,1,80,8|0
384,288,40888,2,2,B|352:328|288:352|232:312,1,160,2|10
40,200,41856,6,0,B|24:144|80:112,1,80
58,127,42340,2,0,B|110:136|134:80,1,80,8|0
125,96,42823,2,2,B|157:56|221:32|277:72,1,160,2|10
408,64,43791,5,0
352,112,44033,1,0
296,160,44275,1,8
240,208,44517,1,0
184,256,44759,2,0,B|104:328,1,80
192,344,45243,2,0,B|230:370|280:344,1,80,8|0
312,296,45727,2,0,B|352:260|392:304,1,80
448,320,46211,1,8
480,248,46453,1,0
480,176,46694,2,2,B|400:112,1,80
360,80,47178,1,10
64,72,47662,5,2
32,136,47904,1,0
56,200,48146,1,8
104,248,48388,1,0
160,288,48630,2,0,B|250:318|316:250,1,160,0|8
360,208,49356,1,0
416,256,49598,5,0
472,208,49840,1,0
472,136,50082,1,8
424,80,50323,1,0
352,64,50565,2,2,C|324:32|296:61|275:36|240:72,1,160,2|10
80,296,51533,5,0
144,328,51775,1,0
216,344,52017,2,0,B|249:369|293:342,2,80,8|0|0
216,272,52743,2,0,B|304:272,1,80,0|8
368,272,53227,1,0
432,304,53469,5,0
472,240,53711,1,0
464,168,53953,1,8
424,104,54194,1,0
368,56,54436,2,2,B|256:56,1,80
288,128,54920,2,2,B|184:128,1,80,10|2
136,128,55404,5,4
64,152,55646,1,0
48,224,55888,1,8
88,288,56130,1,0
160,296,56372,2,0,L|217:349|320:336,1,160,0|8
368,328,57098,1,0
424,280,57340,5,0
432,208,57582,1,0
400,144,57823,1,8
264,80,58307,2,2,L|192:60|136:128,1,160,2|10
48,240,59275,6,0,B|45:290|104:304,1,80
160,296,59759,1,8
216,344,60001,1,0
264,296,60243,2,0,B|440:296,1,160,0|8
424,224,60969,1,0
424,152,61211,5,0
424,80,61453,1,0
352,80,61694,1,8
280,80,61936,1,0
208,80,62178,2,2,B|202:167|96:184,1,160,2|10
256,192,71372,12,12,74275
216,192,74759,6,0,B|304:192,3,80,0|0|8|0
368,192,75727,2,2,B|472:192,1,80
448,264,76211,2,2,B|448:352,1,80,10|2
64,328,76936,1,0
128,296,77178,1,8
192,264,77420,1,0
256,232,77662,2,0,B|296:128|232:64,1,160,0|10
192,32,78388,1,2
256,192,79114,12,12,82017
288,192,82501,6,0,B|200:192,3,80,0|0|8|0
136,192,83469,2,2,B|48:192,1,80
56,264,83953,2,2,B|56:352,1,80,10|2
416,328,84678,1,0
360,280,84920,1,8
304,232,85162,1,0
360,192,85404,6,0,B|440:136,3,80
488,96,86372,1,0
424,56,86614,1,0
352,64,86856,1,8
208,64,87340,1,0
136,56,87582,1,0
80,104,87823,1,8
48,168,88065,1,0
64,240,88307,2,2,B|96:288|136:248,1,80
130,253,88791,1,10
392,312,89275,6,0,B|392:208,3,80,0|0|8|0
440,176,90243,1,0
392,120,90485,1,0
440,64,90727,1,8
144,24,91211,2,0,B|143:76|208:88,1,80,2|0
256,112,91694,2,0,B|291:132|278:185,1,80,10|0
256,248,92178,1,2
304,304,92420,1,2
352,248,92662,1,10
72,248,93146,6,0,B|168:248,2,80
48,176,93872,1,0
64,104,94114,1,0
120,64,94356,1,0
192,56,94598,1,8
360,64,95082,1,0
424,88,95323,1,0
456,152,95565,1,8
456,224,95807,1,0
392,264,96049,2,2,C|354:290|300:268|248:296,1,160,2|10
64,128,97017,6,0,B|152:128,3,80,0|0|8|0
216,128,97985,1,0
288,128,98227,1,0
360,128,98469,1,8
456,232,98953,2,0,B|457:284|392:296,1,80,2|0
336,296,99436,2,2,B|283:283|253:333,1,80,10|2
200,280,99920,1,2
136,240,100162,1,2
56,280,109598,6,0,C|88:240|136:264|184:208,1,160,0|8
271,271,110444,2,0,B|324:160|436:200,1,200,0|8
496,232,111291,1,0
496,152,111533,2,2,B|496:64,2,80
384,152,112380,2,0,B|343:62|264:41|192:72,1,200,0|8
160,80,113227,1,0
112,128,113469,6,0,B|56:208|144:288,1,160,0|8
224,328,114315,2,0,B|336:316|368:200,1,200,0|8
440,208,115162,1,0
440,280,115404,2,0,B|440:376,5,80,2|0|10|0|2|2
368,344,116856,5,0
328,280,117098,1,0
256,304,117340,2,2,C|220:340|183:297|128:336,1,160,2|10
88,280,118065,1,0
56,216,118307,1,8
64,144,118549,1,8
104,80,118791,1,8
248,88,119275,2,2,C|278:94|284:70|312:80,3,80,2|2|10|2
368,96,120243,1,8
432,128,120485,1,8
456,192,120727,5,8
432,256,120969,1,0
376,304,121211,2,2,C|326:284|296:319|232:296,1,160,2|10
168,280,121936,1,0
104,240,122178,1,8
40,200,122420,1,8
80,136,122662,1,8
224,136,123146,2,2,C|254:142|260:118|288:128,3,80,2|2|10|2
352,128,124114,2,0,B|435:141|486:228|440:320,1,240
376,344,125082,5,0
312,312,125323,1,0
248,344,125565,1,8
184,312,125807,1,0
120,344,126049,2,2,L|32:296|64:216,1,160,2|10
88,176,126775,1,0
56,112,127017,5,0
96,48,127259,1,0
168,32,127501,1,8
232,64,127743,1,0
288,104,127985,2,2,L|352:65|380:100|448:64,1,160,2|10
456,136,128711,1,0
488,200,128953,6,0,B|507:248|464:296,1,80
416,320,129436,2,0,B|396:360|336:352,1,80,8|0
272,352,129920,2,2,B|168:352,2,80,2|2|10
32,192,130888,5,0
80,248,131130,1,0
128,192,131372,1,8
176,248,131614,1,0
224,192,131856,2,2,B|264:159|304:200,2,80,2|2|10
432,56,132823,5,0
384,104,133065,1,0
328,152,133307,1,8
384,200,133549,1,0
432,256,133791,2,2,B|395:258|360:308|369:357|416:384,1,160,2|10
136,336,134759,1,0
80,288,135001,1,0
32,232,135243,1,8
88,184,135485,1,0
144,144,135727,2,2,B|166:106|215:97|265:132|267:169,1,160,2|10
408,56,137178,6,0,B|456:128,3,80,8|0|0|0
448,192,138146,2,0,B|400:272,3,80,8|0|0|0
344,296,139114,2,0,B|304:328|264:304,1,80,10|0
200,280,139598,2,0,B|152:272|144:200,1,80,2|0
144,152,140082,2,2,B|160:112|216:104,1,80,10|2
88,160,147823,5,8
152,184,148065,1,0
200,128,148307,2,0,B|368:128,1,160,0|8
424,160,149033,1,0
464,216,149275,2,2,B|488:280|444:328|360:320,1,160,2|10
72,312,150485,5,0
24,256,150727,1,8
64,200,150969,1,0
64,128,151211,2,2,B|107:81|164:74|232:128,1,160,2|10
344,80,152178,5,0
408,120,152420,1,0
424,192,152662,1,8
408,264,152904,1,0
368,320,153146,2,2,B|325:367|268:373|200:320,1,160,2|10
56,184,154356,1,0
56,104,154598,2,0,B|152:104,2,80,8|0|0
256,32,155807,5,0
256,104,156049,1,0
256,320,156775,1,0
256,248,157017,1,2
328,248,157259,1,0
328,320,157501,1,10
400,320,157743,1,0
400,248,157985,1,2
120,328,158711,5,0
56,288,158953,1,0
32,216,159194,1,0
64,152,159436,1,8
128,120,159678,1,0
200,128,159920,1,0
408,160,160646,1,0
464,208,160888,1,2
448,280,161130,1,0
400,336,161372,1,10
328,352,161614,1,0
264,312,161856,1,2
256,192,172017,12,12,174920
296,192,175404,6,0,B|208:192,3,80,0|0|8|0
144,192,176372,2,2,B|40:192,1,80
64,264,176856,2,2,B|64:352,1,80,10|2
448,328,177582,1,0
384,296,177823,1,8
320,264,178065,1,0
256,232,178307,2,0,B|216:128|280:64,1,160,0|10
320,32,179033,1,2
256,192,179759,12,12,182662
224,192,183146,6,0,B|312:192,3,80,0|0|8|0
376,192,184114,2,2,B|464:192,1,80
456,264,184598,2,2,B|456:352,1,80,10|2
96,328,185323,1,0
152,280,185565,1,8
208,232,185807,1,0
264,184,186049,6,0,B|336:112,3,80
368,72,187017,1,0
440,88,187259,1,0
472,152,187501,1,8
464,296,187985,1,0
400,336,188227,1,0
328,328,188469,1,8
264,288,188711,1,0
200,320,188953,2,2,B|166:355|134:307,1,80
88,256,189436,1,10
88,56,189920,6,0,B|176:56,3,80,0|0|8|0
240,56,190888,1,0
240,128,191130,1,0
312,128,191372,1,8
440,184,191856,2,0,B|486:192|485:244,1,80,2|0
472,312,192340,2,0,B|457:360|408:344,1,80,10|0
336,336,192823,1,2
336,264,193065,1,2
408,264,193307,1,10
88,264,193791,6,0,B|184:264,2,80,0|0|8
88,192,194517,1,0
88,120,194759,1,0
160,120,195001,1,0
160,48,195243,1,8
304,48,195727,1,0
352,104,195969,1,0
400,48,196211,1,8
448,104,196453,1,0
448,176,196694,2,2,C|410:202|356:180|304:208,1,160,2|10
120,120,197662,6,0,B|120:24,3,80,0|0|8|0
192,40,198630,1,0
192,112,198872,1,0
192,184,199114,1,8
80,272,199598,2,0,B|79:324|144:336,1,80,2|0
192,304,200082,2,2,B|212:270|265:283,1,80,10|2
328,312,200565,1,2
392,344,200807,1,2
392,88,201533,6,0,B|472:32,3,80,0|0|8|0
488,104,202501,1,0
432,152,202743,1,0
376,200,202985,1,8
256,288,203469,1,0
200,336,203711,1,0
144,288,203953,1,8
200,240,204194,1,0
200,168,204436,2,2,B|232:120|272:160,1,80
266,154,204920,1,10
456,336,205404,6,0,B|492:306|456:248,3,80,0|0|8|0
440,192,206372,1,0
480,128,206614,1,0
440,64,206856,1,8
232,48,207340,2,0,B|180:47|168:112,1,80,2|0
216,152,207823,2,0,B|251:172|238:225,1,80,10|0
208,288,208307,1,2
152,336,208549,1,2
80,344,208791,1,10
48,80,209275,6,0,B|144:80,2,80,0|0|8
48,152,210001,1,0
104,200,210243,1,0
160,248,210485,1,0
216,200,210727,1,8
360,200,211211,1,0
408,256,211453,1,0
456,200,211694,1,8
496,136,211936,1,0
456,72,212178,2,4,C|418:46|364:68|312:40,1,160,4|12
72,56,213146,6,0,B|72:152,3,80,0|0|8|0
72,208,214114,1,0
144,208,214356,1,0
216,208,214598,1,8
456,296,215082,6,2,B|456:352|400:360,1,80,2|2
392,288,215565,2,2,B|344:288|328:240,1,80,2|2
328,168,216049,1,2
328,96,216291,1,2
400,96,216533,1,2
