osu file format v6

[General]
AudioFilename: Black Eyed Peas - I Gotta Feeling.mp3
AudioLeadIn: 0
PreviewTime: -1
Countdown: 1
SampleSet: Soft
StackLeniency: 0.8
Mode: 0
LetterboxInBreaks: 1

[Editor]
Bookmarks: 206585,208250,208853
DistanceSpacing: 0
BeatDivisor: 6
GridSize: 32

[Metadata]
Title:I Gotta Feeling
Artist:Black Eyed Peas
Creator:Chryor
Version:Normal
Source:Chryor
Tags:Chryor

[Difficulty]
HPDrainRate:6
CircleSize:5
OverallDifficulty:6
SliderMultiplier:1.4
SliderTickRate:1

[Events]
//Background and Video events
0,0,"GCS0008.jpg"
//Break Periods
2,59848,74276
//Storyboard Layer 0 (Background)
//Storyboard Layer 1 (Fail)
//Storyboard Layer 2 (Pass)
//Storyboard Layer 3 (Foreground)
//Storyboard Sound Samples
//Background Colour Transformations
3,100,215,215,0

[TimingPoints]
3440.26048405295,458.845454545456,4,2,0,100,1,0

[HitObjects]
256,32,14223,1,0
256,96,14452,1,0
256,160,14681,1,0
256,224,14911,1,0
256,288,15140,1,0
288,352,15370,1,0
224,352,15599,1,0
160,320,16058,5,0
96,288,16287,1,0
64,224,16517,1,0
160,192,16976,5,0
224,192,17205,1,0
288,192,17435,1,0
192,64,18123,6,0,B|256:96,1,70
320,96,18582,1,0
320,96,19041,2,0,B|256:160,1,70
192,224,19499,1,0
192,224,19958,2,0,B|320:320|480:352,1,303.333333333333
384,128,21794,6,0,B|320:96,1,70
256,64,22329,1,0
160,128,22788,2,0,B|224:192,1,70
256,224,23247,1,0
256,64,23705,6,0,B|384:160|64:64,1,280
256,64,25694,6,0,B|288:128,1,70
288,192,26153,1,0
224,288,26611,2,0,B|160:256,1,70
128,192,27070,1,0
192,96,27529,6,0,B|416:128|416:288|256:256|256:160|160:160,1,420
128,192,29135,1,0
96,256,29365,1,0
160,288,29594,1,0
224,288,29823,1,0
288,288,30053,1,0
256,160,33188,5,0
288,96,33418,1,0
224,64,33647,1,0
128,96,34106,1,0
160,160,34335,1,0
192,224,34565,1,0
320,224,35024,1,0
384,128,35482,1,0
288,96,35941,1,0
96,224,36935,5,0
160,256,37165,1,0
224,256,37394,1,0
320,224,37853,1,0
352,160,38083,1,0
288,128,38312,1,0
192,96,38771,1,0
128,192,39230,1,0
224,256,39689,1,0
416,128,40683,5,0
352,160,40912,1,0
288,192,41142,1,0
192,160,41600,1,0
160,96,41830,1,0
96,128,42059,1,0
96,224,42518,1,0
192,288,42977,1,0
288,224,43436,1,0
384,160,43895,2,0,B|256:64,1,140
288,64,45348,5,0
224,96,45577,1,0
224,160,45806,1,0
288,160,46036,1,0
256,128,47183,5,0
320,96,47412,1,0
320,160,47642,1,0
352,224,47871,1,0
352,224,49095,5,0
288,192,49324,1,0
224,224,49554,1,0
160,192,49783,1,0
96,224,50013,1,0
256,96,50930,5,0
288,160,51160,1,0
320,224,51389,1,0
352,288,51619,1,0
96,128,52842,5,0
96,128,53072,2,0,B|160:160,2,70
384,96,54754,5,0
384,96,54983,2,0,B|320:160,2,70
96,128,56589,5,0
96,128,56819,2,0,B|160:160,3,70
160,192,58501,5,0
160,192,58731,2,0,B|224:224,1,70
352,128,59648,1,0
256,192,75326,5,0
256,192,75555,2,0,B|320:256,2,70
256,192,77467,1,0
320,192,77696,1,0
384,192,77926,1,0
320,192,79149,5,0
320,192,79379,2,0,B|256:224,2,70
288,160,80985,5,0
288,160,81214,2,0,B|224:224,1,70
224,224,82132,1,0
96,64,82896,5,0
96,64,83126,2,0,B|160:128,2,70
384,64,84732,5,2
384,64,84961,2,2,B|320:128,2,70
160,224,86567,5,2
160,224,86797,2,2,B|224:256,2,70
256,208,88479,12,2,90162
256,64,90850,5,2
256,128,91079,1,2
256,192,91309,1,2
192,96,91768,1,2
192,160,91997,1,2
192,224,92226,1,2
128,128,92685,5,2
128,192,92915,1,2
128,256,93144,1,2
192,288,93373,2,2,B|352:320|416:160,1,280
352,96,94597,5,2
288,96,94826,1,2
224,96,95056,1,2
160,160,95515,5,2
224,192,95744,1,2
288,224,95974,1,2
384,256,96432,2,2,B|352:32|128:128,1,350
128,192,97809,1,2
224,256,98268,5,2
288,256,98497,1,2
352,256,98727,1,2
352,128,99262,5,2
288,96,99491,1,2
224,96,99721,1,2
160,128,99950,1,2
128,192,100180,1,2
128,256,100409,1,2
160,320,100639,1,2
256,256,101097,6,2,B|320:224,2,70
256,160,102015,2,2,B|192:192,2,70
128,96,103009,6,2,B|192:128,2,70
96,192,103927,5,2
160,192,104156,1,2
224,192,104386,1,2
288,192,104615,1,2
352,192,104845,2,2,B|384:192,3,23.3333333333333
256,208,105992,12,2,107598
256,32,108209,5,2
256,96,108439,1,2
256,160,108668,1,2
256,256,109127,1,2
256,192,109357,1,2
256,128,109586,1,2
192,32,110045,6,2,B|192:192,2,140
256,256,111957,5,2
256,192,112186,1,2
256,128,112416,1,2
256,32,112874,1,2
256,96,113104,1,2
256,160,113333,1,2
320,256,113792,6,2,B|320:96,2,140
256,32,115627,5,2
256,96,115857,1,2
256,160,116086,1,2
256,256,116545,1,2
320,256,116775,1,2
384,256,117004,1,2
448,256,117539,6,2,B|448:96,3,140
448,64,119145,1,2
384,32,119375,1,2
320,32,119604,1,0
256,32,119834,1,0
192,32,120063,1,0
256,208,120445,12,0,122510
64,160,123198,5,0
128,160,123428,1,0
192,160,123657,1,0
320,160,124116,1,0
384,160,124346,1,0
448,160,124575,1,0
384,256,125034,1,0
256,256,125493,1,0
160,256,125951,1,0
256,64,126869,5,0
256,128,127099,1,0
256,192,127328,1,0
256,320,127787,1,0
256,256,128016,1,0
256,192,128246,1,0
160,160,128705,1,0
256,128,129163,1,0
352,160,129622,1,0
96,64,130693,6,0,B|160:128,2,70
160,160,131611,2,0,B|224:224,2,70
256,224,132528,2,0,B|384:288,3,140
448,256,134134,1,0
480,192,134364,1,0
256,64,135358,6,0,B|224:128,3,70
224,128,136505,1,0
224,160,137193,6,0,B|256:224,7,70
288,128,139029,6,0,B|320:192,4,70
256,96,140940,6,0,B|288:160,7,70
256,96,142852,6,0,B|288:160,3,70
288,160,143923,1,0
288,192,144764,6,0,B|256:256,7,70
192,224,146600,6,0,B|224:160,4,70
160,192,148511,5,0
224,192,148741,1,0
288,192,148970,1,0
352,192,149659,1,0
288,192,150347,5,0
224,192,150576,1,0
160,192,150806,1,0
96,192,151035,1,0
96,256,151264,2,0,B|160:288,1,70
192,288,152488,1,0
256,288,152717,1,0
320,288,152947,1,0
384,288,153176,2,0,B|448:320,2,70
384,96,154094,5,0
320,128,154323,1,0
256,160,154553,1,0
192,192,154782,1,0
128,224,155318,2,0,B|64:256,2,70
128,288,156006,5,0
192,288,156235,1,0
256,288,156465,1,0
384,288,157153,1,0
384,64,157841,5,0
320,64,158071,1,0
256,64,158300,1,0
192,64,158530,1,0
96,64,158988,1,0
96,128,159218,1,0
96,192,159447,1,0
192,192,159753,5,0
256,192,159983,1,0
320,192,160212,1,0
384,192,160441,1,0
384,256,160824,1,0
320,256,161053,1,0
288,256,161206,1,0
128,288,161588,5,0
128,224,161818,1,0
128,160,162047,1,0
128,96,162277,1,0
256,208,163118,12,0,165412
256,192,165871,5,0
288,256,166100,1,0
224,256,166330,1,0
256,192,166789,1,0
224,128,167018,1,0
288,128,167248,1,0
256,192,167706,1,0
288,256,167936,1,0
224,256,168165,1,0
352,256,168395,6,0,B|416:192,3,70
256,192,169618,5,0
288,256,169848,1,0
224,256,170077,1,0
256,192,170536,1,0
224,128,170765,1,0
288,128,170995,1,0
256,192,172601,5,0
256,192,172830,1,0
352,192,173289,1,0
352,192,173518,1,0
352,192,173748,1,0
256,192,174283,5,0
256,192,174513,1,0
256,192,174742,1,0
256,192,174971,1,0
256,192,175201,1,0
256,192,175430,1,0
256,192,175660,1,0
256,64,176119,5,0
256,64,176348,1,0
256,64,176577,1,0
256,192,177036,1,0
256,192,177266,1,0
256,192,177495,1,0
256,320,178030,5,0
256,320,178260,1,0
256,320,178489,1,0
256,320,178719,1,0
256,320,178948,1,0
256,320,179178,1,0
256,320,179407,1,0
256,320,179636,1,0
256,320,179866,1,0
384,320,180172,5,0
384,256,180401,1,0
384,192,180631,1,0
320,192,181089,1,0
320,256,181319,1,0
320,320,181548,1,0
256,320,182007,1,0
256,256,182237,1,0
256,192,182466,1,0
256,128,182695,1,0
256,192,183919,6,0,B|288:256,2,70
256,192,184837,2,0,B|192:256,2,70
256,128,185754,1,0
256,64,185984,1,0
192,64,186213,1,0
192,128,186443,1,0
256,192,187666,5,0
256,192,187896,1,0
256,192,188125,1,0
320,192,188584,1,0
256,192,188813,1,0
192,192,189043,1,0
288,256,189502,2,0,B|224:320,3,70
256,192,191413,2,0,B|224:256,2,70
256,192,192331,2,0,B|288:256,2,70
256,96,193249,5,0
256,96,193478,1,0
256,96,193708,1,0
256,96,193937,1,0
256,192,195161,6,0,B|96:192,1,140
256,192,196078,2,0,B|416:192,1,140
256,192,196996,2,0,B|256:320,1,116.666666666667
320,320,197608,6,0,B|448:192|320:96|288:128,1,256.666666666667
256,192,198908,6,0,B|416:192,1,140
256,192,199826,2,0,B|96:192,1,140
256,192,200743,2,0,B|256:352,1,140
256,32,201661,6,0,B|256:256,1,210
256,242,202579,5,0
256,242,202808,1,0
256,242,203038,1,0
256,242,203267,1,0
256,242,203496,1,0
256,242,203726,1,0
256,242,203955,1,0
256,32,204491,6,0,B|288:96,4,70
256,32,205638,1,0
256,192,206402,6,0,B|288:256,4,70
256,192,207550,1,0
256,192,207779,1,0
256,192,208008,1,0
352,128,208238,5,0
288,128,208467,1,0
224,128,208697,1,0
160,128,208926,1,0
96,128,209155,1,0
256,208,209232,12,0,213132
