osu file format v5

[General]
AudioFilename: The Black Eyed Peas - Boom Boom Pow.MP3
AudioLeadIn: 0
PreviewTime: -1
Countdown: 1
SampleSet: Normal
StackLeniency: 0.2
Mode: 0
LetterboxInBreaks: 1
EditorBookmarks: 28478,43709,88017,133017,153324
EditorDistanceSpacing: 1

[Metadata]
Title:Boom Boom Pow
Artist:Black Eyed Peas
Creator:Symbolic
Version:Hard
Source:
Tags:

[Difficulty]
HPDrainRate:8
CircleSize:4
OverallDifficulty:6
SliderMultiplier:2
SliderTickRate:0.5

[Events]
//Background and Video events
0,0,"background.jpg"
//Break Periods
2,59140,65505
2,103678,108890
2,147524,152274
//Storyboard Layer 0 (Background)
//Storyboard Layer 1 (Fail)
//Storyboard Layer 2 (Pass)
//Storyboard Layer 3 (Foreground)
//Storyboard Sound Samples
//Background Colour Transformations
3,100,163,162,255

[TimingPoints]
13017,461.538461538462,4,1,0,50,1,0
34709,-100,4,1,0,0,0,0
34940,-100,4,1,0,50,0,0
36555,-100,4,1,0,0,0,0
36786,-100,4,1,0,50,0,0
76478,-50,4,1,0,50,0,0
76940,-100,4,1,0,50,0,0
133017,-100,4,1,0,50,0,0
135786,-100,4,1,0,100,0,0
136709,-100,4,1,0,50,0,0
139478,-100,4,1,0,100,0,0
140401,-100,4,1,0,50,0,0
141324,-100,4,1,0,100,0,0
142247,-100,4,1,0,50,0,0
143170,-100,4,1,0,80,0,0
144093,-100,4,1,0,50,0,0
153324,-100,4,1,0,50,0,0
162555,-100,4,2,0,80,0,0
169247,-100,4,1,0,50,0,0

[Colours]
Combo1 : 222,3,3
Combo2 : 195,224,243
Combo3 : 116,146,172
Combo4 : 32,59,84

[HitObjects]
208,192,6786,5,0
256,192,6901,1,0
304,192,7017,1,0
256,192,7247,12,2,8401
304,192,8632,5,0
256,192,8747,1,0
208,192,8863,1,0
256,192,9093,12,2,10247
208,192,10478,5,0
256,192,10593,1,0
304,192,10709,1,0
256,192,10940,12,2,12093
304,192,12324,5,0
256,192,12439,1,0
208,192,12555,2,0,C|176:192,8,25,0|0|0|0|0|0|0|0|8
176,336,13363,1,8
336,336,13709,1,8
304,136,14170,2,8,C|184:136,1,100
8,192,14863,5,2
256,192,15209,1,2
504,192,15555,1,2
256,280,16017,5,0
256,232,16132,1,0
304,232,16247,1,8
408,232,16478,1,0
504,192,16709,5,2
256,192,17055,1,2
8,192,17401,1,2
256,104,17863,5,0
256,152,17978,1,0
208,152,18093,1,8
104,152,18324,1,0
8,192,18555,5,2
256,192,18901,1,2
504,192,19247,1,2
256,280,19709,5,0
256,232,19824,1,0
304,232,19939,1,8
408,232,20170,1,0
504,192,20401,5,2
256,192,20747,1,2
8,192,21093,1,2
256,104,21555,5,0
256,152,21670,1,0
208,152,21785,1,8
104,152,22016,1,0
8,192,22247,5,2
256,192,22593,1,2
504,192,22939,1,2
360,48,23401,6,0,C|248:96,1,100,4|8
168,88,23863,5,0
64,88,24093,5,2
64,88,24440,1,2
64,88,24786,1,2
64,296,25247,6,0,C|184:256,1,100,4|8
256,264,25709,5,0
352,264,25940,5,2
352,264,26286,1,2
352,264,26632,1,2
160,192,27093,5,4
256,192,27324,1,8
352,192,27555,1,0
256,192,27786,6,4,C|256:40,1,150,4|4
256,42,28478,5,0
56,40,28940,2,8,B|96:88|56:136,1,100,8|8
60,131,29401,2,0,B|20:179|60:227,1,100,0|0
56,320,29863,1,0
56,320,29978,1,2
152,320,30209,1,0
152,320,30324,1,2
352,320,30786,6,0,B|416:320,1,50,0|0
448,320,31017,2,0,B|472:264|448:216,1,100,8|0
352,224,31478,1,2
352,72,31824,1,2
448,72,32055,1,0
448,120,32170,1,2
256,120,32632,6,0,B|136:120,2,100,0|8|0
352,120,33324,2,0,B|360:208|240:208,1,150
104,208,34017,2,2,B|224:208|200:72|64:72|32:232,1,300,0|0
40,304,34940,5,0
136,304,35170,1,0
136,304,35517,1,0
136,304,35863,2,2,B|16:304|40:168|176:168|200:328,1,300
296,304,36786,5,0
392,304,37017,1,0
392,208,37247,1,0
392,160,37363,2,0,B|288:160|296:272,1,150,0|2
96,248,38170,5,0
96,152,38401,1,8
192,248,38632,1,0
192,152,38863,1,0
288,152,39093,1,0
288,152,39209,2,0,B|408:216|248:264,1,150
288,48,40017,6,0,B|176:48,2,100,0|8|0
288,144,40709,6,2,B|448:144,2,150
288,344,41863,5,0
288,296,41978,1,0
288,248,42093,1,8
288,248,42324,1,0
184,248,42555,6,10,B|24:248,2,150
504,8,43709,5,0
504,104,43940,1,8
408,104,44170,1,0
408,200,44401,2,2,B|304:200|440:336,2,150
208,200,45555,5,0
208,104,45786,1,8
112,200,46017,1,0
112,104,46247,1,0
208,104,46478,1,0
208,104,46593,2,0,B|328:168|168:216,1,150,0|2
384,104,47401,6,0,B|360:160|384:216,1,100,0|8
296,152,47863,2,0,B|296:208|352:232,1,100
448,232,48324,1,0
448,232,48440,1,0
352,352,48786,1,2
224,352,49074,1,2
224,280,49247,6,0,B|184:224|248:152,3,100,0|8|0|0
376,184,50286,1,0
223,186,50632,1,0
64,64,51093,5,0
160,64,51324,1,8
232,128,51555,1,0
232,224,51786,2,0,B|96:224|88:152,1,150
96,177,52247,1,8
96,272,52478,1,0
120,64,52940,5,0
216,64,53171,1,8
288,128,53402,1,0
288,224,53633,2,0,B|152:224|144:152,1,150
152,177,54094,1,8
152,272,54325,1,0
352,272,54786,5,0
448,272,55017,1,8
352,272,55247,1,0
352,176,55478,1,2
352,24,55824,1,2
352,176,56170,1,2
176,272,56632,5,0
80,272,56863,1,8
176,272,57093,1,0
176,176,57324,1,10
176,24,57670,1,10
176,176,58017,1,10
256,360,58478,5,8
256,312,58593,1,0
256,264,58709,1,8
256,216,58824,1,0
256,168,58940,1,8
8,32,66555,5,2
256,32,66901,1,2
504,32,67247,1,2
408,192,67709,5,0
408,288,67940,1,8
408,192,68170,5,0
504,192,68401,5,2
256,192,68747,1,2
8,192,69093,1,2
104,352,69555,5,0
104,256,69786,1,8
104,352,70016,5,0
8,352,70247,5,2
256,352,70593,1,2
504,352,70940,1,2
304,312,71401,5,0
208,312,71632,1,8
8,312,72093,5,10
256,312,72440,1,10
504,312,72786,1,10
344,192,73247,6,0,C|240:192,3,100,0|8|0|0
160,144,74170,2,2,C|232:144,1,50
160,232,74517,2,2,C|216:232,1,50
408,192,75093,5,0
376,96,75324,1,8
272,96,75555,1,0
240,192,75786,1,0
88,192,76132,1,0
88,40,76478,2,2,L|464:40|464:104,1,400
464,160,77170,2,0,L|352:160,2,100
464,256,77863,1,2
464,256,77978,1,2
464,352,78209,1,2
464,352,78324,1,2
264,352,78786,5,0
248,248,79017,1,8
264,144,79247,1,0
248,40,79478,2,2,L|88:40,2,150
248,240,80632,6,0,L|128:240,2,100,0|8|0
248,240,81324,2,0,L|248:112,1,100
248,140,81670,2,0,L|433:140,1,150
440,336,82478,6,0,L|440:192,2,100,0|8|0
440,336,83170,2,0,L|304:336,1,100
340,336,83517,2,0,L|340:176,1,150
160,96,84324,5,0
160,192,84555,1,8
256,192,84786,1,0
256,96,85017,1,2
408,96,85363,1,2
256,96,85709,1,2
256,296,86170,5,4
160,296,86401,1,8
160,192,86632,1,0
256,192,86863,1,4
408,192,87209,1,4
256,192,87555,1,8
152,16,88017,5,8
360,16,88247,1,8
360,112,88478,5,0
352,160,88593,1,0
304,184,88709,1,0
208,184,88940,1,0
160,160,89056,1,0
152,112,89171,1,0
152,112,89401,1,0
152,112,89632,1,0
200,304,90093,6,0,B|184:256|208:200,1,100
256,208,90440,1,0
303,208,90555,2,0,B|325:159|309:111,1,100,0|0
216,112,91017,1,8
309,111,91247,1,0
216,112,91478,1,0
32,192,91940,6,0,B|144:192,1,100
132,192,92459,6,2,B|272:192,1,125
257,192,92863,6,0,B|376:192,1,100,8|0
357,192,93324,6,0,B|464:192,1,100
457,192,93786,5,8
400,104,94017,2,0,B|352:88|296:104,1,100
302,102,94478,2,0,B|254:118|198:102,1,100,0|8
204,103,94940,2,0,B|156:87|100:103,2,100
160,192,95632,5,8
352,192,96093,1,0
256,192,96324,2,0,B|256:136,2,50,0|0|8
256,288,96786,1,0
256,288,97017,2,2,B|144:288|144:144,1,200,0|8
336,192,97940,5,0
240,192,98171,2,0,B|240:248,2,50,0|0|8
240,96,98633,1,0
240,96,98864,2,2,B|128:96|128:240,1,200,0|8
320,192,99786,6,0,B|368:280|320:312,1,100
288,288,100132,1,0
240,288,100247,2,0,B|192:200|240:168,1,100,8|0
272,104,100709,2,0,B|168:56,1,100
184,160,101170,2,0,B|288:208,1,100,8|0
271,303,101632,2,0,B|181:262,1,100,0|0
88,224,102093,2,0,B|64:272|88:336,1,100,8|0
184,320,102555,2,2,B|280:320|280:216|176:216,2,200,0|8|0
8,376,109940,5,0
256,192,110401,1,8
504,8,110863,1,0
256,192,111324,12,0,112247
256,192,112363,12,0,113170
256,192,113286,12,0,114093
256,192,114555,5,0
256,192,114670,1,0
256,192,114786,1,0
256,192,114901,1,0
256,192,115017,1,8
256,192,115132,1,0
256,192,115247,1,0
256,192,115363,1,0
256,192,115478,1,0
256,192,115593,1,0
256,192,115709,1,0
256,192,115824,1,0
256,192,115940,5,8
456,192,116401,6,8,B|360:176|272:200,1,150
256,192,116863,2,0,B|160:216|120:184,1,100
256,24,117555,2,8,B|256:128,1,100,0|8
256,224,118017,5,0
256,320,118247,1,0
304,320,118363,5,0
352,320,118478,1,0
448,320,118709,5,8
448,272,118824,1,0
448,224,118940,1,0
352,224,119170,5,0
304,224,119286,1,0
256,224,119401,1,0
160,224,119632,5,8
112,224,119747,1,0
64,224,119863,1,0
64,176,119978,1,0
64,128,120093,1,0
112,128,120209,1,0
160,128,120324,1,0
256,128,120555,5,8
304,128,120670,1,0
352,128,120786,1,0
448,128,121017,5,0
448,80,121132,1,0
448,32,121247,1,0
352,32,121478,5,8
304,32,121593,1,0
256,32,121709,1,0
208,32,121824,1,0
160,32,121940,1,0
112,32,122055,1,0
64,32,122170,1,0
64,128,122401,5,8
64,176,122517,1,0
64,224,122632,1,0
64,320,122863,5,0
112,320,122978,1,0
160,320,123093,1,0
256,320,123324,5,8
304,320,123440,1,0
352,320,123555,1,0
400,320,123670,1,0
448,320,123786,1,0
448,272,123901,1,0
448,224,124017,1,0
352,224,124247,6,0,B|352:104,1,100,8|0
272,176,124709,2,0,B|160:176,1,100,8|0
224,88,125170,2,10,B|80:48|80:208,1,200,8|8
248,288,126093,5,8
248,96,126555,1,0
248,192,126786,5,0
248,192,127247,1,0
496,24,127940,5,8
496,120,128170,1,0
400,24,128401,1,0
400,120,128632,1,0
304,24,128863,2,2,B|304:232,1,200,8|4
152,352,129786,5,8
56,352,130017,5,0
56,256,130247,1,0
152,256,130478,1,0
240,72,130940,1,2
40,40,131401,5,8
472,40,131863,1,8
472,344,132324,1,8
40,344,132786,1,4
40,240,133017,5,0
88,240,133132,1,0
136,240,133247,1,0
136,144,133478,5,8
88,144,133593,1,0
40,144,133709,1,0
40,240,133940,5,0
96,240,134054,1,0
136,240,134170,1,0
136,144,134401,5,8
88,144,134517,1,0
40,144,134632,1,0
112,72,134863,6,0,B|224:72,1,100
312,72,135324,2,0,B|368:176,1,100,8|0
408,160,135670,1,0
456,160,135786,5,2
56,160,136247,1,2
256,160,136709,5,0
256,256,136940,1,0
256,160,137170,1,8
256,64,137401,1,0
256,64,137517,1,0
256,64,137632,1,0
256,64,137747,1,0
256,64,137863,1,0
152,64,138093,2,0,B|96:64,2,50,8|0|0
152,160,138555,2,0,B|88:160,2,50
256,160,139017,1,8
152,160,139247,1,0
104,160,139363,1,0
56,160,139478,5,2
456,160,139940,1,2
456,360,140401,5,0
408,360,140517,1,0
360,360,140632,1,0
256,360,140863,1,8
152,360,141093,1,0
104,360,141209,1,0
56,360,141324,5,2
456,360,141786,1,2
456,160,142247,5,0
408,160,142363,1,0
360,160,142478,1,0
256,160,142709,1,8
152,160,142940,1,0
104,160,143055,1,0
56,160,143170,5,0
456,160,143632,1,0
304,32,144093,5,2
208,32,144324,6,0,B|208:152,1,100,0|8
208,232,144786,2,0,B|208:336,1,100
304,332,145247,2,0,B|304:228,1,100,0|8
303,131,145709,2,0,B|303:19,1,100,0|2
208,32,146170,5,0
208,32,146401,1,8
136,96,146632,1,0
56,32,146863,5,2
456,32,147324,1,6
256,192,153324,6,0,C|256:128,5,50,0|0|0|0|8|0
208,56,154132,6,0,B|264:24|328:72,1,100
256,192,154709,1,0
256,240,154824,1,0
120,296,155170,5,0
152,256,155286,1,0
160,208,155401,1,0
56,208,155632,5,8
24,168,155747,1,0
16,120,155862,1,0
112,120,156093,5,0
160,120,156209,1,0
208,120,156324,1,0
304,120,156555,5,8
296,168,156670,1,0
264,208,156785,1,0
160,208,157017,5,0
168,256,157132,1,0
200,296,157248,1,0
296,296,157478,6,0,B|416:296,1,100
396,296,157940,2,0,B|396:82,1,200,0|8
208,32,158863,5,0
256,32,158978,1,0
304,32,159093,5,0
400,32,159324,1,8
304,128,159555,1,0
400,128,159786,1,0
304,224,160016,1,0
400,224,160247,1,8
304,320,160478,1,0
104,320,160940,5,0
200,320,161170,1,8
104,224,161401,1,8
200,224,161632,1,8
200,32,162093,1,12
376,120,162555,6,0,B|376:280,1,150
376,270,163017,1,8
304,344,163247,2,0,B|240:344,1,50
200,344,163478,2,0,B|144:344,1,50
96,344,163709,2,0,B|96:288,1,50,0|0
96,240,163940,2,0,B|184:240,1,50,8|0
200,240,164170,2,0,B|264:240,1,50
304,240,164401,6,0,B|304:88,1,150
304,90,164863,2,0,B|159:90,1,100
96,88,165324,5,0
96,240,165670,1,0
96,240,165786,1,8
96,136,166017,1,0
184,88,166247,5,0
336,88,166593,1,0
336,88,166709,1,8
432,88,166940,1,0
456,128,167055,1,0
472,176,167170,1,0
472,224,167286,1,0
456,272,167401,1,0
432,320,167517,1,0
408,272,167632,1,8
392,224,167747,1,0
392,176,167863,1,0
408,128,167978,1,0
432,88,168093,5,0
280,88,168440,1,0
280,136,168555,1,8
280,232,168786,2,0,B|280:304|176:296,1,100
112,296,169247,5,0
48,216,169478,1,8
48,112,169709,1,0
112,32,169940,1,2
184,160,170286,1,2
184,160,170632,1,2
384,160,171093,5,0
384,160,171324,1,8
384,160,171555,1,0
384,160,171786,1,0
384,256,172017,1,0
384,256,172132,1,0
232,256,172478,1,6
232,64,172940,5,0
232,64,173170,1,8
232,64,173401,1,0
232,64,173632,1,0
232,160,173863,1,0
232,160,173978,1,0
384,160,174324,1,2
384,64,174555,1,2
384,64,174786,6,0,B|272:64,1,100,0|8
184,64,175247,2,0,B|72:64,1,100,0|2
184,168,175824,1,2
328,168,176170,1,2
256,352,176632,6,0,B|256:248,3,100,0|8|0|0
256,104,177670,2,8,B|256:40,1,50,0|8
256,152,178017,1,4
256,352,178478,5,0
352,352,178709,1,8
256,352,178940,1,0
160,352,179170,1,0
256,232,179517,1,0
256,232,179632,1,8
160,232,179863,1,4
352,232,180324,5,0
352,128,180555,1,8
256,232,180786,1,0
256,128,181017,2,2,B|104:128,2,150
456,128,182170,5,0
456,224,182401,1,8
360,128,182632,1,0
360,224,182863,2,2,B|360:344|424:344,2,150
160,224,184017,5,8
128,184,184133,1,0
112,136,184247,1,8
128,88,184363,1,0
160,48,184478,1,8
256,48,184709,5,2
48,336,185055,1,2
464,336,185401,1,2
376,152,185863,5,4
344,192,185978,1,0
312,232,186093,1,8
352,320,186324,1,0
256,336,186555,5,2
464,48,186901,1,2
48,48,187247,1,2
136,232,187709,5,4
168,192,187824,1,0
200,152,187939,1,8
160,64,188170,1,0
256,48,188401,5,2
464,336,188747,1,2
48,336,189093,1,2
136,152,189555,5,4
168,192,189670,1,0
200,232,189785,1,8
160,320,190016,1,0
256,336,190247,5,2
48,48,190593,1,2
464,48,190939,1,2
320,192,191401,5,4
328,144,191516,1,0
368,112,191632,1,8
464,96,191863,1,0
464,192,192093,5,2
48,192,192439,1,2
464,192,192786,1,2
256,192,193247,6,0,B|256:120|304:64,1,100
384,96,193709,5,0
384,192,193940,6,2,B|384:344,2,150
256,192,195093,6,0,B|256:120|208:64,1,100
128,96,195555,5,0
128,192,195786,6,2,B|128:344,2,150
128,192,196940,5,0
384,192,197170,1,8
256,32,197632,5,8
256,184,197978,2,0,B|256:248,1,50,8|8
336,296,198324,1,8
128,192,198786,1,8
384,192,199017,1,12
