osu file format v7

[General]
AudioFilename: 295961_Violin_vs._Synth_V1.2.mp3
AudioLeadIn: 0
PreviewTime: -1
Countdown: 1
SampleSet: Soft
StackLeniency: 0.7
Mode: 0
LetterboxInBreaks: 1

[Editor]
Bookmarks: 12000,18000,21000,24000,30000,36000,42000,48000,54000,60000,66000,72000,78000,84000,90000,96000,108000,120000,126000,132000,138000,144000
DistanceSpacing: 0.800000011920929
BeatDivisor: 4
GridSize: 8

[Metadata]
Title:Violin vs. Synthesizer
Artist:Bjra
Creator:Bullsh0t
Version:Quick Violin
Source:
Tags:

[Difficulty]
HPDrainRate:6
CircleSize:5
OverallDifficulty:6
SliderMultiplier:1.4
SliderTickRate:1

[Events]
//Background and Video events
0,0,"BG.png"
//Break Periods
2,36200,46950
2,96200,106950
//Storyboard Layer 0 (Background)
//Storyboard Layer 1 (Fail)
//Storyboard Layer 2 (Pass)
//Storyboard Layer 3 (Foreground)
//Storyboard Sound Samples
//Background Colour Transformations
3,100,163,162,255

[TimingPoints]
0,375,4,2,0,100,1,0

[Colours]
Combo1 : 0,128,255
Combo2 : 224,209,31
Combo3 : 255,128,0
Combo4 : 128,0,0
Combo5 : 0,128,128

[HitObjects]
256,192,12000,1,4
320,144,12281,1,0
392,192,12562,1,0
256,288,13125,1,0
208,256,13312,1,0
160,224,13500,1,8
160,144,13781,5,0
240,112,14062,1,0
296,104,14250,1,8
376,120,14531,1,0
456,152,14812,1,0
480,200,15000,5,8
400,240,15281,1,0
312,248,15562,1,0
136,248,16125,1,0
96,208,16312,1,0
136,168,16500,1,8
216,152,16781,1,0
296,144,17062,1,0
328,184,17250,2,8,B|336:192|352:200|360:216|376:224|384:240,3,70,8|0|8|0
344,280,18000,5,4
256,280,18281,1,0
168,280,18562,1,0
40,160,19125,1,0
80,120,19312,1,0
128,96,19500,1,8
208,96,19781,1,0
296,96,20062,1,0
296,152,20250,1,8
208,152,20531,1,0
208,232,20812,1,0
256,232,21000,5,8
344,232,21281,1,0
440,232,21562,1,0
440,48,22125,1,0
336,16,22500,2,0,B|96:184,1,280,8|0
328,192,24000,6,4,B|328:40|256:40|280:56,2,140
320,248,24937,1,0
288,296,25125,1,0
240,328,25312,2,0,B|160:344|80:320|32:280|16:216|24:160|56:128,1,350,8|0
176,144,26625,1,0
208,96,26812,1,0
256,72,27000,2,8,B|336:48|424:104|472:192|432:272|384:312|320:344,1,420,8|0
272,336,28312,1,0
224,312,28500,2,8,B|136:200,1,140,8|0
80,104,29250,2,0,B|240:144,1,140,8|0
328,192,30000,6,4,B|480:192,2,140
216,192,31125,1,0
160,192,31312,2,0,B|48:176|32:96|64:40|144:16|248:40|336:48|400:80,1,490,8|0
392,136,32812,1,0
352,184,33000,2,0,B|184:184,1,140,8|0
96,192,33750,1,8
136,152,33937,1,0
184,128,34125,1,0
240,112,34312,1,0
296,112,34500,2,4,B|328:80|328:80|360:120|360:120|392:72|392:72,3,140,4|4|8|4
256,192,36000,5,4
256,80,48000,5,4
344,80,48281,1,0
408,136,48562,1,0
432,304,49125,1,0
384,328,49312,1,0
328,336,49500,5,8
248,312,49781,1,0
184,256,50062,1,0
136,224,50250,1,8
168,152,50531,1,0
232,96,50812,1,0
280,72,51000,5,8
360,56,51281,1,0
440,80,51562,1,0
408,248,52125,1,0
352,256,52312,1,0
296,264,52500,1,8
240,208,52781,1,0
232,128,53062,1,0
264,88,53250,2,0,B|272:80|280:80|288:88|296:88|304:80|312:80|320:88|328:88|336:80|344:80|352:88,3,70,8|0|8|0
344,136,54000,5,4
352,216,54281,1,0
336,296,54562,1,0
160,296,55125,1,0
112,264,55312,1,0
80,216,55500,1,8
72,136,55781,1,0
120,72,56062,1,0
176,56,56250,1,8
256,64,56531,1,0
328,104,56812,1,0
360,152,57000,5,8
344,232,57281,1,0
272,280,57562,1,0
104,272,58125,1,0
88,216,58312,1,0
96,160,58500,2,0,B|160:72,2,105,8|0|8
384,192,60000,5,4
336,264,60281,1,0
256,288,60562,1,0
96,248,61125,1,0
120,200,61312,1,0
144,152,61500,1,8
200,96,61781,1,0
280,64,62062,1,0
336,80,62250,1,8
384,152,62531,1,0
352,232,62812,1,0
312,272,63000,5,8
232,288,63281,1,0
152,272,63562,1,0
80,120,64125,1,0
128,88,64312,1,0
184,72,64500,1,8
264,80,64781,1,0
344,112,65062,1,0
376,160,65250,2,0,B|368:168|384:184|360:192|384:200|360:208|384:216|360:224|384:232|368:248,3,70,8|0|8|0
344,280,66000,5,4
416,240,66281,1,0
432,160,66562,1,0
288,72,67125,1,0
232,72,67312,1,0
184,104,67500,1,8
160,184,67781,1,0
168,264,68062,1,0
208,304,68250,1,8
288,320,68531,1,0
368,296,68812,1,0
408,256,69000,5,8
432,176,69281,1,0
352,176,69562,1,0
224,64,70125,1,0
176,96,70312,1,0
152,144,70500,2,0,B|152:296,1,140,8|0
272,288,71250,2,0,B|272:136,1,140,8|0
384,168,72000,2,0,B|240:168,2,140,4|0|0
384,224,72937,1,0
360,272,73125,1,0
320,312,73312,2,0,B|176:336|64:288|16:192|48:144,1,350,8|0
136,120,74625,5,0
184,88,74812,1,0
240,88,75000,2,8,B|320:88|400:136|448:208|384:296|232:320,1,420
184,304,76312,1,0
144,264,76500,2,0,B|144:112,1,140,0|8
256,124,77250,2,0,B|256:268,1,140,0|8
368,264,78000,6,0,B|368:112,3,140,0|8|0|8
312,144,79312,1,0
280,192,79500,2,0,B|232:232|192:192|144:232|144:232,3,140,0|8|0|8
112,184,80812,1,0
88,136,81000,2,0,B|248:112,1,140,0|8
336,112,81750,2,0,B|344:120|328:136|352:152|320:184,3,70,0|0|8|0
272,184,82500,2,0,L|232:144|192:184|152:144|120:184,3,140,0|8|0|8
104,272,84000,6,0,C|248:328|376:272,1,280,4|0
384,224,84937,1,0
360,168,85125,1,0
408,128,85312,2,0,B|384:48|192:32|64:32|24:152|32:224,1,490
80,240,86812,1,0
136,256,87000,2,0,B|312:256,3,140,0|8|0|8
320,224,88312,5,0
360,184,88500,2,0,B|360:32,1,140,0|8
248,48,89250,2,0,B|248:196,1,140,0|8
136,184,90000,2,0,B|136:32,3,140,0|8|0|8
80,40,91312,1,0
24,40,91500,2,0,B|88:184,3,140,0|8|0|8
120,208,92812,1,0
176,224,93000,2,0,B|192:176|208:224|224:176|240:224|256:176|272:224|288:176|296:224|312:176|320:224|368:176|464:224|464:192,3,280,0|8|0|8
256,192,96000,1,4
96,64,108000,6,0,B|384:64,1,280
376,176,109125,1,0
376,288,109500,2,0,B|160:288,2,210
376,176,111000,2,0,B|64:176|64:56|304:56,1,420
376,56,112500,2,0,B|416:56|456:96|456:160,1,140
455,267,113250,2,0,B|432:304|384:304|336:248,1,140
320,136,114000,2,0,B|272:64|176:24|64:48|40:72,1,280
80,168,115125,1,0
136,264,115500,2,0,B|208:304|296:320,1,140
384,320,116250,2,0,B|432:304|480:248|488:192,1,140
472,112,117000,6,0,B|400:40|96:48|64:64|48:96|32:184|56:288|136:328|160:152|168:128|192:160|200:296|200:296|248:176|248:176,1,840
288,160,119437,1,0
344,160,119625,1,0
392,192,119812,1,0
400,248,120000,6,0,B|272:320,3,140,0|8|0|8
264,208,121500,2,0,B|24:208,2,210,0|0|0
320,120,123000,2,0,B|192:200,3,140,0|8|0|8
232,304,124500,2,0,B|392:304,3,140,0|8|0|8
368,192,126000,6,0,B|204:192,3,140,0|8|0|8
264,304,127500,2,0,B|48:96,1,280,0|8
280,40,129000,2,0,B|416:40|456:48|480:72|480:208|480:296|464:320|432:336,1,420,0|8
344,304,130500,2,0,B|184:264,3,140,0|8|0|8
272,176,132000,6,0,B|80:176|80:48|288:56|400:64,1,420,4|8
352,168,133500,2,0,B|176:304,2,210,0|8|0
264,104,135000,2,0,B|128:56|80:48|48:56|32:88|32:184|48:296,1,420,0|8
88,312,136312,1,0
136,336,136500,2,0,B|224:216,3,140,0|8|0|8
304,144,138000,6,0,B|168:144,2,105
344,184,138750,2,0,B|344:304,2,105
384,144,139500,2,0,B|496:144,2,105
344,104,140250,2,0,B|344:-8,2,105
400,88,141000,6,0,B|480:8,2,105
400,144,141750,2,0,B|488:232,2,105
344,144,142500,2,0,B|256:232,2,105
344,88,143250,2,0,B|256:0,2,105
384,128,144000,5,0
384,208,144281,1,0
304,208,144562,1,0
248,208,144750,1,0
168,208,145031,1,0
168,128,145312,1,0
168,72,145500,5,0
248,72,145781,1,0
328,72,146062,1,0
384,72,146250,1,0
384,152,146531,1,0
384,232,146812,1,0
384,288,147000,5,0
304,288,147281,1,0
224,288,147562,1,0
168,288,147750,1,0
168,208,148031,1,0
248,208,148312,1,0
304,208,148500,5,0
304,128,148781,1,0
224,128,149062,1,0
168,128,149250,1,0
88,128,149531,1,0
88,208,149812,1,0
256,192,150000,12,0,156000
