osu file format v13

[General]
AudioFilename: 02_-_prologue.mp3
AudioLeadIn: 2000
PreviewTime: 18418
Countdown: 0
SampleSet: Soft
StackLeniency: 0.7
Mode: 0
LetterboxInBreaks: 0
WidescreenStoryboard: 0

[Editor]
DistanceSpacing: 1.3
BeatDivisor: 4
GridSize: 16
TimelineZoom: 1

[Metadata]
Title:Prologue
TitleUnicode:Prologue
Artist:Bjorn Arve Lagim
ArtistUnicode:Bjørn Arve Lagim
Creator:Krfawy
Version:Relaxing
Source:The Longest Journey
Tags:Norwegian Funcom Ragnar Egmont Tørnquist Didrik Tollefsen Dreamfall TLJ Original Soundtrack OST April Ryan Newport Stark Arcadia Fringe Cafe
BeatmapID:555843
BeatmapSetID:240518

[Difficulty]
HPDrainRate:6
CircleSize:5
OverallDifficulty:5
ApproachRate:5
SliderMultiplier:1.17
SliderTickRate:2

[Events]
//Background and Video events
0,0,"April Ryan.jpg",0,0
//Break Periods
//Storyboard Layer 0 (Background)
//Storyboard Layer 1 (Fail)
//Storyboard Layer 2 (Pass)
//Storyboard Layer 3 (Foreground)
//Storyboard Sound Samples

[TimingPoints]
117,574.162679425837,4,2,1,27,1,0
24231,-100,4,2,2,27,0,0
24375,-100,4,2,1,27,0,0
39734,-100,4,2,2,27,0,0
39877,-100,4,2,1,27,0,0
67868,-100,4,2,2,27,0,0
68011,-100,4,2,1,27,0,0
87676,-100,4,2,1,5,0,0

[Colours]
Combo1 : 189,87,87
Combo2 : 150,148,109
Combo3 : 165,137,159
Combo4 : 158,114,84
SliderBorder : 238,236,240
SliderTrackOverride : 214,214,216

[HitObjects]
181,57,117,6,0,P|182:86|174:115,1,58.5,8|0,0:0|0:0,0:0:0:0:
127,175,690,1,0,0:0:0:0:
69,223,977,2,0,P|49:277|73:329,1,117,4|0,0:0|0:0,0:0:0:0:
141,365,1838,1,0,0:0:0:0:
213,351,2126,6,0,P|256:309|248:248,1,117,2|0,0:0|0:0,0:0:0:0:
220,186,2987,1,0,0:0:0:0:
220,186,3274,2,0,P|177:228|185:289,1,117,2|0,0:0|0:0,0:0:0:0:
253,256,4136,2,0,B|281:246|311:255|341:265|369:254,1,117,0|8,0:0|0:0,0:0:0:0:
393,99,5284,5,2,0:0:0:0:
330,142,5571,1,0,0:0:0:0:
298,209,5858,2,0,P|241:229|185:208,1,117,2|0,0:0|0:0,0:0:0:0:
122,177,6719,1,2,0:0:0:0:
49,192,7006,6,0,P|42:301|50:317,1,117,8|0,0:0|0:0,0:0:0:0:
105,349,7867,2,0,P|192:323|282:335,1,175.5,2|0,0:0|0:0,0:0:0:0:
337,375,9015,1,2,0:0:0:0:
378,313,9303,6,0,P|380:252|369:239,1,58.5,8|0,0:0|0:0,0:0:0:0:
315,221,9877,2,0,P|287:211|269:188,1,58.5,4|0,0:0|0:0,0:0:0:0:
256,114,10451,2,0,B|255:78|279:64|279:64|310:64|337:46,2,117,0|2|8,0:0|0:0|0:0,0:0:0:0:
269,188,11886,5,0,0:0:0:0:
265,264,12173,2,0,B|242:288|212:282,1,58.5,0|0,0:0|0:0,0:0:0:0:
120,291,12748,2,0,B|110:259|130:236,1,58.5,0|0,0:0|0:0,0:0:0:0:
162,148,13322,2,0,B|194:155|204:184,1,58.5,2|0,0:0|0:0,0:0:0:0:
212,282,13896,6,0,L|197:342,1,58.5,8|0,0:0|0:0,0:0:0:0:
116,210,14470,2,0,L|74:255,1,58.5,4|0,0:0|0:0,0:0:0:0:
70,101,15044,2,0,L|11:122,2,58.5,2|0|2,0:0|0:0|0:0,0:0:0:0:
134,61,15905,1,4,0:0:0:0:
198,101,16193,6,0,P|222:116|251:116,1,58.5,8|0,0:0|0:0,0:0:0:0:
371,38,16767,2,0,P|347:22|319:24,1,58.5,2|0,0:0|0:0,0:0:0:0:
441,114,17341,2,0,P|465:129|494:127,2,58.5,4|0|2,0:0|0:0|0:0,0:0:0:0:
441,114,18489,6,0,P|417:99|388:100,1,58.5,8|0,0:0|0:0,0:0:0:0:
313,115,19063,1,0,0:0:0:0:
246,152,19350,2,0,B|223:157|190:140|190:140|181:151|181:151|159:150|140:165,1,117,4|0,0:0|0:0,0:0:0:0:
77,209,20212,1,0,0:0:0:0:
77,285,20499,6,0,P|102:335|178:334,1,117,2|0,0:0|0:0,0:0:0:0:
230,321,21360,1,0,0:0:0:0:
305,323,21647,1,4,0:0:0:0:
305,323,21934,2,0,P|345:323|379:343,1,58.5,0|0,0:0|0:0,0:0:0:0:
421,376,22508,1,0,0:0:0:0:
487,338,22795,1,2,0:0:0:0:
471,264,23082,5,12,0:0:0:0:
395,256,23370,1,0,0:0:0:0:
324,227,23657,2,0,B|269:203|237:253|237:253|203:257|196:308|196:308|168:268|152:283|152:283|126:308|97:306,1,292.5,0|2,0:0|0:0,0:0:0:0:
36,264,25379,6,0,P|34:200|99:247,1,175.5,0|4,0:0|0:0,0:0:0:0:
110,309,26527,2,0,P|164:355|175:284,1,175.5,0|4,0:0|0:0,0:0:0:0:
124,228,27676,5,8,0:0:0:0:
162,162,27963,1,0,0:0:0:0:
236,178,28250,1,2,0:0:0:0:
244,253,28537,1,0,0:0:0:0:
278,320,28824,2,0,P|302:341|353:344,1,58.5,2|0,0:0|0:0,0:0:0:0:
321,195,29398,2,0,P|329:222|349:243,1,58.5,0|0,0:0|0:0,0:0:0:0:
421,109,29972,6,0,P|414:137|421:165,1,58.5,4|0,0:0|0:0,0:0:0:0:
473,249,30547,2,0,B|477:223|502:200|502:200|493:196|493:196|504:173|495:148,2,117,0|0|2,0:0|0:0|0:0,0:0:0:0:
473,249,32269,6,0,P|466:276|446:298,1,58.5,4|0,0:0|0:0,0:0:0:0:
394,355,32843,2,0,B|336:348|336:348|265:356,1,117,4|2,0:0|0:0,0:0:0:0:
203,368,33704,1,0,0:0:0:0:
188,294,33992,1,8,0:0:0:0:
263,279,34279,1,0,0:0:0:0:
263,279,34566,6,0,P|280:248|273:166,1,117,4|4,0:0|0:0,0:0:0:0:
210,130,35427,1,0,0:0:0:0:
139,159,35714,2,0,P|110:165|81:163,1,58.5,2|0,0:0|0:0,0:0:0:0:
218,228,36288,2,0,P|197:248|170:260,1,58.5,8|0,0:0|0:0,0:0:0:0:
321,245,36862,6,0,P|312:272|240:329,1,117,4|0,0:0|0:0,0:0:0:0:
170,336,37724,1,8,0:0:0:0:
170,336,38011,2,0,B|142:341|124:328|126:311|126:311|116:326|82:324|82:324|58:301|21:298,1,175.5,0|2,0:0|0:0,0:0:0:0:
1,224,39159,6,0,P|43:175|23:71,1,175.5,0|0,0:0|0:0,0:0:0:0:
89,33,40307,2,0,P|119:47|152:46,1,58.5,2|0,0:0|0:0,0:0:0:0:
219,46,40882,1,8,0:0:0:0:
243,118,41169,1,0,0:0:0:0:
181,163,41456,6,0,P|115:216|124:299,1,175.5,4|0,0:0|0:0,0:0:0:0:
191,337,42604,2,0,B|216:339|237:353|237:353|262:370|280:358|288:332|288:332|297:357|321:363|344:351|344:351|365:337|404:343,1,234,0|4,0:0|0:0,0:0:0:0:
464,335,44039,1,0,0:0:0:0:
496,265,44326,1,0,0:0:0:0:
452,203,44614,1,0,0:0:0:0:
376,210,44901,2,0,P|320:241|251:218,1,117,8|0,0:0|0:0,0:0:0:0:
220,174,45762,1,0,0:0:0:0:
116,124,46049,6,0,P|143:112|172:114,1,58.5,4|0,0:0|0:0,0:0:0:0:
112,199,46623,2,0,P|109:227|93:251,1,58.5,0|0,0:0|0:0,0:0:0:0:
51,160,47197,2,0,P|16:115|25:58,1,117,2|0,0:0|0:0,0:0:0:0:
91,20,48059,1,0,0:0:0:0:
87,97,48346,6,0,P|141:119|199:115,1,117,2|0,0:0|0:0,0:0:0:0:
271,88,49207,1,0,0:0:0:0:
334,48,49494,1,8,0:0:0:0:
334,48,49781,2,0,P|346:94|312:153,1,117,0|0,0:0|0:0,0:0:0:0:
247,189,50642,6,0,B|222:192|196:179|196:179|187:183|187:183|158:179|135:201,1,117,4|0,0:0|0:0,0:0:0:0:
96,262,51504,1,0,0:0:0:0:
39,313,51791,2,0,P|101:339|170:269,1,175.5,2|0,0:0|0:0,0:0:0:0:
173,194,52939,6,0,P|169:136|200:87,1,117,4|0,0:0|0:0,0:0:0:0:
270,59,53800,1,0,0:0:0:0:
341,85,54087,2,0,P|363:103|390:112,1,58.5,2|0,0:0|0:0,0:0:0:0:
466,120,54661,2,0,P|477:146|478:174,1,58.5,8|0,0:0|0:0,0:0:0:0:
453,250,55236,5,4,0:0:0:0:
377,242,55523,1,0,0:0:0:0:
346,173,55810,1,0,0:0:0:0:
346,173,56097,2,0,P|292:175|254:226,1,117,2|0,0:0|0:0,0:0:0:0:
239,295,56958,1,0,0:0:0:0:
184,348,57245,6,0,L|61:352,1,117,2|0,0:0|0:0,0:0:0:0:
0,315,58106,1,8,0:0:0:0:
40,250,58393,1,0,0:0:0:0:
85,188,58681,2,0,P|142:175|180:132,1,117,2|0,0:0|0:0,0:0:0:0:
185,55,59542,1,0,0:0:0:0:
185,55,59829,6,0,P|159:58|128:47,1,58.5,4|0,0:0|0:0,0:0:0:0:
256,131,60403,2,0,P|234:146|202:152,1,58.5,0|0,0:0|0:0,0:0:0:0:
355,164,60977,2,0,P|344:188|319:209,1,58.5,2|0,0:0|0:0,0:0:0:0:
256,249,61551,1,2,0:0:0:0:
180,235,61838,1,0,0:0:0:0:
59,330,62126,6,0,P|16:276|47:213,1,117,4|0,0:0|0:0,0:0:0:0:
88,190,62987,1,0,0:0:0:0:
162,207,63274,2,0,P|190:209|218:200,1,58.5,8|0,0:0|0:0,0:0:0:0:
299,94,63848,2,0,P|296:122|305:150,1,58.5,0|0,0:0|0:0,0:0:0:0:
379,200,64422,6,0,P|406:209|435:206,1,58.5,4|0,0:0|0:0,0:0:0:0:
413,113,64996,1,0,0:0:0:0:
371,37,65283,1,0,0:0:0:0:
278,22,65571,2,0,P|220:19|177:57,2,117,0|4|0,0:0|0:0|0:0,0:0:0:0:
244,89,67006,6,0,P|227:114|202:128,1,58.5,0|0,0:0|0:0,0:0:0:0:
133,160,67580,2,0,P|80:226|101:308,1,175.5,0|8,0:0|0:0,0:0:0:0:
156,361,68728,1,0,0:0:0:0:
230,377,69015,6,0,P|284:353|280:244,1,175.5,4|0,0:0|0:0,0:0:0:0:
233,192,70164,1,4,0:0:0:0:
233,192,70451,2,0,P|209:128|251:86,1,117,0|0,0:0|0:0,0:0:0:0:
310,77,71312,6,0,P|364:139|328:215,1,175.5,8|0,0:0|0:0,0:0:0:0:
263,253,72460,2,0,P|180:246|151:168,1,175.5,8|0,0:0|0:0,0:0:0:0:
162,93,73609,6,0,B|195:98|215:128|215:128|225:125|225:125|245:154|272:160|272:160|293:155|315:157,1,175.5,4|0,0:0|0:0,0:0:0:0:
386,144,74757,2,0,P|411:129|432:109,1,58.5,2|0,0:0|0:0,0:0:0:0:
360,242,75331,2,0,P|389:241|417:235,1,58.5,0|0,0:0|0:0,0:0:0:0:
291,319,75905,6,0,P|345:342|403:336,1,117,4|0,0:0|0:0,0:0:0:0:
471,302,76767,1,0,0:0:0:0:
471,302,77054,2,0,P|480:274|476:245,1,58.5,2|0,0:0|0:0,0:0:0:0:
366,133,77628,2,0,P|357:160|361:189,1,58.5,0|0,0:0|0:0,0:0:0:0:
379,263,78202,6,0,P|313:250|286:208,1,117,4|0,0:0|0:0,0:0:0:0:
244,149,79063,1,0,0:0:0:0:
171,171,79350,1,2,0:0:0:0:
170,247,79637,1,0,0:0:0:0:
242,272,79925,2,0,P|270:302|278:322,1,58.5,0|0,0:0|0:0,0:0:0:0:
362,192,80499,6,0,P|401:203|440:274,1,117,4|0,0:0|0:0,0:0:0:0:
442,342,81360,1,0,0:0:0:0:
378,383,81647,2,0,B|332:395|293:370|293:370|248:343|209:355,1,175.5,8|0,0:0|0:0,0:0:0:0:
134,365,82795,6,0,P|82:326|103:216,1,175.5,4|0,0:0|0:0,0:0:0:0:
147,171,83944,2,0,P|165:148|171:120,1,58.5,2|0,0:0|0:0,0:0:0:0:
300,200,84518,2,0,P|304:171|296:143,1,58.5,2|0,0:0|0:0,0:0:0:0:
261,75,85092,6,0,P|299:28|352:11,1,117,4|0,0:0|0:0,0:0:0:0:
407,61,85953,1,0,0:0:0:0:
353,114,86240,2,0,B|341:160|366:199|366:199|393:244|381:283,1,175.5,8|0,0:0|0:0,0:0:0:0:
351,352,87389,5,4,0:0:0:0:
256,192,87676,12,0,91983,0:0:0:0:
