osu file format v6

[General]
AudioFilename: 01 - Bivattchee - Taiyou no Mannaka he.mp3
AudioLeadIn: 1004
PreviewTime: -1
Countdown: 1
SampleSet: Soft
StackLeniency: 0.7
Mode: 0
LetterboxInBreaks: 1

[Editor]
Bookmarks: 2672,16250,20983,39486,45462,48474,55550,57128,62387,67072,84045,102739,108093
DistanceSpacing: 0.800000011920929
BeatDivisor: 6
GridSize: 8

[Metadata]
Title:Taiyou no Mannaka he
Artist:Bivattchee
Creator:dr_roxo
Version:Easy
Source:Bivattchee
Tags:Eureka Seven, Bivattchee, Anime, Taiyou no Mannaka he

[Difficulty]
HPDrainRate:2
CircleSize:5
OverallDifficulty:3
SliderMultiplier:0.6
SliderTickRate:1

[Events]
//Background and Video events
0,0,"clowds eureka.jpg"
//Break Periods
2,105903,125204
2,182495,194911
//Storyboard Layer 0 (Background)
//Storyboard Layer 1 (Fail)
//Storyboard Layer 2 (Pass)
//Storyboard Layer 3 (Foreground)
//Storyboard Sound Samples
//Background Colour Transformations
3,100,0,255,255

[TimingPoints]
2720,286.861732644865,4,2,0,74,1,0

[HitObjects]
256,192,2720,1,0
328,136,3293,1,0
312,56,3867,5,0
184,40,4441,1,0
112,80,5014,1,0
64,184,5875,6,0,B|96:280|224:224,1,180
264,192,7309,2,0,B|168:40|136:168|136:160,1,180
232,192,9317,1,0
376,184,9891,1,0
104,200,10465,1,0
240,144,11038,1,0
248,232,11612,1,0
184,88,12473,6,0,B|312:88,1,120
176,240,13620,6,0,B|304:240,1,120
224,104,15055,2,0,B|152:152|184:224|352:192,1,240
344,192,16489,5,0
248,120,18784,2,0,B|144:136|104:240|128:312|208:344|256:192,1,370
256,192,20983,1,0
256,104,21652,1,0
160,128,22226,1,0
328,144,22800,1,0
200,208,23374,1,0
352,208,23947,1,0
176,280,24521,1,0
328,280,25095,6,0,B|264:280,1,60
136,208,25668,2,0,B|200:208,1,60
304,144,26242,2,0,B|240:144,1,60
144,72,26816,2,0,B|208:72,1,60
216,72,27390,1,0
216,72,27676,1,0
216,72,27963,1,0
216,72,28250,1,0
216,72,28537,6,0,B|216:176|80:160|144:256|160:264|176:264|184:264,1,230
178,263,29924,1,0
256,264,30258,1,0
304,200,30832,1,0
264,120,31406,1,0
168,104,31979,1,0
96,160,32553,1,0
96,160,32840,6,0,B|112:232|176:248|216:216|232:168|232:144|232:112,1,240
231,113,34274,6,0,B|256:32|376:72|384:200|248:208|128:80|96:112|96:160|96:160,1,360
216,160,37143,1,0
296,160,37717,1,0
376,160,38290,1,0
376,40,39438,6,0,B|472:88|504:224|456:288|400:304|368:312|360:304,1,350
160,48,41733,6,0,B|72:56|32:112|16:208|48:272|64:280|80:288|128:296,1,350
120,296,44028,2,0,B|184:209|232:145|256:105,1,230
288,288,45749,1,0
288,288,46322,2,0,B|112:128,1,230
96,88,48044,5,0
176,48,48904,1,0
264,72,49478,1,0
336,128,50052,1,0
328,224,50625,1,0
248,280,51199,1,0
136,256,51773,1,0
88,168,52347,1,0
88,168,52920,6,0,B|136:264|248:280|368:224|360:96|248:48|160:64,1,480
256,208,55502,12,0,56840
256,192,57510,1,0
256,192,57797,6,0,B|256:104|256:88,2,110
256,192,59518,2,0,B|144:192,2,110
256,192,61239,2,0,B|256:288|304:312|384:208,1,210
380,212,62674,6,0,B|472:216|472:144|488:80|432:32|344:16|192:56|48:112|32:176|16:256|56:336|96:368|160:384|256:320|336:264|320:176|272:152|232:160|208:168|168:216|160:232,1,960
163,225,67550,1,0
163,225,67837,1,0
163,225,68124,1,0
232,232,68698,5,0
304,232,69271,1,0
376,232,69845,1,0
376,160,70419,1,0
376,88,70993,1,0
304,80,71566,6,0,B|304:128|304:144,2,60
232,80,72714,2,0,B|232:144,2,60
144,80,73861,2,0,B|144:144,2,60
144,80,75009,1,0
40,64,76156,6,0,L|144:288|232:64|304:264|416:48,1,940
440,96,81320,5,0
440,152,81893,1,0
440,192,82515,1,0
440,224,83089,1,0
440,256,83662,1,0
480,248,85336,6,0,B|352:40|144:40|16:288,1,600
80,288,88491,1,0
80,288,88778,6,0,B|200:88|336:88|488:336,1,540
416,304,91933,5,0
336,304,92507,1,0
256,304,93081,1,0
176,304,93655,1,0
88,304,94228,1,0
88,304,94515,2,0,B|176:136|368:136|464:320,1,480
462,316,97097,5,2
464,240,97671,1,2
464,160,98244,1,2
464,80,98818,1,2
464,80,99392,2,2,B|400:80,2,60
464,152,100539,2,2,B|400:152,2,60
464,224,101687,2,2,B|400:224,2,60
256,208,102834,12,2,105703
256,192,126644,5,2
344,192,127217,1,2
232,48,128939,1,2
24,48,129512,1,2
456,64,131234,1,2
456,192,131807,1,2
40,200,133528,1,2
424,208,134102,1,2
88,80,135823,6,0,B|272:80,1,180
416,304,138118,2,0,B|304:304|232:304,1,180
232,336,140413,2,0,B|232:32,2,300
248,320,145003,5,0
248,320,145290,1,0
248,320,145577,1,0
248,256,145864,1,0
248,256,146437,1,0
240,56,147298,5,0
240,56,147585,1,0
240,56,147872,1,0
240,128,148158,1,0
240,128,148732,1,0
256,192,149593,5,0
256,192,149880,1,0
256,192,150166,1,0
192,192,150453,1,0
320,192,151027,1,0
256,192,151888,5,0
256,192,152174,5,0
256,192,152461,5,0
256,192,152748,5,0
256,192,153035,5,0
256,192,153322,5,0
256,192,153609,5,0
256,192,153896,5,0
256,192,154182,6,0,B|224:224|192:216|160:136|216:88|368:72|416:136|408:216|296:280|224:296|128:296|72:264|40:176|56:96|88:56|184:24|352:-8|512:-16|488:128|512:256|432:336|280:384|128:400|48:256|64:176|64:128|88:120|120:80,1,1200
113,87,160207,1,0
113,87,160493,1,0
113,87,160780,1,0
360,88,162215,6,2,B|304:88|296:144|368:152,2,120
264,80,164510,6,2,B|208:80|216:144|272:160,2,120
168,80,166804,6,4,B|120:80|128:152|176:168,2,120
128,216,169099,6,8,B|208:256|312:240|360:200,1,240
256,208,171394,12,0,175649
40,336,177131,5,4
88,280,177418,1,4
144,224,177705,1,4
200,168,177992,1,4
248,104,178279,6,4,B|320:32|424:144|344:320|104:272|416:40,1,480
405,47,180861,1,0
405,47,181147,1,0
405,47,181434,1,0
408,120,182295,5,0
