osu file format v14

[General]
AudioFilename: Overwatch_Song_Nerf_This_feat_DVa.mp3
AudioLeadIn: 0
PreviewTime: 41919
Countdown: 0
SampleSet: Soft
StackLeniency: 0.7
Mode: 0
LetterboxInBreaks: 0
WidescreenStoryboard: 0

[Editor]
Bookmarks: 5779,11426,22720,28367,34014,45303,56597,67891,79185,90479,101773,113067
DistanceSpacing: 0.7
BeatDivisor: 8
GridSize: 16
TimelineZoom: 2.1

[Metadata]
Title:Nerf This! (feat. D.Va)
TitleUnicode:Nerf This! (feat. D.Va)
Artist:Bitflip
ArtistUnicode:Bitflip
Creator:Euny
Version:I play to win!
Source:
Tags:Overwatch
BeatmapID:1046039
BeatmapSetID:490797

[Difficulty]
HPDrainRate:6
CircleSize:4.1
OverallDifficulty:8
ApproachRate:9
SliderMultiplier:2.6
SliderTickRate:1

[Events]
//Background and Video events
0,0,"d_va.jpg",0,0
Video,0,"Overwatch Nerf This.avi"
//Break Periods
2,22720,27767
//Storyboard Layer 0 (Background)
//Storyboard Layer 1 (Fail)
//Storyboard Layer 2 (Pass)
//Storyboard Layer 3 (Foreground)
//Storyboard Sound Samples

[TimingPoints]
5779,705.882352941176,4,2,0,50,1,0
5779,-125,4,2,0,50,0,0
11426,-100,4,2,0,50,0,0
41068,705.882352941176,4,2,0,50,1,0
45303,705.882352941176,4,2,0,50,1,0
45303,-83.3333333333333,4,2,0,50,0,1
46008,-83.3333333333333,4,2,0,50,0,0
67891,-83.3333333333333,4,2,0,50,0,1
68597,-83.3333333333333,4,2,0,50,0,0
77597,-142.857142857143,4,2,0,50,0,0
77950,-83.3333333333333,4,2,0,50,0,0
89597,-200,4,2,0,50,0,0
90479,-83.3333333333333,4,2,0,50,0,1
91185,-83.3333333333333,4,2,0,50,0,0

[HitObjects]
221,134,5779,6,0,P|233:167|225:250,1,104
117,170,6308,1,0,0:0:0:0:
335,190,6484,2,0,P|371:194|466:159,1,130
496,93,7014,2,0,L|509:208,1,104
419,34,7543,6,0,L|355:34,1,52
274,252,7896,2,0,P|246:206|291:113,1,156
345,310,8602,6,0,P|306:342|255:341,1,104
248,170,9131,1,0,0:0:0:0:
446,182,9308,2,0,L|436:242,1,52
487,60,9661,2,0,L|511:111,1,52
308,43,10014,5,0,0:0:0:0:
487,60,10190,1,0,0:0:0:0:
236,114,10367,1,0,0:0:0:0:
236,114,10720,2,0,P|249:169|154:187,1,156
147,43,11426,5,0,0:0:0:0:
330,151,11602,1,0,0:0:0:0:
330,151,11690,1,0,0:0:0:0:
330,151,11778,1,0,0:0:0:0:
182,197,11955,1,0,0:0:0:0:
404,113,12131,6,0,P|414:140|409:178,1,65
334,65,12484,1,0,0:0:0:0:
493,147,12661,1,0,0:0:0:0:
328,234,12837,5,0,0:0:0:0:
260,105,13014,1,0,0:0:0:0:
260,105,13102,1,0,0:0:0:0:
260,105,13190,1,0,0:0:0:0:
438,83,13367,1,0,0:0:0:0:
184,152,13543,5,0,0:0:0:0:
264,284,13720,1,0,0:0:0:0:
188,69,13896,2,0,P|156:71|129:88,1,65
181,272,14249,5,0,0:0:0:0:
317,201,14426,1,0,0:0:0:0:
317,201,14514,1,0,0:0:0:0:
317,201,14602,1,0,0:0:0:0:
165,367,14778,1,0,0:0:0:0:
23,165,14955,6,0,P|23:197|27:229,1,65
74,89,15308,1,0,0:0:0:0:
106,229,15484,1,0,0:0:0:0:
137,29,15661,5,0,0:0:0:0:
293,96,15837,1,0,0:0:0:0:
293,96,15926,1,0,0:0:0:0:
293,96,16014,1,0,0:0:0:0:
110,171,16190,1,0,0:0:0:0:
304,261,16367,5,0,0:0:0:0:
183,110,16543,1,0,0:0:0:0:
281,340,16720,2,0,P|312:346|342:335,1,65
327,175,17073,5,0,0:0:0:0:
490,218,17249,1,0,0:0:0:0:
490,218,17337,1,0,0:0:0:0:
490,218,17426,1,0,0:0:0:0:
226,282,17602,1,0,0:0:0:0:
393,122,17778,6,0,P|406:163|403:194,1,65
311,86,18131,1,0,0:0:0:0:
475,97,18308,1,0,0:0:0:0:
299,253,18484,5,0,0:0:0:0:
195,176,18661,1,0,0:0:0:0:
195,176,18749,1,0,0:0:0:0:
195,176,18837,1,0,0:0:0:0:
191,353,19014,1,0,0:0:0:0:
370,301,19190,5,0,0:0:0:0:
116,312,19367,1,0,0:0:0:0:
227,100,19543,2,0,P|255:114|272:141,1,65
105,140,19896,5,0,0:0:0:0:
199,31,20073,1,0,0:0:0:0:
199,31,20161,1,0,0:0:0:0:
199,31,20249,1,0,0:0:0:0:
153,217,20426,1,0,0:0:0:0:
60,69,20602,6,0,L|-2:96,1,65
258,162,20955,2,0,L|320:189,1,65
151,53,21308,5,0,0:0:0:0:
71,199,21484,1,0,0:0:0:0:
71,199,21573,1,0,0:0:0:0:
71,199,21661,1,0,0:0:0:0:
182,135,21837,1,0,0:0:0:0:
181,358,22014,5,0,0:0:0:0:
0,280,22190,1,0,0:0:0:0:
271,298,22367,1,0,0:0:0:0:
256,140,28367,6,0,L|247:186,1,32.5
256,140,28543,2,0,P|322:150|346:146,1,65
389,66,28896,1,0,0:0:0:0:
400,223,29073,2,0,P|427:166|427:148,1,65
316,230,29426,1,0,0:0:0:0:
503,199,29602,1,0,0:0:0:0:
363,303,29778,5,0,0:0:0:0:
363,303,29955,1,0,0:0:0:0:
209,170,30131,2,0,P|204:224|204:245,1,65
319,50,30484,2,0,P|323:78|326:122,1,65
228,23,30837,1,0,0:0:0:0:
411,187,31190,6,0,L|402:141,1,32.5
411,187,31366,2,0,P|477:177|501:181,1,65
330,268,31720,1,0,0:0:0:0:
413,369,31896,2,0,P|440:312|440:294,1,65
311,358,32249,1,0,0:0:0:0:
335,177,32425,1,0,0:0:0:0:
186,253,32601,5,0,0:0:0:0:
186,253,32778,1,0,0:0:0:0:
50,120,32954,2,0,P|45:174|45:195,1,65
149,23,33307,2,0,P|153:51|156:95,1,65
28,30,33660,1,0,0:0:0:0:
23,110,34014,5,0,0:0:0:0:
102,115,34367,1,0,0:0:0:0:
108,35,34720,1,0,0:0:0:0:
28,30,35073,1,0,0:0:0:0:
132,215,35426,5,0,0:0:0:0:
230,186,35779,1,0,0:0:0:0:
202,85,36132,1,0,0:0:0:0:
102,115,36485,1,0,0:0:0:0:
270,374,36837,5,0,0:0:0:0:
342,263,37190,1,0,0:0:0:0:
230,186,37543,1,0,0:0:0:0:
155,299,37896,1,0,0:0:0:0:
512,212,38249,5,0,0:0:0:0:
461,47,38602,1,0,0:0:0:0:
291,94,38955,1,0,0:0:0:0:
341,263,39308,1,0,0:0:0:0:
14,173,39661,5,0,0:0:0:0:
162,349,40014,1,0,0:0:0:0:
343,198,40367,1,0,0:0:0:0:
191,20,40720,1,0,0:0:0:0:
482,116,41073,5,0,0:0:0:0:
258,120,41249,1,0,0:0:0:0:
472,202,41426,1,0,0:0:0:0:
191,20,41602,5,0,0:0:0:0:
266,277,41778,1,0,0:0:0:0:
480,32,41955,1,0,0:0:0:0:
150,112,42131,6,0,P|146:144|154:175,2,65
150,112,42832,6,0,P|69:141|55:138,2,100
175,253,45303,5,0,0:0:0:0:
324,206,45479,1,0,0:0:0:0:
112,322,45655,1,0,0:0:0:0:
356,280,45832,1,0,0:0:0:0:
92,231,46008,6,0,P|114:191|146:173,1,77.999997619629
410,343,46361,2,0,P|426:237|324:205,1,233.999992858887
91,319,47067,5,0,0:0:0:0:
345,293,47244,1,0,0:0:0:0:
21,259,47420,2,0,P|5:294|1:333,1,77.999997619629
79,122,47773,2,0,P|95:157|99:196,1,77.999997619629
3,73,48126,5,0,0:0:0:0:
242,86,48303,1,0,0:0:0:0:
18,178,48479,1,0,0:0:0:0:
196,12,48655,1,0,0:0:0:0:
214,253,48832,6,0,P|254:268|328:231,1,116.999996429443
368,178,49185,1,0,0:0:0:0:
279,345,49361,1,0,0:0:0:0:
164,119,49538,6,0,L|172:209,1,77.999997619629
40,16,49891,2,0,L|2:134,1,116.999996429443
18,178,50244,2,0,P|51:163|108:158,1,77.999997619629
323,184,50597,2,0,L|310:276,1,77.999997619629
239,141,50950,5,0,0:0:0:0:
416,188,51126,1,0,0:0:0:0:
212,273,51302,1,0,0:0:0:0:
404,103,51479,1,0,0:0:0:0:
129,231,51655,6,0,P|116:267|122:305,1,77.999997619629
480,139,52008,2,0,B|511:160|498:216|498:216|551:144|511:75,1,233.999992858887
250,112,52714,5,0,0:0:0:0:
467,21,52891,1,0,0:0:0:0:
181,61,53067,2,0,P|165:96|161:135,1,77.999997619629
336,300,53420,2,0,P|332:261|315:226,1,77.999997619629
176,352,53773,5,0,0:0:0:0:
416,240,53950,1,0,0:0:0:0:
176,272,54126,1,0,0:0:0:0:
304,80,54302,1,0,0:0:0:0:
445,316,54479,6,0,P|481:294|493:204,1,116.999996429443
456,159,54832,2,0,P|407:168|332:147,1,116.999996429443
275,108,55185,1,0,0:0:0:0:
209,287,55361,6,0,L|189:132,1,155.999995239258
171,363,55891,2,0,P|207:374|244:361,1,77.999997619629
342,175,56244,2,0,L|329:267,1,77.999997619629
281,95,56597,6,0,P|315:76|354:73,1,77.999997619629
361,221,56950,1,0,0:0:0:0:
203,121,57126,1,0,0:0:0:0:
432,185,57302,5,0,0:0:0:0:
376,337,57479,1,0,0:0:0:0:
376,337,57567,1,0,0:0:0:0:
376,337,57655,1,0,0:0:0:0:
244,259,57832,1,0,0:0:0:0:
438,274,58008,5,0,0:0:0:0:
428,76,58185,1,0,0:0:0:0:
481,352,58361,2,0,P|507:322|519:285,1,77.999997619629
380,3,58714,6,0,P|354:32|342:69,1,77.999997619629
298,358,59067,2,0,L|291:272,1,77.999997619629
273,94,59420,5,0,0:0:0:0:
373,192,59597,1,0,0:0:0:0:
153,212,59773,1,0,0:0:0:0:
225,14,59950,1,0,0:0:0:0:
284,193,60126,5,0,0:0:0:0:
74,116,60302,1,0,0:0:0:0:
74,116,60391,1,0,0:0:0:0:
74,116,60479,2,0,P|49:148|38:196,1,77.999997619629
92,252,60744,6,0,P|96:290|85:327,1,77.999997619629
16,380,61008,1,0,0:0:0:0:
212,316,61185,2,0,P|250:310|289:312,1,77.999997619629
289,164,61538,6,0,P|316:191|338:223,1,77.999997619629
455,156,61891,2,0,P|449:194|437:231,1,77.999997619629
392,100,62244,5,0,0:0:0:0:
506,271,62420,1,0,0:0:0:0:
276,261,62597,2,0,P|260:221|269:177,1,77.999997619629
390,304,62950,5,0,0:0:0:0:
206,330,63126,1,0,0:0:0:0:
206,330,63214,1,0,0:0:0:0:
206,330,63302,1,0,0:0:0:0:
306,354,63479,1,0,0:0:0:0:
141,217,63655,5,0,0:0:0:0:
287,161,63832,1,0,0:0:0:0:
125,107,64008,1,0,0:0:0:0:
140,375,64185,1,0,0:0:0:0:
27,89,64361,6,0,P|43:53|70:25,1,77.999997619629
228,89,64714,2,0,P|212:53|185:25,1,77.999997619629
61,178,65067,5,0,0:0:0:0:
230,175,65244,1,0,0:0:0:0:
68,332,65420,2,0,P|93:303|130:290,1,77.999997619629
279,364,65773,5,0,0:0:0:0:
198,254,65950,1,0,0:0:0:0:
198,254,66038,1,0,0:0:0:0:
198,254,66126,1,0,0:0:0:0:
384,368,66302,1,0,0:0:0:0:
480,160,66479,5,0,0:0:0:0:
256,160,66655,1,0,0:0:0:0:
368,160,66832,1,0,0:0:0:0:
144,160,67008,1,0,0:0:0:0:
256,160,67185,5,0,0:0:0:0:
32,160,67361,1,0,0:0:0:0:
372,236,67538,2,0,P|377:197|367:159,1,77.999997619629
261,76,67891,5,0,0:0:0:0:
453,194,68067,1,0,0:0:0:0:
245,240,68243,1,0,0:0:0:0:
368,64,68420,1,0,0:0:0:0:
155,260,68597,5,0,0:0:0:0:
313,340,68773,1,0,0:0:0:0:
313,340,68861,1,0,0:0:0:0:
313,340,68950,1,0,0:0:0:0:
251,79,69126,1,0,0:0:0:0:
106,154,69302,5,0,0:0:0:0:
330,161,69479,1,0,0:0:0:0:
87,42,69655,1,0,0:0:0:0:
197,190,69832,1,0,0:0:0:0:
328,14,70008,6,0,P|344:49|348:87,1,77.999997619629
171,37,70361,2,0,P|155:72|151:111,1,77.999997619629
261,25,70714,5,0,0:0:0:0:
30,87,70891,1,0,0:0:0:0:
273,179,71067,1,0,0:0:0:0:
85,255,71243,1,0,0:0:0:0:
329,244,71420,5,0,0:0:0:0:
278,98,71597,1,0,0:0:0:0:
278,98,71685,1,0,0:0:0:0:
278,98,71773,1,0,0:0:0:0:
277,318,71949,1,0,0:0:0:0:
366,84,72126,6,0,B|369:120|369:120|366:162,1,77.999997619629
99,55,72479,2,0,B|101:117|101:117|87:173,1,116.999996429443
85,255,72832,2,0,P|118:240|175:235,1,77.999997619629
420,229,73185,2,0,P|416:267|400:303,1,77.999997619629
298,230,73538,5,0,0:0:0:0:
493,152,73714,1,0,0:0:0:0:
289,76,73890,1,0,0:0:0:0:
403,207,74067,1,0,0:0:0:0:
192,70,74244,5,0,0:0:0:0:
154,200,74420,1,0,0:0:0:0:
154,200,74508,1,0,0:0:0:0:
154,200,74597,1,0,0:0:0:0:
353,136,74773,1,0,0:0:0:0:
247,301,74950,5,0,0:0:0:0:
250,112,75126,1,0,0:0:0:0:
334,328,75302,1,0,0:0:0:0:
95,272,75479,1,0,0:0:0:0:
419,355,75655,2,0,P|418:316|402:280,1,77.999997619629
270,38,76008,2,0,P|253:73|250:112,1,77.999997619629
389,135,76361,5,0,0:0:0:0:
168,20,76538,1,0,0:0:0:0:
251,280,76714,1,0,0:0:0:0:
290,118,76890,1,0,0:0:0:0:
319,338,77067,5,0,0:0:0:0:
161,303,77244,1,0,0:0:0:0:
161,303,77332,1,0,0:0:0:0:
161,303,77420,1,0,0:0:0:0:
399,286,77597,2,0,P|395:263|387:242,1,45.4999986114502
137,121,77950,6,0,B|176:126|199:115|199:115|231:126|231:126|261:115|301:118,1,155.999995239258
56,185,78479,2,0,P|35:152|31:114,1,77.999997619629
146,211,78832,2,0,P|148:249|129:283,1,77.999997619629
78,37,79185,6,0,P|112:18|150:17,1,77.999997619629
288,59,79538,1,0,0:0:0:0:
40,133,79714,1,0,0:0:0:0:
236,174,79890,5,0,0:0:0:0:
84,330,80067,1,0,0:0:0:0:
84,330,80155,1,0,0:0:0:0:
84,330,80243,1,0,0:0:0:0:
273,324,80420,1,0,0:0:0:0:
155,115,80596,5,0,0:0:0:0:
188,365,80773,1,0,0:0:0:0:
387,269,80950,1,0,0:0:0:0:
167,248,81126,1,0,0:0:0:0:
462,221,81302,6,0,P|475:257|473:295,1,77.999997619629
344,35,81655,2,0,P|331:71|333:109,1,77.999997619629
260,16,82008,5,0,0:0:0:0:
477,73,82185,1,0,0:0:0:0:
263,206,82361,2,0,P|298:219|335:209,1,77.999997619629
204,112,82714,5,0,0:0:0:0:
225,294,82891,1,0,0:0:0:0:
225,294,82979,1,0,0:0:0:0:
225,294,83067,1,0,0:0:0:0:
372,242,83244,1,0,0:0:0:0:
103,240,83420,5,0,0:0:0:0:
294,369,83597,1,0,0:0:0:0:
245,178,83773,1,0,0:0:0:0:
48,351,83950,1,0,0:0:0:0:
355,292,84126,6,0,P|352:253|336:218,1,77.999997619629
153,87,84479,2,0,P|136:122|134:160,1,77.999997619629
323,137,84832,5,0,0:0:0:0:
51,168,85008,1,0,0:0:0:0:
355,292,85185,2,0,P|358:251|354:213,1,77.999997619629
113,271,85538,5,0,0:0:0:0:
238,92,85714,1,0,0:0:0:0:
238,92,85802,1,0,0:0:0:0:
238,92,85890,1,0,0:0:0:0:
271,259,86067,1,0,0:0:0:0:
81,242,86243,5,0,0:0:0:0:
239,371,86420,1,0,0:0:0:0:
139,119,86597,2,0,L|145:201,1,77.999997619629
45,103,86950,5,0,0:0:0:0:
228,166,87126,1,0,0:0:0:0:
75,377,87302,2,0,P|64:339|67:300,1,77.999997619629
210,264,87655,5,0,0:0:0:0:
9,194,87832,1,0,0:0:0:0:
301,306,88008,2,0,P|308:267|302:229,1,77.999997619629
141,183,88361,5,0,0:0:0:0:
105,290,88538,1,0,0:0:0:0:
105,290,88626,1,0,0:0:0:0:
105,290,88714,1,0,0:0:0:0:
210,264,88891,1,0,0:0:0:0:
26,376,89067,5,0,0:0:0:0:
68,131,89244,1,0,0:0:0:0:
177,224,89420,1,0,0:0:0:0:
8,193,89597,6,0,P|-16:135|6:76,1,130
