osu file format v13

[General]
AudioFilename: Birthing the Aftermath - Ascension - 01 Carol of the Bells (bonus track).mp3
AudioLeadIn: 0
PreviewTime: -1
Countdown: 1
SampleSet: None
StackLeniency: 0.7
Mode: 0
LetterboxInBreaks: 1
WidescreenStoryboard: 0

[Editor]
Bookmarks: 89159
DistanceSpacing: 1.5
BeatDivisor: 4
GridSize: 4
TimelineZoom: 2.899999

[Metadata]
Title:Carol of the Bells (bonus track)
TitleUnicode:Carol of the Bells (bonus track)
Artist:Birthing the Aftermath
ArtistUnicode:Birthing the Aftermath
Creator:Dexem
Version:
Source:
Tags:
BeatmapID:515689
BeatmapSetID:220344

[Difficulty]
HPDrainRate:7
CircleSize:4
OverallDifficulty:8
ApproachRate:9
SliderMultiplier:1.8
SliderTickRate:1

[Events]
//Background and Video events
//Break Periods
2,12403,88820
//Storyboard Layer 0 (Background)
//Storyboard Layer 1 (Fail)
//Storyboard Layer 2 (Pass)
//Storyboard Layer 3 (Foreground)
//Storyboard Sound Samples
//Background Colour Transformations
3,100,163,162,255

[TimingPoints]
986,260.869565217391,4,1,0,100,1,0

[HitObjects]
32,192,3072,5,0,2:0:0:0:
96,112,3333,2,0,L|208:96,1,90,0|0,0:0|0:0,2:0:0:0:
256,32,3594,1,0,2:0:0:0:
176,312,3855,1,0,2:0:0:0:
240,232,4116,2,0,L|352:216,1,90,0|0,0:0|0:0,2:0:0:0:
400,152,4377,1,0,2:0:0:0:
480,192,4638,5,0,2:0:0:0:
416,272,4899,2,0,L|304:288,1,90,0|0,0:0|0:0,2:0:0:0:
256,352,5160,1,0,2:0:0:0:
336,72,5421,1,0,2:0:0:0:
272,152,5682,2,0,L|160:168,1,90,0|0,0:0|0:0,2:0:0:0:
112,232,5943,1,0,2:0:0:0:
52,80,6203,1,0,0:0:0:0:
128,52,6464,2,0,P|184:72|236:48,1,90
300,40,6725,2,0,B|428:20|464:128,1,180
328,148,7246,2,0,P|300:168|324:208,1,90
464,256,7507,2,0,B|376:348|268:296,1,180
396,152,8029,2,0,P|424:172|400:212,1,90
316,220,8290,2,0,B|248:172|272:140|172:116,1,180
44,236,8812,1,0,0:0:0:0:
44,236,8942,1,0,0:0:0:0:
44,236,9072,1,0,0:0:0:0:
248,288,9333,1,0,0:0:0:0:
204,100,9594,1,0,0:0:0:0:
204,100,9725,1,0,0:0:0:0:
204,100,9855,1,0,0:0:0:0:
416,84,10116,1,0,0:0:0:0:
412,260,10377,1,0,0:0:0:0:
412,260,10507,1,0,0:0:0:0:
412,260,10638,1,0,0:0:0:0:
200,292,10899,1,0,0:0:0:0:
204,100,11159,1,0,0:0:0:0:
204,100,11290,1,0,0:0:0:0:
204,100,11420,1,0,0:0:0:0:
256,192,11681,1,0,0:0:0:0:
296,100,11942,1,0,0:0:0:0:
332,120,12072,1,0,0:0:0:0:
352,160,12203,1,0,0:0:0:0:
64,92,89420,5,0,0:0:0:0:
64,92,89681,2,0,P|140:52|248:60,1,180
476,128,90464,2,0,B|516:192|496:276|428:304,1,180
200,308,91246,2,0,P|288:272|344:176,1,180
128,60,92029,1,0,0:0:0:0:
128,60,92290,5,0,0:0:0:0:
52,300,92812,2,0,P|116:372|224:364,1,180
408,244,93594,2,0,B|452:140|376:72,1,180
128,76,94377,2,0,P|64:144|76:236,1,180
316,276,95159,1,0,0:0:0:0:
316,276,95420,5,0,0:0:0:0:
388,36,95942,1,0,0:0:0:0:
388,36,96203,2,0,B|256:-8|88:92|172:252,1,360
228,316,96985,2,0,B|360:252|408:108|312:16,1,360
192,36,97768,2,0,B|148:140|180:292|320:348,1,360
248,228,98551,5,0,0:0:0:0:
80,132,98812,5,0,0:0:0:0:
72,148,98877,1,0,0:0:0:0:
68,164,98942,1,0,0:0:0:0:
68,180,99007,1,0,0:0:0:0:
68,196,99072,1,0,0:0:0:0:
72,212,99138,1,0,0:0:0:0:
80,228,99203,1,0,0:0:0:0:
96,236,99268,1,0,0:0:0:0:
112,236,99333,1,0,0:0:0:0:
144,220,99464,5,0,0:0:0:0:
176,228,99594,5,0,0:0:0:0:
192,236,99659,1,0,0:0:0:0:
204,248,99725,1,0,0:0:0:0:
212,264,99790,1,0,0:0:0:0:
216,280,99855,1,0,0:0:0:0:
216,296,99920,1,0,0:0:0:0:
212,312,99985,1,0,0:0:0:0:
200,328,100051,1,0,0:0:0:0:
188,340,100116,1,0,0:0:0:0:
172,344,100181,1,0,0:0:0:0:
156,344,100246,5,0,0:0:0:0:
136,340,100312,1,0,0:0:0:0:
120,336,100377,1,0,0:0:0:0:
104,328,100442,1,0,0:0:0:0:
64,284,100507,5,0,0:0:0:0:
36,184,100638,1,0,0:0:0:0:
68,96,100768,1,0,0:0:0:0:
156,52,100899,1,0,0:0:0:0:
240,44,101029,1,0,0:0:0:0:
240,44,101159,5,0,0:0:0:0:
260,48,101225,1,0,0:0:0:0:
276,60,101290,1,0,0:0:0:0:
284,72,101355,1,0,0:0:0:0:
288,84,101420,1,0,0:0:0:0:
288,96,101485,1,0,0:0:0:0:
284,108,101551,1,0,0:0:0:0:
280,116,101616,1,0,0:0:0:0:
276,124,101681,1,0,0:0:0:0:
208,180,101812,5,0,0:0:0:0:
200,260,101942,5,0,0:0:0:0:
216,304,102072,1,0,0:0:0:0:
252,328,102203,1,0,0:0:0:0:
296,328,102333,1,0,0:0:0:0:
340,312,102464,1,0,0:0:0:0:
372,280,102594,1,0,0:0:0:0:
388,236,102725,1,0,0:0:0:0:
392,192,102855,1,0,0:0:0:0:
372,152,102985,1,0,0:0:0:0:
340,120,103116,1,0,0:0:0:0:
296,116,103246,5,0,0:0:0:0:
236,132,103377,1,0,0:0:0:0:
192,176,103507,1,0,0:0:0:0:
176,236,103638,1,0,0:0:0:0:
140,288,103768,1,0,0:0:0:0:
76,284,103899,1,0,0:0:0:0:
32,236,104029,1,0,0:0:0:0:
12,176,104159,1,0,0:0:0:0:
28,116,104290,1,0,0:0:0:0:
64,64,104420,1,0,0:0:0:0:
116,28,104551,1,0,0:0:0:0:
180,20,104681,1,0,0:0:0:0:
244,20,104812,5,0,0:0:0:0:
320,48,104942,1,0,0:0:0:0:
376,108,105072,1,0,0:0:0:0:
396,188,105203,1,0,0:0:0:0:
388,268,105333,1,0,0:0:0:0:
328,324,105464,1,0,0:0:0:0:
252,344,105594,1,0,0:0:0:0:
172,344,105725,1,0,0:0:0:0:
104,304,105855,1,0,0:0:0:0:
72,232,105985,1,0,0:0:0:0:
84,152,106116,5,0,0:0:0:0:
84,152,106181,1,0,0:0:0:0:
84,152,106246,1,0,0:0:0:0:
148,104,106377,5,0,0:0:0:0:
148,104,106442,1,0,0:0:0:0:
148,104,106507,1,0,0:0:0:0:
228,100,106638,5,0,0:0:0:0:
228,100,106703,1,0,0:0:0:0:
228,100,106768,1,0,0:0:0:0:
308,116,106899,5,0,0:0:0:0:
308,116,106964,1,0,0:0:0:0:
308,116,107029,1,0,0:0:0:0:
308,116,107094,1,0,0:0:0:0:
308,116,107159,1,0,0:0:0:0:
308,116,107225,1,0,0:0:0:0:
308,116,107290,1,0,0:0:0:0:
308,116,107355,1,0,0:0:0:0:
308,116,107420,1,0,0:0:0:0:
308,116,107485,1,0,0:0:0:0:
308,116,107551,1,0,0:0:0:0:
308,116,107616,1,0,0:0:0:0:
308,116,107681,1,0,0:0:0:0:
308,116,107746,1,0,0:0:0:0:
308,116,107812,1,0,0:0:0:0:
308,116,107877,1,0,0:0:0:0:
308,116,107942,1,0,0:0:0:0:
316,180,108072,5,0,0:0:0:0:
316,204,108203,1,0,0:0:0:0:
284,236,108333,1,0,0:0:0:0:
240,240,108464,1,0,0:0:0:0:
196,232,108594,1,0,0:0:0:0:
156,208,108725,1,0,0:0:0:0:
140,168,108855,1,0,0:0:0:0:
136,124,108985,1,0,0:0:0:0:
164,88,109116,1,0,0:0:0:0:
204,64,109246,1,0,0:0:0:0:
248,52,109377,1,0,0:0:0:0:
312,60,109507,5,0,0:0:0:0:
344,116,109638,1,0,0:0:0:0:
296,156,109768,1,0,0:0:0:0:
344,196,109899,1,0,0:0:0:0:
304,244,110029,1,0,0:0:0:0:
352,284,110159,1,0,0:0:0:0:
408,260,110290,5,0,0:0:0:0:
436,204,110420,1,0,0:0:0:0:
436,140,110551,1,0,0:0:0:0:
436,76,110681,1,0,0:0:0:0:
384,44,110812,1,0,0:0:0:0:
320,40,110942,1,0,0:0:0:0:
260,48,111072,5,0,0:0:0:0:
248,56,111138,1,0,0:0:0:0:
236,64,111203,1,0,0:0:0:0:
160,44,111333,5,0,0:0:0:0:
148,52,111399,1,0,0:0:0:0:
136,60,111464,1,0,0:0:0:0:
184,100,111594,5,0,0:0:0:0:
176,108,111659,1,0,0:0:0:0:
164,116,111725,1,0,0:0:0:0:
92,100,111855,5,0,0:0:0:0:
80,108,111920,1,0,0:0:0:0:
68,116,111985,1,0,0:0:0:0:
80,140,112116,5,0,0:0:0:0:
92,148,112182,1,0,0:0:0:0:
104,156,112247,1,0,0:0:0:0:
180,136,112377,5,0,0:0:0:0:
192,144,112443,1,0,0:0:0:0:
204,152,112508,1,0,0:0:0:0:
156,192,112638,5,0,0:0:0:0:
164,200,112703,1,0,0:0:0:0:
176,208,112769,1,0,0:0:0:0:
248,192,112899,5,0,0:0:0:0:
260,200,112964,1,0,0:0:0:0:
272,208,113029,1,0,0:0:0:0:
328,176,113159,5,0,0:0:0:0:
340,168,113225,1,0,0:0:0:0:
352,160,113290,1,0,0:0:0:0:
384,224,113420,5,0,0:0:0:0:
392,232,113485,1,0,0:0:0:0:
400,240,113551,1,0,0:0:0:0:
420,172,113681,5,0,0:0:0:0:
432,168,113746,1,0,0:0:0:0:
444,164,113812,1,0,0:0:0:0:
248,192,113942,5,0,0:0:0:0:
112,76,114203,5,0,0:0:0:0:
376,24,114464,1,0,0:0:0:0:
344,292,114594,1,0,0:0:0:0:
344,292,114659,1,0,0:0:0:0:
344,292,114725,1,0,0:0:0:0:
76,332,114985,5,0,0:0:0:0:
180,84,115246,1,0,0:0:0:0:
404,236,115507,1,0,0:0:0:0:
264,164,115638,1,0,0:0:0:0:
264,164,115703,1,0,0:0:0:0:
264,164,115768,5,0,0:0:0:0:
188,252,116029,1,0,0:0:0:0:
76,112,116290,1,0,0:0:0:0:
292,272,116551,5,0,0:0:0:0:
448,52,116812,1,0,0:0:0:0:
180,84,116942,1,0,0:0:0:0:
180,84,117007,1,0,0:0:0:0:
180,84,117072,1,0,0:0:0:0:
408,228,117333,5,0,0:0:0:0:
408,228,117399,1,0,0:0:0:0:
408,228,117464,1,0,0:0:0:0:
328,120,117594,1,0,0:0:0:0:
72,200,117855,1,0,0:0:0:0:
324,296,118116,1,0,0:0:0:0:
72,200,118377,5,0,0:0:0:0:
72,200,118442,1,0,0:0:0:0:
72,200,118507,1,0,0:0:0:0:
208,200,118638,1,0,0:0:0:0:
456,96,118899,1,0,0:0:0:0:
188,88,119159,1,0,0:0:0:0:
188,88,119225,1,0,0:0:0:0:
188,88,119290,1,0,0:0:0:0:
308,148,119420,1,0,0:0:0:0:
256,192,120203,12,0,120464,0:0:0:0:
