osu file format v13

[General]
AudioFilename: 04 - White Winter Hymnal.mp3
AudioLeadIn: 2000
PreviewTime: 50104
Countdown: 0
SampleSet: Soft
StackLeniency: 0.4
Mode: 0
LetterboxInBreaks: 0
WidescreenStoryboard: 0

[Editor]
DistanceSpacing: 1.1
BeatDivisor: 4
GridSize: 4
TimelineZoom: 1

[Metadata]
Title:White Winter Hymnal
TitleUnicode:White Winter Hymnal
Artist:Birdy
ArtistUnicode:Birdy
Creator:Static Noise Bird
Version:Sleighs
Source:
Tags:fleet foxes cover indie robin pecknold
BeatmapID:553051
BeatmapSetID:239191

[Difficulty]
HPDrainRate:5.5
CircleSize:4
OverallDifficulty:5.5
ApproachRate:7.5
SliderMultiplier:3.59999990463257
SliderTickRate:2

[Events]
//Background and Video events
0,0,"BG.jpg",0,0
//Break Periods
//Storyboard Layer 0 (Background)
//Storyboard Layer 1 (Fail)
//Storyboard Layer 2 (Pass)
//Storyboard Layer 3 (Foreground)
//Storyboard Sound Samples

[TimingPoints]
220,923.78752886836,4,2,0,40,1,0
16848,923.78752886836,4,2,0,40,1,0
130935,-100,4,2,0,32,0,0
131397,-100,4,2,0,24,0,0
131859,-100,4,2,0,16,0,0
132321,-100,4,2,0,8,0,0
132552,-100,4,2,0,5,0,0

[Colours]
Combo1 : 128,64,0
Combo2 : 163,237,234
Combo3 : 128,0,0
Combo4 : 0,128,0

[HitObjects]
60,104,220,6,0,P|112:92|256:100,1,179.999995231628,6|0,0:0|0:0,0:0:0:0:
352,128,912,1,0,0:0:0:0:
488,296,1143,2,0,P|396:308|376:304,1,89.9999976158142,10|0,0:0|0:0,0:0:0:0:
196,240,1605,1,0,0:0:0:0:
296,232,1836,1,0,0:0:0:0:
472,188,2067,6,0,P|388:168|292:80,1,179.999995231628,2|0,0:0|0:0,0:0:0:0:
236,20,2760,1,0,0:0:0:0:
216,116,2991,2,0,P|192:184|160:212,1,89.9999976158142,10|0,0:0|0:0,0:0:0:0:
32,304,3453,5,0,0:0:0:0:
44,204,3684,1,0,0:0:0:0:
84,112,3915,1,2,0:0:0:0:
396,40,4377,2,0,P|392:112|380:148,1,89.9999976158142
344,232,4839,1,10,0:0:0:0:
144,312,5300,6,0,B|80:316|80:316|24:304,2,89.9999976158142,0|0|2,0:0|0:0|0:0,0:0:0:0:
476,36,6224,2,0,P|472:120|416:164,1,119.999996821086
416,172,6686,2,0,P|392:304|396:372,1,179.999995231628,10|0,0:0|0:0,0:0:0:0:
224,252,7610,6,0,P|192:180|96:108,1,179.999995231628,2|0,0:0|0:0,0:0:0:0:
12,56,8303,1,0,0:0:0:0:
192,72,8534,2,0,B|244:80|244:80|300:72,1,89.9999976158142,10|0,0:0|0:0,0:0:0:0:
512,28,8995,2,0,B|465:21|465:21|413:29,1,89.9999976158142
284,160,9457,6,0,B|224:192|288:288|236:324,1,179.999995231629,2|0,0:0|0:0,0:0:0:0:
136,328,10150,1,0,0:0:0:0:
76,252,10381,1,10,0:0:0:0:
76,152,10612,1,0,0:0:0:0:
204,56,10843,5,0,0:0:0:0:
284,116,11074,1,0,0:0:0:0:
344,196,11305,1,2,0:0:0:0:
72,348,11767,2,0,P|52:280|52:240,1,89.9999976158142
76,152,12229,1,10,0:0:0:0:
440,36,12691,2,0,P|460:104|460:144,1,89.9999976158142
436,232,13153,1,2,0:0:0:0:
184,300,13614,5,0,0:0:0:0:
116,224,13845,1,0,0:0:0:0:
52,64,14076,1,10,0:0:0:0:
152,80,14307,1,0,0:0:0:0:
96,312,14538,1,0,0:0:0:0:
256,192,15000,12,0,16386,0:0:0:0:
356,352,16848,6,0,B|262:272|353:188|263:104,1,269.999992847443,6|0,0:0|0:0,0:0:0:0:
192,44,17771,1,10,0:0:0:0:
92,36,18002,1,0,0:0:0:0:
16,100,18233,1,0,0:0:0:0:
20,200,18464,1,0,0:0:0:0:
200,264,18695,6,0,B|320:289|320:145|447:178,1,269.999992847443,2|0,0:0|0:0,0:0:0:0:
512,248,19619,1,10,0:0:0:0:
484,344,19850,1,0,0:0:0:0:
392,380,20081,1,0,0:0:0:0:
296,352,20312,1,0,0:0:0:0:
220,164,20543,6,0,P|96:104|24:212,1,269.999992847443,2|0,0:0|0:0,0:0:0:0:
40,288,21466,1,10,0:0:0:0:
112,356,21697,1,0,0:0:0:0:
208,372,21928,1,0,0:0:0:0:
304,344,22159,1,0,0:0:0:0:
412,172,22390,6,0,P|380:96|220:132,1,269.999992847443,2|0,0:0|0:0,0:0:0:0:
176,272,23314,2,0,B|180:316|180:316|208:364,1,89.9999976158143,10|0,0:0|0:0,0:0:0:0:
408,332,23776,2,0,B|380:297|380:297|331:272,1,89.9999976158143
120,200,24238,5,2,0:0:0:0:
480,152,24931,1,0,0:0:0:0:
396,96,25162,2,0,B|372:48|372:48|340:28,2,89.9999976158143,10|0|0,0:0|0:0|0:0,0:0:0:0:
388,196,25854,1,0,0:0:0:0:
199,272,26085,6,0,P|111:265|47:203,1,179.999995231629,2|0,0:0|0:0,0:0:0:0:
48,204,27009,1,10,0:0:0:0:
116,132,27240,1,0,0:0:0:0:
204,88,27471,1,0,0:0:0:0:
304,76,27702,1,0,0:0:0:0:
404,84,27933,1,2,0:0:0:0:
48,204,28626,5,0,0:0:0:0:
116,132,28857,2,0,P|208:136|296:100,1,179.999995231629,10|0,0:0|0:0,0:0:0:0:
376,56,29550,2,0,P|364:164|380:252,1,179.999995231629
420,320,30242,1,0,0:0:0:0:
320,312,30473,2,0,L|230:300,1,89.9999976158143,0|10,0:0|0:0,0:0:0:0:
40,216,30935,2,0,L|132:228,1,89.9999976158143,0|0,0:0|0:0,0:0:0:0:
231,300,31397,1,0,0:0:0:0:
300,204,31628,6,0,P|372:208|468:144,1,179.999995231629,2|0,0:0|0:0,0:0:0:0:
340,48,32321,1,0,0:0:0:0:
240,48,32552,1,10,0:0:0:0:
148,88,32783,1,0,0:0:0:0:
92,168,33014,1,0,0:0:0:0:
76,264,33245,1,0,0:0:0:0:
248,356,33476,6,0,P|332:360|432:208,1,269.999992847443,2|0,0:0|0:0,0:0:0:0:
452,52,34399,1,10,0:0:0:0:
416,133,34630,1,0,0:0:0:0:
264,268,34861,1,0,0:0:0:0:
299,186,35092,1,0,0:0:0:0:
376,44,35323,6,0,P|384:152|484:272,1,269.999992847443,2|0,0:0|0:0,0:0:0:0:
392,304,36247,2,0,B|336:300|272:312|272:312|236:264|172:248,1,179.999995231629,10|0,0:0|0:0,0:0:0:0:
132,248,36940,1,0,0:0:0:0:
40,128,37171,6,0,P|164:124|224:96,1,179.999995231629,2|0,0:0|0:0,0:0:0:0:
272,24,37864,1,0,0:0:0:0:
312,116,38095,1,10,0:0:0:0:
352,208,38326,2,0,P|432:264|504:220,1,179.999995231629
312,116,39018,6,0,P|256:172|272:268,1,179.999995231629,2|0,0:0|0:0,0:0:0:0:
332,344,39711,1,0,0:0:0:0:
184,300,39942,2,0,P|124:288|64:288,1,89.9999976158143,10|0,0:0|0:0,0:0:0:0:
32,208,40404,1,0,0:0:0:0:
48,112,40635,1,0,0:0:0:0:
132,56,40866,1,2,0:0:0:0:
508,260,41328,5,0,0:0:0:0:
448,340,41559,1,0,0:0:0:0:
348,352,41790,2,0,P|256:336|188:276,1,179.999995231629,10|0,0:0|0:0,0:0:0:0:
140,188,42483,1,0,0:0:0:0:
120,24,42714,6,0,P|204:88|244:176,1,179.999995231629,2|0,0:0|0:0,0:0:0:0:
132,292,43406,2,0,B|84:272|84:272|38:228,2,89.9999976158143,0|10|0,0:0|0:0|0:0,0:0:0:0:
204,356,44099,1,0,0:0:0:0:
304,360,44330,1,0,0:0:0:0:
392,316,44561,5,2,0:0:0:0:
428,224,44792,2,0,B|440:176|440:128|440:128|396:100|368:40,1,179.999995231629
256,32,45485,1,10,0:0:0:0:
128,68,45716,2,0,B|116:100|72:128|72:128|72:176|84:224,1,179.999995231629
256,192,46409,12,0,49642,0:0:0:0:
236,376,50104,6,0,P|232:224|188:104,1,269.999992847443,6|0,0:0|0:0,0:0:0:0:
36,40,51028,1,10,0:0:0:0:
36,140,51259,1,0,0:0:0:0:
76,228,51490,1,0,0:0:0:0:
156,288,51720,1,0,0:0:0:0:
252,312,51951,5,2,0:0:0:0:
508,196,52413,1,0,0:0:0:0:
252,72,52875,1,10,0:0:0:0:
156,96,53106,1,0,0:0:0:0:
76,156,53336,1,0,0:0:0:0:
36,244,53567,1,0,0:0:0:0:
36,344,53799,1,2,0:0:0:0:
252,72,54492,5,0,0:0:0:0:
172,128,54723,2,0,B|157:196|234:232|216:298,1,179.999995231629,10|0,0:0|0:0,0:0:0:0:
304,340,55416,1,0,0:0:0:0:
400,308,55647,1,2,0:0:0:0:
452,136,55878,2,0,P|340:120|264:132,1,179.999995231629
4,324,56801,2,0,P|116:340|192:328,1,179.999995231629
276,296,57494,5,2,0:0:0:0:
412,44,57956,1,0,0:0:0:0:
444,140,58187,1,0,0:0:0:0:
428,236,58418,1,10,0:0:0:0:
380,320,58649,1,0,0:0:0:0:
296,368,58880,1,0,0:0:0:0:
196,368,59111,1,0,0:0:0:0:
108,324,59342,5,2,0:0:0:0:
52,136,59804,2,0,P|96:176|136:188,1,89.9999976158143
220,208,60266,1,10,0:0:0:0:
320,204,60496,1,0,0:0:0:0:
416,176,60727,2,0,P|452:152|484:104,1,89.9999976158143
512,24,61189,5,2,0:0:0:0:
220,208,61651,2,0,B|236:248|236:248|276:284,1,89.9999976158143
356,328,62113,1,10,0:0:0:0:
512,316,62344,2,0,P|464:216|380:180,1,179.999995231629
232,180,63037,6,0,P|136:200|44:168,1,179.999995231629,2|0,0:0|0:0,0:0:0:0:
144,112,63730,2,0,P|144:220|124:296,2,179.999995231629,0|0|0,0:0|0:0|0:0,0:0:0:0:
108,20,64884,5,2,0:0:0:0:
216,344,65346,1,0,0:0:0:0:
248,252,65577,1,0,0:0:0:0:
300,168,65808,2,0,P|336:116|376:84,1,89.9999976158143,10|0,0:0|0:0,0:0:0:0:
512,104,66270,2,0,P|458:137|409:151,1,89.9999976158143
216,152,66732,6,0,P|128:132|32:160,1,179.999995231629,2|0,0:0|0:0,0:0:0:0:
4,244,67425,1,0,0:0:0:0:
40,336,67656,2,0,P|128:356|224:328,1,179.999995231629,10|0,0:0|0:0,0:0:0:0:
296,280,68349,1,0,0:0:0:0:
360,204,68580,6,0,P|408:136|504:96,1,179.999995231629,2|0,0:0|0:0,0:0:0:0:
450,252,69272,2,0,P|379:303|296:280,1,179.999995231629
61,131,70196,2,0,P|132:80|216:104,1,179.999995231629
248,196,70889,1,0,0:0:0:0:
216,288,71120,1,0,0:0:0:0:
124,328,71351,5,10,0:0:0:0:
73,185,71582,2,0,P|155:222|216:288,1,179.999995231629
256,192,72275,12,0,75508,0:0:0:0:
460,344,75970,6,0,P|496:256|440:176,1,179.999995231629,6|0,0:0|0:0,0:0:0:0:
380,124,76663,1,0,0:0:0:0:
292,76,76894,2,0,B|248:68|248:68|192:76,1,89.9999976158143,10|0,0:0|0:0,0:0:0:0:
56,188,77356,2,0,B|100:196|100:196|156:188,1,89.9999976158143
292,76,77817,6,0,P|376:44|456:76,1,179.999995231629,2|0,0:0|0:0,0:0:0:0:
292,320,78741,1,10,0:0:0:0:
192,332,78972,1,0,0:0:0:0:
104,284,79203,1,0,0:0:0:0:
88,188,79434,1,0,0:0:0:0:
112,24,79665,6,0,B|153:117|272:64|322:177,1,269.999992847443,2|0,0:0|0:0,0:0:0:0:
348,340,80589,2,0,P|392:256|468:192,1,179.999995231629,10|0,0:0|0:0,0:0:0:0:
488,108,81282,1,0,0:0:0:0:
428,32,81513,5,2,0:0:0:0:
328,20,81744,1,0,0:0:0:0:
56,104,82205,1,0,0:0:0:0:
116,180,82436,1,10,0:0:0:0:
216,192,82667,1,0,0:0:0:0:
396,108,83129,1,0,0:0:0:0:
492,80,83360,5,2,0:0:0:0:
328,316,83822,1,0,0:0:0:0:
232,344,84053,1,0,0:0:0:0:
136,320,84284,1,10,0:0:0:0:
88,232,84515,1,0,0:0:0:0:
104,136,84746,1,0,0:0:0:0:
180,72,84977,1,0,0:0:0:0:
448,68,85208,6,0,P|388:132|292:168,1,179.999995231629,2|0,0:0|0:0,0:0:0:0:
196,164,85901,1,0,0:0:0:0:
248,248,86132,1,10,0:0:0:0:
216,340,86363,2,0,P|156:356|128:376,2,89.9999976158143,0|0|0,0:0|0:0|0:0,0:0:0:0:
352,308,87055,6,0,P|444:260|484:196,1,179.999995231629,2|0,0:0|0:0,0:0:0:0:
412,20,87748,1,0,0:0:0:0:
360,104,87979,1,10,0:0:0:0:
380,196,88210,2,0,P|430:269|511:306,1,179.999995231629
352,308,88903,6,0,P|268:284|168:292,1,179.999995231629,2|0,0:0|0:0,0:0:0:0:
72,236,89596,1,0,0:0:0:0:
256,40,90058,1,0,0:0:0:0:
440,236,90520,1,0,0:0:0:0:
392,304,90751,6,0,B|268:356|248:248|132:304,1,269.999992847443,2|0,0:0|0:0,0:0:0:0:
188,372,91674,2,0,P|220:304|160:220,1,179.999995231629,10|0,0:0|0:0,0:0:0:0:
32,72,92598,6,0,P|160:116|308:64,1,269.999992847443,2|0,0:0|0:0,0:0:0:0:
392,24,93522,2,0,P|376:116|408:204,1,179.999995231629,10|0,0:0|0:0,0:0:0:0:
436,292,94215,1,0,0:0:0:0:
336,296,94446,6,0,B|276:248|213:305|156:264,1,179.999995231629,2|0,0:0|0:0,0:0:0:0:
96,196,95138,1,0,0:0:0:0:
152,116,95369,1,10,0:0:0:0:
232,56,95600,1,0,0:0:0:0:
512,132,96062,1,0,0:0:0:0:
416,168,96293,5,2,0:0:0:0:
316,176,96524,2,0,P|228:162|152:116,1,179.999995231629
64,60,97217,1,10,0:0:0:0:
64,160,97448,2,0,P|64:232|12:324,1,179.999995231629
256,192,98141,12,0,101374,0:0:0:0:
136,168,101836,5,6,0:0:0:0:
316,88,102298,1,0,0:0:0:0:
396,148,102529,1,0,0:0:0:0:
436,348,102760,2,0,P|340:308|280:248,1,179.999995231629,10|0,0:0|0:0,0:0:0:0:
200,80,103684,5,2,0:0:0:0:
368,184,104145,1,0,0:0:0:0:
372,284,104376,2,0,P|352:332|284:352,1,89.9999976158143,0|10,0:0|0:0,0:0:0:0:
220,340,104838,1,0,0:0:0:0:
52,232,105300,1,0,0:0:0:0:
136,180,105531,5,2,0:0:0:0:
320,104,105993,1,0,0:0:0:0:
412,72,106224,1,0,0:0:0:0:
508,88,106455,1,10,0:0:0:0:
264,180,106917,1,0,0:0:0:0:
468,344,107379,5,2,0:0:0:0:
368,356,107610,2,0,P|320:364|276:356,1,89.9999976158143
188,320,108072,1,0,0:0:0:0:
128,240,108302,1,10,0:0:0:0:
108,144,108533,1,0,0:0:0:0:
112,44,108764,1,0,0:0:0:0:
280,240,109226,6,0,P|360:276|456:232,1,179.999995231629,2|0,0:0|0:0,0:0:0:0:
364,164,109919,1,0,0:0:0:0:
256,140,110150,2,0,P|196:172|188:284,1,179.999995231629,10|0,0:0|0:0,0:0:0:0:
460,316,111074,5,2,0:0:0:0:
492,220,111305,1,0,0:0:0:0:
484,120,111536,1,0,0:0:0:0:
420,44,111767,1,0,0:0:0:0:
324,24,111998,2,0,P|272:24|232:36,1,89.9999976158143,10|0,0:0|0:0,0:0:0:0:
152,88,112460,1,0,0:0:0:0:
12,272,112921,6,0,B|84:252|120:292|192:268,1,179.999995231629,2|0,0:0|0:0,0:0:0:0:
256,192,113614,1,0,0:0:0:0:
321,115,113845,2,0,B|392:92|428:132|500:112,1,179.999995231629,10|0,0:0|0:0,0:0:0:0:
456,336,114769,6,0,P|352:328|296:264,1,179.999995231629,2|0,0:0|0:0,0:0:0:0:
256,192,115462,1,0,0:0:0:0:
210,106,115693,2,0,P|144:48|56:48,1,179.999995231629,10|0,0:0|0:0,0:0:0:0:
24,140,116386,1,0,0:0:0:0:
52,236,116617,6,0,P|116:296|216:312,1,179.999995231629,2|0,0:0|0:0,0:0:0:0:
300,292,117309,1,0,0:0:0:0:
384,240,117540,1,10,0:0:0:0:
452,56,118002,1,0,0:0:0:0:
264,112,118464,6,0,P|176:136|72:104,1,179.999995231629,2|0,0:0|0:0,0:0:0:0:
12,52,119157,1,0,0:0:0:0:
16,152,119388,1,10,0:0:0:0:
56,244,119619,2,0,P|116:312|236:348,1,179.999995231629
314,345,120312,6,0,P|397:311|456:244,1,179.999995231629,2|0,0:0|0:0,0:0:0:0:
472,144,121005,1,0,0:0:0:0:
476,44,121235,1,10,0:0:0:0:
192,24,121697,1,0,0:0:0:0:
44,272,122159,5,2,0:0:0:0:
140,300,122390,2,0,B|204:312|252:280|320:296,1,179.999995231629
408,336,123083,2,0,P|492:328|492:220,1,179.999995231629,10|0,0:0|0:0,0:0:0:0:
480,152,123776,1,0,0:0:0:0:
412,80,124007,5,2,0:0:0:0:
320,48,124238,1,0,0:0:0:0:
220,48,124469,1,0,0:0:0:0:
128,84,124700,1,0,0:0:0:0:
64,160,124931,1,10,0:0:0:0:
136,348,125393,1,0,0:0:0:0:
256,192,125854,5,2,0:0:0:0:
316,112,126085,1,0,0:0:0:0:
404,68,126316,1,0,0:0:0:0:
488,88,126547,2,0,P|492:184|436:272,1,179.999995231629
453,255,127240,1,0,0:0:0:0:
388,316,127471,1,0,0:0:0:0:
256,364,127702,6,0,B|302:221|421:259|488:160|442:10|294:5|256:115|256:115|213:5|65:14|28:156|82:259|192:220|224:312,1,989.999973773957,2|0,0:0|0:0,0:0:0:0:
256,192,130473,12,0,133245,0:0:0:0:
