osu file format v13

[General]
AudioFilename: 04 - White Winter Hymnal.mp3
AudioLeadIn: 2000
PreviewTime: 50104
Countdown: 0
SampleSet: Soft
StackLeniency: 0.4
Mode: 0
LetterboxInBreaks: 0
WidescreenStoryboard: 0

[Editor]
Bookmarks: 101836
DistanceSpacing: 1.3
BeatDivisor: 4
GridSize: 4
TimelineZoom: 1

[Metadata]
Title:White Winter Hymnal
TitleUnicode:White Winter Hymnal
Artist:Birdy
ArtistUnicode:Birdy
Creator:Static Noise Bird
Version:Normal
Source:
Tags:fleet foxes cover indie robin pecknold
BeatmapID:553076
BeatmapSetID:239191

[Difficulty]
HPDrainRate:3.5
CircleSize:3
OverallDifficulty:3.5
ApproachRate:5
SliderMultiplier:2.49999990463257
SliderTickRate:2

[Events]
//Background and Video events
0,0,"BG.jpg",0,0
//Break Periods
//Storyboard Layer 0 (Background)
//Storyboard Layer 1 (Fail)
//Storyboard Layer 2 (Pass)
//Storyboard Layer 3 (Foreground)
//Storyboard Sound Samples

[TimingPoints]
220,923.78752886836,4,2,0,40,1,0
16848,923.78752886836,4,2,0,40,1,0
130935,-100,4,2,0,32,0,0
131397,-100,4,2,0,24,0,0
131859,-100,4,2,0,16,0,0
132321,-100,4,2,0,8,0,0
132552,-100,4,2,0,5,0,0

[Colours]
Combo1 : 128,64,0
Combo2 : 163,237,234
Combo3 : 128,0,0
Combo4 : 0,128,0

[HitObjects]
168,88,220,6,0,P|256:60|344:88,1,187.499992847443,6|0,0:0|0:0,0:0:0:0:
412,132,1143,1,10,0:0:0:0:
460,288,1605,1,0,0:0:0:0:
380,300,1836,1,0,0:0:0:0:
316,252,2067,6,0,B|252:225|192:251|192:251|137:190,1,187.499992847443,2|0,0:0|0:0,0:0:0:0:
96,148,2991,1,10,0:0:0:0:
208,32,3453,1,0,0:0:0:0:
288,24,3684,1,0,0:0:0:0:
364,52,3915,6,0,P|428:68|480:124,1,124.999995231629,2|0,0:0|0:0,0:0:0:0:
472,268,4838,2,0,P|426:310|366:324,1,124.999995231629,10|0,0:0|0:0,0:0:0:0:
284,336,5531,1,0,0:0:0:0:
204,340,5762,2,0,P|128:324|72:296,1,124.999995231629,2|0,0:0|0:0,0:0:0:0:
0,164,6686,2,0,P|76:148|132:120,1,124.999995231629,10|0,0:0|0:0,0:0:0:0:
252,36,7610,6,0,P|336:44|388:164,1,187.499992847443,2|0,0:0|0:0,0:0:0:0:
384,204,8534,1,10,0:0:0:0:
316,352,8995,1,0,0:0:0:0:
236,344,9226,1,0,0:0:0:0:
184,280,9457,6,0,P|130:204|36:228,1,187.499992847443,2|0,0:0|0:0,0:0:0:0:
100,284,10381,1,10,0:0:0:0:
272,296,10843,1,0,0:0:0:0:
352,303,11074,1,0,0:0:0:0:
412,248,11305,6,0,P|444:196|448:120,1,124.999995231629,2|0,0:0|0:0,0:0:0:0:
352,0,12229,2,0,P|320:52|316:128,1,124.999995231629,10|0,0:0|0:0,0:0:0:0:
360,184,12922,1,0,0:0:0:0:
412,248,13153,2,0,P|432:308|411:380,1,124.999995231629,2|0,0:0|0:0,0:0:0:0:
268,308,14076,1,10,0:0:0:0:
212,156,14538,1,0,0:0:0:0:
368,108,15000,1,6,0:0:0:0:
384,72,16848,5,6,0:0:0:0:
144,108,17540,2,0,L|80:120,1,62.4999976158143,0|10,0:0|0:0,0:0:0:0:
56,280,18233,1,0,0:0:0:0:
200,360,18695,5,2,0:0:0:0:
424,264,19388,2,0,P|456:228|464:188,1,62.4999976158143,0|10,0:0|0:0,0:0:0:0:
436,52,20081,1,0,0:0:0:0:
308,152,20543,5,2,0:0:0:0:
200,360,21235,2,0,L|176:288,1,62.4999976158143,0|10,0:0|0:0,0:0:0:0:
144,140,21928,2,0,P|156:72|220:24,1,124.999995231629,0|2,0:0|0:0,0:0:0:0:
416,136,23083,6,0,L|488:172,1,62.4999976158143,0|10,0:0|0:0,0:0:0:0:
364,284,23776,2,0,B|304:320|304:320|232:308,1,124.999995231629,0|6,0:0|0:0,0:0:0:0:
52,172,24931,6,0,L|-12:136,1,62.4999976158143,0|10,0:0|0:0,0:0:0:0:
144,56,25623,1,0,0:0:0:0:
304,36,26085,2,0,P|388:40|448:72,1,124.999995231629,2|0,0:0|0:0,0:0:0:0:
484,208,27009,2,0,B|452:200|424:180|424:180|385:182|340:172,1,124.999995231629,10|0,0:0|0:0,0:0:0:0:
244,68,27933,1,2,0:0:0:0:
44,316,28857,6,0,P|104:340|172:320,1,124.999995231629,10|0,0:0|0:0,0:0:0:0:
224,276,29550,2,0,P|284:263|344:284,1,124.999995231629
500,324,30473,2,0,P|488:287|484:240,1,62.4999976158143,0|10,0:0|0:0,0:0:0:0:
444,192,30935,2,0,P|372:144|244:140,1,187.499992847443,0|2,0:0|0:0,0:0:0:0:
32,168,32321,6,0,L|0:244,1,62.4999976158143,0|10,0:0|0:0,0:0:0:0:
72,376,33014,2,0,P|100:312|136:272,1,124.999995231629,0|2,0:0|0:0,0:0:0:0:
304,92,34169,2,0,L|356:48,1,62.4999976158143,0|10,0:0|0:0,0:0:0:0:
512,28,34861,2,0,P|488:112|496:160,1,124.999995231629,0|2,0:0|0:0,0:0:0:0:
372,360,36016,6,0,L|344:296,1,62.4999976158143,0|10,0:0|0:0,0:0:0:0:
252,168,36709,1,0,0:0:0:0:
132,56,37171,2,0,P|88:128|92:200,1,124.999995231629,2|0,0:0|0:0,0:0:0:0:
60,244,37864,2,0,L|40:340,1,62.4999976158143,0|10,0:0|0:0,0:0:0:0:
108,360,38326,2,0,P|168:328|256:332,1,124.999995231629
304,308,39018,6,0,P|400:352|484:316,1,187.499992847443,2|0,0:0|0:0,0:0:0:0:
496,248,39942,1,10,0:0:0:0:
408,116,40404,1,0,0:0:0:0:
248,128,40866,2,0,P|172:144|40:104,1,187.499992847443,2|0,0:0|0:0,0:0:0:0:
64,208,41790,2,0,P|72:276|60:332,1,124.999995231629,10|0,0:0|0:0,0:0:0:0:
140,352,42483,6,0,B|200:332|200:332|260:364|332:332,1,187.499992847443,0|0,0:0|0:0,0:0:0:0:
400,316,43406,2,0,B|428:260|428:260|380:212|388:140,1,187.499992847443,0|0,0:0|0:0,0:0:0:0:
316,108,44330,2,0,P|216:136|152:104,2,124.999995231629,0|0|0,0:0|0:3|0:0,0:0:0:0:
388,72,45485,1,10,0:0:0:0:
448,16,45716,2,0,P|428:80|444:144,1,124.999995231629
256,192,46409,12,8,49180,0:0:0:0:
88,312,50104,6,0,B|140:260|72:196|132:136,1,187.499992847443,6|0,0:0|0:0,0:0:0:0:
200,96,51028,1,10,0:0:0:0:
360,64,51490,1,0,0:0:0:0:
476,180,51951,1,2,0:0:0:0:
316,212,52413,1,0,0:0:0:0:
160,252,52875,2,0,B|100:228|100:228|100:144,1,124.999995231629,10|0,0:0|0:0,0:0:0:0:
236,76,53799,6,0,P|328:92|432:64,1,187.499992847443,2|0,0:0|0:0,0:0:0:0:
504,44,54723,2,0,B|496:112|504:168|504:168|432:232,1,187.499992847443,10|0,0:0|0:0,0:0:0:0:
320,296,55878,1,0,0:0:0:0:
164,336,56339,1,0,0:0:0:0:
48,224,56801,1,0,0:0:0:0:
204,184,57263,2,0,P|231:160|260:120,1,62.4999976158143,0|2,0:0|0:0,0:0:0:0:
468,36,58187,6,0,L|496:104,1,62.4999976158143,0|10,0:0|0:0,0:0:0:0:
448,252,58880,1,0,0:0:0:0:
312,340,59342,1,2,0:0:0:0:
68,336,60035,2,0,L|40:268,1,62.4999976158143,0|10,0:0|0:0,0:0:0:0:
88,120,60728,1,0,0:0:0:0:
224,32,61190,1,2,0:0:0:0:
468,36,61882,6,0,L|496:104,1,62.4999976158143,0|10,0:0|0:0,0:0:0:0:
440,248,62575,2,0,P|416:308|356:340,1,124.999995231629,0|2,0:0|0:0,0:0:0:0:
204,336,63499,1,0,0:0:0:0:
136,292,63730,2,0,B|96:252|136:216|100:176,1,124.999995231629
236,92,64654,2,0,L|304:52,1,62.4999976158143,0|2,0:0|0:0,0:0:0:0:
384,284,65577,6,0,L|316:324,1,62.4999976158143,0|10,0:0|0:0,0:0:0:0:
168,344,66270,1,0,0:0:0:0:
24,268,66732,1,2,0:0:0:0:
136,52,67425,2,0,L|204:12,1,62.4999976158143,0|10,0:0|0:0,0:0:0:0:
344,48,68118,2,0,P|380:40|408:44,2,62.4999976158143,0|0|2,0:0|0:0|0:0,0:0:0:0:
236,168,69041,5,0,0:0:0:0:
196,240,69272,2,0,B|176:304|176:304|244:288|308:320,1,187.499992847443
376,324,70196,2,0,B|440:336|440:336|428:268|472:216,1,187.499992847443
488,140,71120,2,0,L|508:72,1,62.4999976158143,0|10,0:0|0:0,0:0:0:0:
428,56,71582,2,0,P|360:72|304:52,1,124.999995231629
256,192,72275,12,8,75046,0:0:0:0:
212,232,75970,6,0,P|112:248|96:140,1,187.499992847443,6|0,0:0|0:0,0:0:0:0:
100,104,76894,1,10,0:0:0:0:
256,32,77356,1,0,0:0:0:0:
412,104,77817,1,2,0:0:0:0:
368,264,78279,1,0,0:0:0:0:
208,292,78741,2,0,B|144:296|144:296|92:244,1,124.999995231629,10|0,0:0|0:0,0:0:0:0:
60,184,79434,1,0,0:0:0:0:
44,104,79665,1,2,0:0:0:0:
272,108,80358,5,0,0:0:0:0:
352,96,80589,1,10,0:0:0:0:
500,44,81051,2,0,L|476:120,1,62.4999976158143
460,184,81513,2,0,B|444:244|444:244|376:220|304:248,1,187.499992847443,2|0,0:0|0:0,0:0:0:0:
244,264,82436,2,0,B|184:284|184:284|180:212|124:176,1,187.499992847443,10|0,0:0|0:0,0:0:0:0:
64,124,83360,1,2,0:0:0:0:
304,72,84053,6,0,L|372:52,1,62.4999976158143,0|10,0:0|0:0,0:0:0:0:
512,124,84746,1,0,0:0:0:0:
488,284,85208,1,2,0:0:0:0:
248,336,85901,2,0,L|180:356,1,62.4999976158143,0|10,0:0|0:0,0:0:0:0:
40,284,86594,1,0,0:0:0:0:
64,124,87056,1,2,0:0:0:0:
304,72,87748,6,0,L|372:52,1,62.4999976158143,0|10,0:0|0:0,0:0:0:0:
512,124,88441,2,0,P|462:168|432:240,1,124.999995231629,0|2,0:0|0:0,0:0:0:0:
328,340,89365,2,0,L|288:256,1,62.4999976158143
204,152,90058,2,0,B|160:96|92:108|92:108|56:56,1,187.499992847443,0|2,0:0|0:0,0:0:0:0:
300,68,91443,6,0,P|344:72|380:68,1,62.4999976158143,0|10,0:0|0:0,0:0:0:0:
500,156,92136,1,0,0:0:0:0:
360,236,92598,1,2,0:0:0:0:
116,264,93291,2,0,P|56:256|24:256,1,62.4999976158143,0|10,0:0|0:0,0:0:0:0:
28,96,93984,1,0,0:0:0:0:
184,44,94446,6,0,P|248:36|320:56,1,124.999995231629,2|0,0:0|0:0,0:0:0:0:
380,88,95138,2,0,B|440:112|440:112|400:168|428:236,1,187.499992847443,0|0,0:0|0:0,0:0:0:0:
448,308,96062,2,0,B|456:368|456:368|384:348|332:368,1,187.499992847443,0|0,0:0|0:0,0:0:0:0:
252,352,96986,2,0,L|176:328,1,62.4999976158143,0|10,0:0|0:0,0:0:0:0:
116,304,97448,2,0,P|132:244|120:184,1,124.999995231629
256,192,98141,12,10,100912,0:0:0:0:
68,144,101836,6,0,B|124:104|208:176|260:140,1,187.499992847443,6|0,0:0|0:0,0:0:0:0:
324,108,102760,1,10,0:0:0:0:
468,32,103222,1,0,0:0:0:0:
448,192,103684,6,0,B|404:248|488:320|444:372,1,187.499992847443,2|0,0:0|0:0,0:0:0:0:
372,336,104607,1,8,0:0:0:0:
216,292,105069,1,0,0:0:0:0:
52,292,105531,5,2,0:0:0:0:
132,152,105993,2,0,L|152:64,1,62.4999976158143
180,16,106455,2,0,P|232:44|296:40,1,124.999995231629,10|0,0:0|0:0,0:0:0:0:
460,24,107379,6,0,P|452:88|476:160,1,124.999995231629,2|0,0:0|0:0,0:0:0:0:
412,300,108302,1,10,0:0:0:0:
256,348,108764,1,0,0:0:0:0:
100,300,109226,6,0,B|56:236|132:180|80:116,1,187.499992847443,2|0,0:0|0:0,0:0:0:0:
8,80,110150,2,0,P|56:40|132:52,1,124.999995231629,10|0,0:0|0:0,0:0:0:0:
272,88,111074,6,0,B|336:100|336:100|348:64|384:32|432:40,1,187.499992847443,2|0,0:0|0:0,0:0:0:0:
420,124,111998,2,0,P|416:188|376:252,1,124.999995231629,10|0,0:0|0:0,0:0:0:0:
240,308,112921,5,2,0:0:0:0:
68,32,113845,2,0,P|140:40|188:24,2,124.999995231629,10|0|2,0:0|0:0|0:0,0:0:0:0:
68,352,115693,2,0,P|140:344|188:360,1,124.999995231629,10|0,0:0|0:0,0:0:0:0:
348,328,116617,6,0,B|369:260|464:278|490:217,1,187.499992847443,2|0,0:0|0:0,0:0:0:0:
488,136,117540,1,10,0:0:0:0:
360,36,118002,1,0,0:0:0:0:
196,32,118464,6,0,P|112:44|44:132,1,187.499992847443,2|0,0:0|0:0,0:0:0:0:
36,200,119388,1,10,0:0:0:0:
20,360,119850,1,0,0:0:0:0:
168,292,120312,5,2,0:0:0:0:
328,264,120774,2,0,L|400:248,1,62.4999976158143
456,204,121235,2,0,P|412:160|388:84,1,124.999995231629,10|0,0:0|0:0,0:0:0:0:
228,80,122159,5,2,0:0:0:0:
120,200,122621,2,0,P|84:205|57:199,1,62.4999976158143
88,124,123083,2,0,P|145:121|200:195,1,124.999995231629,10|0,0:0|0:0,0:0:0:0:
284,296,124007,6,0,B|340:332|400:300|400:300|464:336,1,187.499992847443,2|0,0:0|0:0,0:0:0:0:
512,272,124931,2,0,P|496:208|504:148,1,124.999995231629,10|0,0:0|0:0,0:0:0:0:
372,52,125854,5,2,0:0:0:0:
208,56,126316,2,0,L|144:80,1,62.4999976158143
72,104,126778,2,0,P|92:168|80:232,1,124.999995231629,10|0,0:0|0:0,0:0:0:0:
40,380,127702,6,0,P|108:356|232:364,1,187.499992847443,2|0,0:0|0:0,0:0:0:0:
304,348,128626,2,0,P|376:344|452:300,1,124.999995231629,10|0,0:0|0:0,0:0:0:0:
496,176,129550,5,2,0:0:0:0:
256,192,130473,12,0,133245,0:0:0:0:
