osu file format v13

[General]
AudioFilename: 04 - White Winter Hymnal.mp3
AudioLeadIn: 2000
PreviewTime: 50104
Countdown: 0
SampleSet: Soft
StackLeniency: 0.4
Mode: 0
LetterboxInBreaks: 0
WidescreenStoryboard: 0

[Editor]
Bookmarks: 101836
DistanceSpacing: 1
BeatDivisor: 4
GridSize: 4
TimelineZoom: 1

[Metadata]
Title:White Winter Hymnal
TitleUnicode:White Winter Hymnal
Artist:Birdy
ArtistUnicode:Birdy
Creator:Static Noise Bird
Version:Easy
Source:
Tags:fleet foxes cover indie robin pecknold
BeatmapID:554955
BeatmapSetID:239191

[Difficulty]
HPDrainRate:2
CircleSize:3
OverallDifficulty:2
ApproachRate:2
SliderMultiplier:1.79999990463257
SliderTickRate:2

[Events]
//Background and Video events
0,0,"BG.jpg",0,0
//Break Periods
2,113121,115057
//Storyboard Layer 0 (Background)
//Storyboard Layer 1 (Fail)
//Storyboard Layer 2 (Pass)
//Storyboard Layer 3 (Foreground)
//Storyboard Sound Samples

[TimingPoints]
220,923.78752886836,4,2,0,40,1,0
16848,923.78752886836,4,2,0,40,1,0
130935,-100,4,2,0,32,0,0
131397,-100,4,2,0,24,0,0
131859,-100,4,2,0,16,0,0
132321,-100,4,2,0,8,0,0
132552,-100,4,2,0,5,0,0

[Colours]
Combo1 : 128,64,0
Combo2 : 163,237,234
Combo3 : 128,0,0
Combo4 : 0,128,0

[HitObjects]
17,205,220,6,4,P|80:152|184:140,1,179.999990463257,6|10,0:0|0:0,0:0:0:0:
264,140,1605,1,0,0:0:0:0:
216,216,2067,1,2,0:0:0:0:
80,332,2991,2,0,B|136:352|136:352|176:344,1,89.9999952316285,10|0,0:0|0:0,0:0:0:0:
252,316,3915,5,2,0:0:0:0:
428,276,4838,1,10,0:0:0:0:
492,108,5762,1,2,0:0:0:0:
324,44,6686,2,0,P|240:72|156:44,1,179.999990463257,10|2,0:0|0:0,0:0:0:0:
12,152,8534,6,0,P|24:196|64:232,1,89.9999952316285,10|0,0:0|0:0,0:0:0:0:
92,308,9457,2,0,P|152:284|252:328,1,179.999990463257,2|10,0:0|0:0,0:0:0:0:
340,344,10843,1,0,0:0:0:0:
416,296,11305,5,2,0:0:0:0:
512,144,12229,1,10,0:0:0:0:
256,192,13153,12,0,15000,0:0:0:0:
0,88,16848,5,6,0:0:0:0:
64,256,17771,2,0,P|116:256|156:276,1,89.9999952316285,2|0,0:0|0:0,0:0:0:0:
188,356,18695,2,0,P|176:272|252:192,1,179.999990463257,2|10,0:0|0:0,0:0:0:0:
316,172,20081,1,0,0:0:0:0:
400,200,20543,5,2,0:0:0:0:
488,356,21466,2,0,P|496:284|512:252,1,89.9999952316285,10|0,0:0|0:0,0:0:0:0:
504,180,22390,2,0,P|472:124|336:116,1,179.999990463257,2|10,0:0|0:0,0:0:0:0:
292,152,23776,1,0,0:0:0:0:
272,240,24238,5,6,0:0:0:0:
172,88,25162,1,10,0:0:0:0:
88,56,25623,1,0,0:0:0:0:
4,88,26085,2,0,B|-8:176|-8:176|40:256,1,179.999990463257,2|8,0:0|0:0,0:0:0:0:
92,328,27471,1,0,0:0:0:0:
176,364,27933,5,2,0:0:0:0:
352,368,28857,1,10,0:0:0:0:
384,284,29319,2,0,L|420:192,1,89.9999952316285,0|2,0:0|0:0,0:0:0:0:
356,136,30242,2,0,L|372:48,2,89.9999952316285,0|10|0,0:0|0:0|0:0,0:0:0:0:
304,208,31628,6,0,P|248:248|152:208,1,179.999990463257,2|10,0:0|0:0,0:0:0:0:
152,117,33014,2,0,P|196:124|228:156,1,89.9999952316285,0|2,0:0|0:0,0:0:0:0:
264,332,34399,1,10,0:0:0:0:
296,248,34861,2,0,P|320:200|344:172,1,89.9999952316285,0|2,0:0|0:0,0:0:0:0:
460,36,36247,6,0,B|424:124|496:124|460:212,1,179.999990463257,10|2,0:0|0:0,0:0:0:0:
392,268,37633,2,0,L|380:360,2,89.9999952316285,0|10|0,0:0|0:0|0:0,0:0:0:0:
376,180,39018,5,2,0:0:0:0:
232,76,39942,2,0,B|176:108|100:88|100:88|88:136,1,179.999990463257,10|2,0:0|0:0,0:0:0:0:
68,308,41790,2,0,P|108:352|160:356,1,89.9999952316285,10|0,0:0|0:0,0:0:0:0:
216,320,42714,6,0,B|260:292|304:280|352:292|388:316|388:316|360:244|424:204|392:136,1,359.999980926514,2|2,0:0|0:0,0:0:0:0:
240,48,45485,1,10,0:0:0:0:
256,192,46409,12,6,48256,0:0:0:0:
500,320,50104,5,6,0:0:0:0:
444,148,51028,2,0,L|364:100,1,89.9999952316285,10|0,0:0|0:0,0:0:0:0:
280,116,51951,2,0,P|188:104|124:168,1,179.999990463257,2|10,0:0|0:0,0:0:0:0:
96,244,53337,1,0,0:0:0:0:
72,332,53799,5,2,0:0:0:0:
248,292,54723,2,0,P|280:256|336:244,1,89.9999952316285,10|0,0:0|0:0,0:0:0:0:
396,195,55647,2,0,P|401:281|332:332,1,179.999990463257,2|10,0:0|0:0,0:0:0:0:
248,292,57032,1,0,0:0:0:0:
200,216,57494,6,0,P|156:292|219:375,1,179.999990463257,2|10,0:0|0:0,0:0:0:0:
332,248,59342,2,0,P|392:192|500:188,1,179.999990463257,2|10,0:0|0:0,0:0:0:0:
472,364,61189,5,2,0:0:0:0:
332,248,62113,2,0,P|284:220|236:216,1,89.9999952316285,10|0,0:0|0:0,0:0:0:0:
164,248,63037,2,0,P|224:212|268:84,1,179.999990463257,2|10,0:0|0:0,0:0:0:0:
248,28,64423,1,0,0:0:0:0:
336,52,64884,5,2,0:0:0:0:
320,244,65808,1,10,0:0:0:0:
252,304,66270,1,0,0:0:0:0:
164,292,66732,1,2,0:0:0:0:
52,148,67656,2,0,P|96:124|144:124,1,89.9999952316285,10|0,0:0|0:0,0:0:0:0:
216,160,68580,6,0,B|256:132|300:124|344:136|380:176|380:176|404:100|476:120|496:48,1,359.999980926514,2|2,0:0|0:0,0:0:0:0:
504,228,71351,1,10,0:0:0:0:
256,192,72275,12,6,74122,0:0:0:0:
52,308,75970,6,0,P|148:288|228:344,1,179.999990463257,6|10,0:0|0:0,0:0:0:0:
276,260,77356,1,0,0:0:0:0:
308,176,77817,2,0,P|324:124|220:44,1,179.999990463257,2|10,0:0|0:0,0:0:0:0:
164,80,79203,2,0,P|190:115|232:129,1,89.9999952316285,0|2,0:0|0:0,0:0:0:0:
412,112,80589,5,10,0:0:0:0:
336,276,81513,2,0,B|292:288|248:280|248:280|220:316|168:328,2,179.999990463257,2|10|2,0:0|0:0|0:0,0:0:0:0:
456,140,84284,6,0,P|420:108|376:96,2,89.9999952316285,10|0|2,0:0|0:0|0:0,0:0:0:0:
488,316,86132,2,0,P|452:352|412:360,1,89.9999952316285,10|0,0:0|0:0,0:0:0:0:
328,336,87055,1,2,0:0:0:0:
168,252,87979,6,0,P|124:236|72:240,1,89.9999952316285,10|0,0:0|0:0,0:0:0:0:
20,304,88903,2,0,P|64:244|36:128,1,179.999990463257,2|10,0:0|0:0,0:0:0:0:
12,60,90289,1,0,0:0:0:0:
104,68,90751,5,2,0:0:0:0:
224,204,91674,2,0,L|248:304,2,89.9999952316285,10|0|2,0:0|0:0|0:0,0:0:0:0:
308,44,93522,2,0,P|352:32|396:44,1,89.9999952316285,10|0,0:0|0:0,0:0:0:0:
352,123,94446,6,0,B|312:152|296:196|308:244|336:280|336:280|252:268|240:336|164:328,1,359.999980926514,2|2,0:0|0:0,0:0:0:0:
32,204,97217,1,10,0:0:0:0:
256,192,98141,12,6,99988,0:0:0:0:
136,192,101836,6,0,P|176:228|196:272,1,89.9999952316285,6|0,0:0|0:0,0:0:0:0:
180,352,102760,2,0,P|224:268|300:236,1,179.999990463257,10|2,0:0|0:0,0:0:0:0:
424,108,104607,1,10,0:0:0:0:
244,92,105531,5,2,0:0:0:0:
72,152,106455,2,0,B|88:196|84:240|84:240|132:244|172:280,1,179.999990463257,10|2,0:0|0:0,0:0:0:0:
228,340,107841,1,0,0:0:0:0:
312,304,108302,1,10,0:0:0:0:
492,324,109226,6,0,P|444:260|444:156,1,179.999990463257,2|10,0:0|0:0,0:0:0:0:
464,76,110612,1,0,0:0:0:0:
376,92,111074,2,0,P|288:108|200:88,2,179.999990463257,2|10|2,0:0|0:0|0:0,0:0:0:0:
51,328,116617,6,0,B|54:259|158:245|161:194,1,179.999990463257,2|10,0:0|0:0,0:0:0:0:
244,32,118464,2,0,P|284:84|392:100,1,179.999990463257,2|10,0:0|0:0,0:0:0:0:
476,68,119850,1,0,0:0:0:0:
464,156,120312,6,0,P|456:204|488:332,1,179.999990463257,2|10,0:0|0:0,0:0:0:0:
308,320,122159,1,2,0:0:0:0:
220,308,122621,1,0,0:0:0:0:
140,264,123083,1,10,0:0:0:0:
264,140,124007,6,0,P|196:88|80:104,1,179.999990463257,2|10,0:0|0:0,0:0:0:0:
32,144,125393,1,0,0:0:0:0:
44,232,125854,1,2,0:0:0:0:
212,292,126778,2,0,B|300:316|300:260|388:292,1,179.999990463257,10|2,0:0|0:0,0:0:0:0:
444,120,128626,6,0,P|376:104|340:108,2,89.9999952316285,10|0|2,0:0|0:0|0:0,0:0:0:0:
256,192,130473,12,0,133245,0:0:0:0:
