osu file format v9

[General]
AudioFilename: The Way U Move.mp3
AudioLeadIn: 0
PreviewTime: 64952
Countdown: 1
SampleSet: Normal
StackLeniency: 0.7
Mode: 0
LetterboxInBreaks: 1

[Editor]
Bookmarks: 101396,108508
DistanceSpacing: 0.9
BeatDivisor: 4
GridSize: 8

[Metadata]
Title:The Way U Move
Artist:Bill Hamel & Derek James
Creator:ouranhshc
Version:Hard
Source:Dance Dance Revolution 2010
Tags:Breana Skiles DDR

[Difficulty]
HPDrainRate:6
CircleSize:4
OverallDifficulty:7
ApproachRate:7
SliderMultiplier:1.8
SliderTickRate:2

[Events]
//Background and Video events
0,0,"Sexy_Vector_by_FaaB88.jpg"
//Break Periods
//Storyboard Layer 0 (Background)
//Storyboard Layer 1 (Fail)
//Storyboard Layer 2 (Pass)
//Storyboard Layer 3 (Foreground)
//Storyboard Sound Samples
//Background Colour Transformations
3,100,163,162,255

[TimingPoints]
53,444.444444444444,4,1,0,50,1,0
11053,-100,4,1,1,35,0,0
11275,-100,4,1,0,50,0,0
17275,-100,4,1,1,35,0,0
17498,-100,4,1,0,50,0,0
24386,-100,4,1,1,35,0,0
24609,-100,4,1,0,50,0,0
25275,-100,4,1,1,35,0,0
25498,-100,4,1,0,50,0,0
71498,-100,4,1,1,35,0,0
71720,-100,4,1,0,50,0,0
77720,-100,4,1,1,35,0,0
77942,-100,4,1,0,50,0,0
84831,-100,4,1,1,35,0,0
85053,-100,4,1,0,50,0,0
85720,-100,4,1,1,35,0,0
85942,-100,4,1,0,50,0,0
108608,-100,4,2,0,0,0,0

[HitObjects]
160,112,4719,1,0
216,56,4941,1,0
296,56,5164,1,0
352,112,5386,2,0,B|392:192|360:288,1,180,4|8
296,336,6052,1,0
216,336,6275,1,0
176,176,6719,5,8
256,176,6941,1,0
336,176,7164,1,0
256,312,7608,1,8
384,104,8275,6,0,B|472:104,2,90,0|8|0
464,336,9386,2,0,B|400:272,1,90,8|0
360,344,9830,2,0,B|176:344,1,180,0|8
96,344,10497,2,0,B|32:272|72:176,2,180
144,280,11608,5,0
144,280,11830,1,0
200,224,12053,1,8
200,224,12275,1,0
256,176,12497,6,0,B|392:56,1,180,0|8
312,32,13164,2,0,B|128:32,1,180
72,88,13830,2,0,B|40:128|64:176,1,90,8|0
136,208,14275,5,0
64,272,14497,1,0
160,296,14719,1,8
136,208,14941,1,0
296,224,15386,6,0,B|336:192|320:144,1,90,0|8
192,143,15830,2,0,B|176:192|216:224,1,90
256,296,16275,6,0,B|256:384,1,90,0|8
336,384,16719,1,0
416,360,16941,1,0
416,360,17164,2,0,B|480:296|456:184,1,180
432,112,17830,5,4
256,32,18275,1,8
80,112,18719,1,0
80,112,18941,1,0
40,184,19164,1,8
40,184,19386,1,0
120,184,19608,6,0,B|192:128|296:152,1,180,4|8
336,216,20275,1,0
256,240,20497,2,0,B|184:176|200:72,1,180,0|8
264,32,21164,1,0
296,104,21386,2,0,B|248:176|136:176,1,180,0|8
88,328,22275,6,0,B|176:328,1,90
136,256,22719,2,0,B|46:256,1,90,8|0
136,256,23164,6,0,B|240:248|272:152,1,180,0|8
288,72,23830,2,0,B|472:72,2,180
232,16,24941,6,0,B|96:16,2,135
216,96,25830,2,0,B|176:128,2,45
296,72,26275,2,0,B|384:72,1,90,8|0
464,72,26719,6,0,B|512:160|472:248,1,180,0|8
488,328,27386,1,0
408,312,27608,2,0,B|224:312,1,180,0|8
144,312,28275,1,0
88,256,28497,6,0,B|32:184,1,90
112,160,28941,2,0,B|200:160,1,90,8|0
160,88,29386,2,0,B|112:88,2,45
240,88,29830,2,0,B|336:88,1,90,8|0
384,32,30275,6,0,B|416:72|400:120,1,90
480,96,30719,2,0,B|480:152|440:184,1,90,8|0
472,256,31164,2,0,B|288:256,1,180,0|8
248,320,31830,1,0
208,248,32052,2,0,B|151:168|196:78,1,180,4|8
264,48,32719,2,0,B|448:48,1,180
472,128,33386,1,8
408,184,33608,5,0
408,184,33830,2,0,B|312:200|304:312,1,180,4|8
256,376,34497,2,0,B|256:192,1,180
104,184,35386,5,0
104,184,35608,2,0,B|200:200|208:312,1,180,0|8
256,376,36275,2,0,B|256:192,1,180
336,56,37164,5,0
336,56,37386,2,0,B|312:88|256:104|200:88|176:56,1,180,0|8
256,16,38052,2,0,B|256:200,1,180
96,192,38941,5,0
96,192,39164,1,0
256,352,39608,1,8
416,192,40052,2,0,B|320:192,1,90
256,152,40497,1,8
184,192,40719,5,0
208,272,40941,2,0,B|144:288|88:240|88:176|128:128,1,180,0|8
168,112,41608,2,0,B|352:112,1,180
348,112,42275,5,8
392,184,42497,1,0
392,264,42719,2,0,B|336:336|232:328,2,180,0|8|0
392,184,43830,2,0,B|392:96,1,90,0|8
464,136,44275,5,0
392,184,44497,2,0,B|304:184,2,90,0|0|8
464,216,45164,2,0,B|464:312|344:336,1,180
272,336,45830,1,8
216,280,46052,1,0
192,200,46275,5,4
256,16,46719,1,8
320,200,47164,1,0
256,152,47386,1,0
184,120,47608,1,8
120,168,47830,1,0
128,248,48052,6,0,B|160:336|264:352,1,180,4|8
263,351,48719,1,0
424,352,49164,1,0
480,256,49386,1,8
424,352,49608,5,0
480,256,49830,2,0,B|400:200|400:96,1,180,0|8
400,102,50497,1,0
256,24,50941,1,0
256,104,51164,1,8
256,24,51386,5,0
256,184,51608,2,0,B|168:224|80:184,1,180,0|8
168,104,52275,2,0,B|168:288,1,180
256,336,52941,1,8
256,336,53164,1,0
336,336,53386,6,0,B|424:336,1,90
296,272,53830,2,0,B|336:192,1,90,8|0
216,272,54275,2,0,B|176:192,2,90,0|0|8
176,336,54941,5,0
256,336,55164,2,0,B|256:152,1,180,0|8
328,200,55830,2,0,B|416:240|504:200,1,180
496,120,56497,1,8
424,152,56719,5,0
376,88,56941,2,0,B|192:88,1,180,0|8
120,120,57608,2,0,B|96:208|120:304,1,180
200,272,58275,1,8
216,352,58497,5,0
216,352,58719,2,0,B|400:352,1,180,0|8
472,376,59386,2,0,B|512:288|472:200,1,180
400,160,60052,2,0,B|400:248,1,90,8|0
336,296,60497,6,0,B|256:352,1,90
280,232,60941,2,0,B|192:264,1,90,8|0
280,152,61386,2,0,B|192:120,2,90,0|0|8
336,88,62052,2,0,B|256:32,1,90
24,192,64052,5,4
256,192,64497,1,0
488,192,64941,1,0
488,192,65164,1,0
488,112,65386,1,0
488,112,65608,1,0
488,192,65830,6,0,B|488:280,2,90,4|0|8
408,192,66497,1,0
328,176,66719,2,0,B|152:136,1,180,0|8
192,64,67386,1,0
264,104,67608,2,0,B|200:192|216:288,2,180,0|8|0
320,40,68719,5,0
400,24,68941,1,8
472,56,69164,1,0
496,136,69386,2,0,B|496:224,1,90
480,304,69830,2,0,B|432:384|312:368,2,180,8|0|8
480,304,70941,1,0
480,224,71164,6,0,B|464:152|384:136,2,135
408,264,72052,1,0
408,264,72275,1,0
328,288,72497,2,0,B|280:304|232:280,1,90,8|0
168,248,72941,6,0,B|128:160|168:72,1,180,0|8
88,72,73608,2,0,B|280:72,1,180
248,152,74275,2,0,B|296:160|312:208,1,90,8|0
232,232,74719,2,0,B|168:296,2,90,0|0|8
256,312,75386,1,0
408,360,75830,5,0
472,304,76052,1,8
496,224,76275,2,0,B|496:136,1,90
440,72,76719,5,0
440,72,76941,1,8
408,144,77164,1,0
408,144,77386,1,0
336,144,77608,2,0,B|248:144|216:224|232:272,1,180
256,336,78275,5,4
104,192,78719,1,8
256,48,79164,1,0
256,48,79386,1,0
336,72,79608,1,8
336,72,79830,1,0
304,144,80052,6,0,B|320:240|208:288,1,180,4|8
264,352,80719,2,0,B|448:352,1,180
424,272,81386,2,0,B|392:240|392:184,1,90,8|0
472,208,81830,6,8,B|296:264,1,180,0|8
224,288,82497,1,0
144,280,82719,1,0
144,280,82941,1,0
88,224,83164,1,8
72,144,83386,5,0
80,64,83608,2,0,B|152:8|272:48,1,180,0|8
256,120,84275,2,0,B|256:304,2,180
336,136,85386,6,0,B|408:160|416:240,2,135
336,136,86275,1,0
280,192,86497,1,0
216,240,86719,1,8
152,288,86941,1,0
216,240,87164,6,0,B|256:288|336:280|360:208,1,180,0|8
280,192,87830,1,0
208,160,88052,2,0,B|248:88|344:104|360:184,1,180,0|8
408,312,88941,6,0,B|464:312|488:256,1,90
408,232,89386,2,0,B|320:232,1,90,8|0
360,160,89830,1,0
368,80,90052,2,0,B|424:88|440:144,2,90,0|8|0
288,80,90719,6,0,B|104:80,1,180,0|8
56,144,91386,1,0
88,216,91608,2,0,B|112:312|216:328,1,180,0|8
296,312,92275,1,0
296,312,92497,6,0,B|376:248|344:152,1,180,4|8
168,151,93164,2,0,B|136:248|216:312,1,180
256,384,93830,1,8
256,384,94052,5,0
176,376,94275,2,0,B|72:360|72:248,1,180,4|8
72,168,94941,2,0,B|168:168|208:64,1,180
256,128,95608,1,8
256,0,95830,5,0
336,8,96052,2,0,B|440:24|440:136,1,180,0|8
440,216,96719,2,0,B|344:216|304:320,1,180
256,376,97386,1,8
192,328,97608,5,0
128,280,97830,2,0,B|128:96,1,180,0|8
208,80,98497,2,0,B|214:173|328:200,1,180
288,272,99164,2,0,B|344:280|360:336,1,90,8|0
424,280,99608,6,0,B|376:200|416:104,2,180,0|8|0
272,336,100941,1,8
192,336,101164,5,0
232,264,101386,2,0,B|288:232|368:272|360:360,1,180,0|8
272,336,102052,2,0,B|368:184,1,180
408,112,102719,1,8
448,184,102941,1,0
488,112,103164,5,0
328,112,103608,1,8
408,256,104052,1,0
368,184,104275,1,0
408,112,104497,1,8
368,40,104719,5,0
288,40,104941,2,0,B|224:80|240:168|304:192,1,180,0|8
320,264,105608,2,0,B|136:264,1,180
88,336,106275,2,0,B|176:336,1,90,8|0
256,336,106719,5,4
400,192,107164,1,8
256,48,107608,1,0
256,128,107830,1,0
192,192,108052,1,8
256,256,108275,1,0
320,192,108497,5,4
256,192,108608,12,0,112052
