osu file format v9

[General]
AudioFilename: Zao Gao Xian Jin Guo.mp3
AudioLeadIn: 2000
PreviewTime: 24450
Countdown: 0
SampleSet: Normal
StackLeniency: 0.5
Mode: 0
LetterboxInBreaks: 1

[Editor]
Bookmarks: 24034,60352
DistanceSpacing: 1
BeatDivisor: 4
GridSize: 4

[Metadata]
Title:Zao Gao Xian Jin Guo
Artist:Bilibili Douga
Creator:a3272509123
Version:Normal
Source:Wuwaa
Tags:Geping Gepao McDonald Bluecat Acfun Zaogaoxianjinguo Jin Guan Zhang Jinguanzhang The World

[Difficulty]
HPDrainRate:4
CircleSize:3
OverallDifficulty:4
ApproachRate:5
SliderMultiplier:0.999999999999999
SliderTickRate:1

[Events]
//Background and Video events
Video,0,"video.avi"
0,0,"background.jpg"
//Break Periods
//Storyboard Layer 0 (Background)
//Storyboard Layer 1 (Fail)
//Storyboard Layer 2 (Pass)
//Storyboard Layer 3 (Foreground)
//Storyboard Sound Samples
//Background Colour Transformations
3,100,163,162,255

[TimingPoints]
201,378.310214375788,4,1,0,60,1,0
24412,-100,4,1,0,60,0,1
36518,-100,4,1,0,60,0,0
60730,-100,4,1,0,60,0,1
66783,-100,4,1,0,60,0,0

[Colours]
Combo1 : 255,0,0
Combo2 : 5,240,5
Combo3 : 255,255,0
Combo4 : 0,128,255

[HitObjects]
256,64,201,2,0,B|376:64,1,99.9999999999999,4|8
432,128,957,1,0
448,224,1335,2,0,B|336:224,1,99.9999999999999,8|2
256,224,2092,1,8
160,224,2470,2,0,B|80:224,2,50,2|0|8
160,128,3227,6,0,B|160:56|240:48,1,99.9999999999999,4|8
320,64,3984,1,0
320,64,4173,1,0
320,64,4362,1,8
288,160,4740,2,0,B|320:240|432:208,1,150,0|2
432,256,5497,2,0,B|384:352,1,99.9999999999999,4|8
288,336,6253,6,0,B|216:336,2,50,2|0|8
304,240,7010,2,2,B|304:112,1,99.9999999999999,2|8
400,96,7767,2,0,B|376:40|297:45,1,99.9999999999999,2|8
222,45,8523,2,0,B|104:48,1,99.9999999999999,0|8
128,144,9280,6,2,B|128:216,1,50
272,144,10037,2,2,B|272:216,1,50
368,80,10793,2,0,B|496:80,1,99.9999999999999,4|8
448,176,11550,1,4
448,176,11739,1,0
448,176,11928,1,8
368,224,12306,6,2,B|232:224,1,99.9999999999999,2|8
176,272,13063,2,2,B|176:136,1,99.9999999999999,2|8
240,96,13820,2,0,B|296:120|368:88,2,99.9999999999999,0|8|0
144,96,14955,1,8
144,96,15333,6,0,B|192:192|336:208,1,200,4|0
400,192,16468,1,8
400,192,16846,2,2,B|352:96|208:80,1,200,0|0
64,64,18359,6,0,B|32:128|80:176,1,99.9999999999999,2|8
160,176,19116,2,0,B|208:144|288:192,1,99.9999999999999,0|8
352,176,19873,2,0,B|448:176,2,50,2|0|8
368,80,20629,2,0,B|240:80,1,99.9999999999999,2|8
160,80,21386,6,0,B|112:192|176:304,1,200,4|0
256,288,22521,1,8
352,256,22899,2,2,B|464:192,2,99.9999999999999,2|10|2
304,168,24034,1,8
208,144,24412,6,0,B|96:160|48:304,1,200,6|0
160,304,25547,1,8
256,304,25926,2,0,B|288:336|336:288|384:320,1,99.9999999999999,2|8
448,288,26682,2,2,B|480:176|384:80,1,200,2|6
304,96,27817,5,8
208,112,28195,1,0
144,192,28574,1,8
144,288,28952,2,0,B|240:288,1,74.9999999999999
288,288,29520,2,0,B|352:288,1,50
436,296,30087,1,8
448,248,30276,1,0
432,208,30465,6,2,B|416:80|288:32,1,200
224,48,31600,1,8
224,48,31979,2,2,B|176:112|272:160|208:272,2,200
124,60,33870,1,8
40,112,34248,2,0,B|-8:240|72:352|200:352,1,300
232,284,35762,2,0,B|360:284,1,99.9999999999999,2|8
420,232,36518,6,0,B|420:104,1,99.9999999999999,2|8
368,48,37275,1,0
272,48,37653,1,8
176,48,38032,5,0
80,64,38410,1,8
144,144,38788,2,0,B|144:288,1,99.9999999999999,2|8
240,256,39545,6,0,B|384:256,1,99.9999999999999,0|8
432,240,40301,2,0,B|432:112,1,99.9999999999999,0|8
336,112,41058,2,0,B|208:112,1,99.9999999999999,0|8
128,112,41815,2,2,B|128:240,1,99.9999999999999
224,224,42571,6,0,B|352:224,2,99.9999999999999,2|8|0
256,128,43706,2,0,B|384:128,1,99.9999999999999,8|2
416,208,44463,1,8
352,288,44841,1,2
256,320,45219,1,8
160,304,45598,6,0,B|-16:272|-16:64|176:32,1,400
256,48,47489,1,8
336,112,47868,2,0,B|336:240,1,99.9999999999999,0|10
368,304,48624,6,0,B|256:304,1,99.9999999999999,0|8
160,304,49381,2,0,B|32:304,1,99.9999999999999,0|8
96,208,50137,2,0,B|240:208,1,99.9999999999999,0|8
304,208,50894,2,0,B|416:208,1,99.9999999999999,0|10
480,144,51651,6,0,B|480:32,3,99.9999999999999,0|8|0|8
384,48,53164,1,0
288,48,53542,1,8
192,48,53921,2,0,B|160:96|208:176,1,99.9999999999999,0|8
272,192,54677,6,0,B|416:192,1,99.9999999999999,2|8
480,192,55434,2,0,B|480:320,1,99.9999999999999,0|8
384,288,56190,2,0,B|240:288,3,99.9999999999999,2|8|0|8
176,288,57704,6,0,B|64:288,1,99.9999999999999,2|8
64,192,58460,1,2
64,96,58839,1,8
160,80,59217,2,0,B|464:80,1,300
432,176,60730,6,0,B|384:304,1,99.9999999999999,6|8
304,272,61487,2,0,B|256:160,1,99.9999999999999,2|8
240,80,62243,2,0,B|128:64|64:208|144:288,1,300,4|8
244,288,63757,6,0,B|356:288,1,99.9999999999999,2|8
432,240,64513,2,0,B|432:112,1,99.9999999999999,2|8
368,64,65270,2,0,B|256:32|128:96|112:208,1,300,4|8
192,240,66783,6,0,B|320:240,1,99.9999999999999,2|8
352,160,67540,2,0,B|464:160,1,99.9999999999999,2|8
400,64,68296,2,2,B|64:64,1,300,2|8
96,160,69810,5,2
128,256,70188,1,8
208,304,70566,1,2
304,304,70945,1,8
384,256,71323,2,0,B|336:80|160:80,1,300,0|4
