osu file format v9

[General]
AudioFilename: Zao Gao Xian Jin Guo.mp3
AudioLeadIn: 2000
PreviewTime: 24450
Countdown: 0
SampleSet: Normal
StackLeniency: 0.5
Mode: 0
LetterboxInBreaks: 1

[Editor]
Bookmarks: 24034,60352
DistanceSpacing: 1.5
BeatDivisor: 4
GridSize: 16

[Metadata]
Title:Zao Gao Xian Jin Guo
Artist:Bilibili Douga
Creator:a3272509123
Version:Insane
Source:Wuwaa
Tags:Geping Gepao McDonald Bluecat Acfun Zaogaoxianjinguo Jin Guan Zhang Jinguanzhang The World

[Difficulty]
HPDrainRate:7
CircleSize:4
OverallDifficulty:7
ApproachRate:9
SliderMultiplier:2.4
SliderTickRate:1

[Events]
//Background and Video events
Video,0,"video.avi"
0,0,"background.jpg"
//Break Periods
//Storyboard Layer 0 (Background)
//Storyboard Layer 1 (Fail)
//Storyboard Layer 2 (Pass)
//Storyboard Layer 3 (Foreground)
//Storyboard Sound Samples
//Background Colour Transformations
3,100,163,162,255

[TimingPoints]
201,378.310214375788,4,1,0,60,1,0
7767,-50,4,1,0,60,0,0
8807,-100,4,1,0,60,0,0
11550,-200,4,1,0,60,0,0
11928,-100,4,1,0,60,0,0
24034,-100,4,2,0,60,0,0
24412,-100,4,1,0,60,0,1
25926,-50,4,1,0,60,0,1
26682,-100,4,1,0,60,0,1
35005,-100,4,1,0,20,0,1
35383,-100,4,1,0,40,0,1
35762,-100,4,1,0,60,0,1
36140,-200,4,1,0,60,0,1
36329,-100,4,2,0,5,0,1
36518,-100,4,1,0,60,0,0
44841,-200,4,1,0,60,0,0
45219,-100,4,1,0,60,0,0
60352,-100,4,2,0,60,0,0
60730,-100,4,1,0,60,0,1
66783,-100,4,1,0,60,0,0

[Colours]
Combo1 : 255,0,0
Combo2 : 5,240,5
Combo3 : 255,255,0
Combo4 : 0,128,255

[HitObjects]
256,192,201,1,4
352,88,390,1,0
352,88,484,1,0
352,88,579,1,8
440,192,768,1,2
440,192,957,2,0,B|440:320,1,120
352,88,1335,2,0,B|352:232,1,120,8|0
72,192,1714,2,0,B|72:320,1,120
160,88,2092,2,0,B|160:224,1,120,8|0
256,48,2470,5,0
72,192,2660,1,0
72,192,2754,1,0
72,192,2849,1,12
440,192,3038,1,2
384,288,3227,5,2
256,192,3416,1,0
216,224,3511,1,0
176,256,3605,1,8
136,96,3794,1,0
136,96,3984,2,0,B|304:96,1,120,2|0
376,96,4362,1,8
136,96,4551,1,0
176,256,4740,6,0,B|208:288|256:312|304:288|352:240,2,180,2|0|2
256,168,5497,1,0
256,40,5686,1,0
256,40,5781,1,0
256,40,5875,1,8
256,168,6064,1,8
400,72,6253,5,0
416,128,6348,1,0
432,184,6443,1,0
424,240,6537,1,0
384,288,6632,1,8
328,304,6726,1,0
264,304,6821,1,0
208,280,6916,1,0
160,240,7010,1,0
144,176,7105,1,0
160,120,7199,1,0
208,80,7294,1,0
264,64,7388,1,8
320,64,7483,1,0
376,96,7578,1,0
416,144,7672,1,0
440,200,7767,6,2,B|376:312|216:296,1,240,2|0
296,176,8145,1,8
392,72,8334,1,0
392,72,8523,6,0,B|264:0|88:152|168:256,1,360,0|0
155,235,8902,1,8
440,192,9091,5,0
440,192,9280,2,2,B|440:312,1,120,2|0
256,192,9658,1,8
72,192,9847,1,0
72,192,10037,2,2,B|72:64,1,120,2|0
256,224,10415,1,8
256,240,10509,1,0
256,256,10604,1,0
256,272,10699,1,0
256,288,10793,5,0
384,160,10982,1,0
256,32,11171,1,10
128,160,11361,1,0
256,288,11550,6,0,B|392:288,1,120,4|6
40,32,12306,6,0,B|40:112,1,60,2|0
112,132,12496,2,0,B|112:72,1,60
184,104,12685,2,0,B|184:184,1,60,8|0
256,200,12874,2,0,B|256:128,1,60
328,172,13063,2,0,B|328:232,1,60,2|0
400,264,13252,2,0,B|400:176,1,60
472,168,13441,1,8
472,200,13536,1,0
472,232,13630,1,0
472,264,13725,1,0
472,296,13820,5,0
256,248,14009,1,2
40,296,14387,21,0
256,248,14576,1,2
40,40,14955,2,2,B|200:40,1,120,0|2
264,96,15333,21,2
336,192,15522,1,8
368,240,15617,1,0
400,288,15711,1,0
400,288,15900,1,8
248,96,16090,21,2
176,192,16279,1,8
144,240,16373,1,0
112,288,16468,1,0
112,288,16657,1,8
256,304,16846,21,0
256,192,17035,1,8
256,152,17130,1,0
256,104,17224,1,0
256,304,17414,21,8
184,192,17603,2,0,B|184:272,1,60
328,192,17792,2,0,B|328:112,1,60
328,56,17981,1,8
184,328,18170,1,8
480,192,18359,5,0
464,216,18454,1,0
440,232,18549,1,0
416,240,18643,1,0
392,248,18738,1,8
368,248,18832,1,0
344,248,18927,1,0
320,240,19021,1,0
304,224,19116,1,0
288,208,19211,1,0
272,192,19305,1,0
256,176,19400,1,0
232,160,19494,1,8
208,144,19589,1,0
184,136,19683,1,0
160,128,19778,1,0
128,128,19873,6,2,B|128:216,1,60,2|0
128,264,20062,2,0,B|232:264,1,60
264,264,20251,2,0,B|264:168,1,60,8|0
264,128,20440,2,0,B|176:128,1,60
152,64,20629,6,0,B|92:64,2,60
256,64,20913,1,0
368,64,21008,1,8
152,64,21197,1,0
256,224,21386,1,0
256,64,21669,1,0
256,64,21764,1,8
256,192,21953,1,2
192,328,22332,2,2,B|344:328,1,120,0|2
256,64,22899,5,0
144,184,23183,1,0
304,224,23467,1,0
304,224,23656,1,4
472,40,24034,6,0,B|360:40,2,60
416,136,24412,2,0,B|416:264,1,120,2|0
96,136,24791,2,0,B|96:288,1,120,8|0
416,136,25169,5,0
96,256,25358,1,0
416,256,25547,1,8
96,136,25736,1,0
128,32,25926,2,2,B|400:32,1,240,0|2
256,192,26304,1,8
376,344,26493,2,2,B|96:344,1,240,0|2
256,192,26871,1,0
480,192,27061,5,8
408,160,27155,1,0
336,128,27250,1,0
264,96,27344,1,0
192,64,27439,2,0,B|64:64,2,120,2|0|8
192,192,28006,1,0
256,192,28101,1,0
312,192,28195,2,0,B|440:192,1,120,2|0
432,304,28574,5,8
376,304,28668,1,0
320,304,28763,1,0
264,304,28857,1,0
208,304,28952,2,2,B|144:304|104:224|48:224,1,180,2|0
50,224,29330,1,8
144,128,29520,2,0,B|312:128,1,120,2|0
384,56,29898,1,2
408,104,29992,1,0
424,160,30087,1,8
408,216,30182,1,0
384,264,30276,1,0
288,88,30465,5,6
184,160,30654,1,0
176,176,30749,1,0
168,192,30844,1,8
352,168,31033,1,0
344,208,31127,1,0
336,256,31222,1,0
328,296,31317,1,0
320,344,31411,1,0
472,192,31600,5,8
392,120,31789,1,0
392,120,31884,1,0
392,120,31979,1,2
312,192,32168,1,0
312,192,32262,1,0
312,192,32357,1,8
226,60,32546,2,0,B|232:120,1,60
232,120,32735,5,2
232,120,32830,1,0
144,192,33019,1,2
144,192,33113,2,0,B|144:336,1,120,8|0
256,304,33492,2,2,B|352:304,1,60,0|2
456,72,33776,2,2,B|352:72,1,60,0|8
256,72,34059,1,0
160,64,34248,5,2
96,288,34438,1,0
320,352,34627,1,8
384,128,34816,1,0
256,192,35005,2,0,B|256:224,15,30
288,160,35762,1,2
352,72,36140,6,0,B|448:72,1,60,0|0
400,192,36518,2,0,B|400:336,1,120,2|0
400,312,36802,1,0
400,312,36897,1,8
256,312,37086,1,0
120,312,37275,2,2,B|280:208|16:216|192:112,1,240,2|8
256,72,38032,5,0
376,72,38221,1,0
424,96,38315,1,0
472,120,38410,1,8
408,232,38599,1,0
336,336,38788,2,0,B|200:336,2,120,2|0|8
256,232,39356,1,0
256,232,39450,1,0
256,232,39545,2,0,B|120:232,1,120,2|0
80,176,39923,6,0,B|128:112|72:48,1,120,8|0
184,72,40301,2,0,B|384:72,1,180,2|0
364,72,40680,1,8
456,72,40869,1,0
408,152,41058,1,2
408,184,41153,1,0
408,216,41247,1,0
408,248,41342,1,0
408,280,41436,1,8
408,152,41625,5,2
104,152,41815,1,4
256,40,42193,1,8
256,48,42288,1,0
256,56,42382,1,0
256,64,42477,1,0
256,72,42571,2,0,B|248:120|248:120|192:168,1,120,2|0
256,312,42950,2,0,B|264:264|264:264|320:216,1,120,8|0
416,192,43328,5,6
96,192,43706,1,8
256,80,44084,1,2
256,272,44274,2,0,B|256:360,2,60,8|0|0
256,80,44652,1,2
256,80,44841,2,0,B|256:256,1,120,4|8
472,192,45598,5,2
472,56,45787,1,8
432,80,45881,1,0
392,104,45976,1,0
288,104,46165,1,8
184,104,46354,2,0,B|184:304,1,180,2|0
184,284,46733,1,8
328,288,46922,1,0
256,96,47111,5,2
200,264,47300,1,0
336,168,47489,1,8
176,168,47678,1,0
312,264,47868,1,4
256,96,48246,5,8
152,40,48624,2,0,B|32:104,1,120,2|0
360,344,49003,2,0,B|480:272,1,120,8|0
152,40,49381,5,2
360,344,49570,1,0
240,96,49759,1,8
272,288,49948,1,0
256,192,50137,1,2
360,192,50327,1,0
360,192,50421,1,0
360,192,50516,1,8
464,192,50705,5,2
464,192,50894,1,0
48,192,51272,1,2
48,192,51462,1,2
224,64,51651,5,2
128,224,51840,1,0
288,320,52029,1,8
384,160,52218,1,0
256,192,52407,2,0,B|256:320,1,120,2|0
384,288,52786,1,8
416,240,52880,1,0
448,192,52975,1,0
448,32,53164,5,2
352,128,53353,1,0
256,32,53542,1,8
160,128,53731,1,0
64,32,53921,1,2
480,192,54299,5,8
32,192,54488,1,8
144,72,54677,2,0,B|280:72,1,120,2|0
320,88,54961,1,0
368,128,55055,2,0,B|368:264,1,120,8|0
280,272,55434,2,0,B|168:328|32:264,1,240,0|8
120,184,56001,1,0
192,96,56190,5,0
320,32,56379,1,0
384,160,56569,1,8
256,224,56758,1,0
192,96,56947,2,0,B|312:64|448:104,1,240,0|8
416,264,57514,1,0
416,264,57609,1,0
416,264,57704,6,2,B|160:264,1,240,2|8
80,264,58271,1,0
80,120,58460,22,2,B|328:120,1,240,2|8
416,120,59028,1,0
256,48,59217,1,0
256,192,59406,1,0
256,192,59501,1,0
256,192,59595,1,8
256,336,59784,1,2
256,48,59974,1,4
40,40,60352,6,0,B|136:40,2,60
40,152,60730,2,2,B|56:288,1,120
136,328,61108,2,0,B|152:192,1,120,8|0
256,192,61487,1,2
360,248,61676,1,2
464,192,61865,1,8
360,136,62054,1,0
256,80,62243,1,2
152,136,62433,1,0
152,136,62527,1,0
152,136,62622,1,8
48,192,62811,1,0
48,192,63000,6,2,B|112:312|264:320,1,240,2|10
256,192,63567,1,0
256,96,63757,1,2
160,192,63946,1,0
256,288,64135,1,8
352,192,64324,1,0
256,32,64513,5,2
96,192,64702,1,2
256,352,64892,1,8
416,192,65081,1,0
96,192,65270,2,0,B|176:312,1,120,2|0
416,192,65648,2,0,B|336:312,1,120,8|0
224,96,66026,1,2
200,128,66121,1,0
176,160,66216,1,0
288,96,66405,5,8
312,128,66499,1,0
336,160,66594,1,0
480,192,66783,1,0
400,272,66972,1,0
352,288,67067,1,0
304,304,67161,1,8
200,304,67351,1,0
200,304,67446,1,0
200,304,67540,5,2
200,304,67729,1,6
256,40,68107,1,0
256,112,68296,1,2
256,128,68391,1,0
256,144,68485,1,0
256,160,68580,1,0
256,176,68675,1,2
256,192,68769,1,0
256,208,68864,1,0
256,224,68958,1,0
256,240,69053,2,2,B|256:360,1,120
352,256,69431,5,8
360,248,69526,1,0
368,240,69620,1,0
376,232,69715,1,0
384,224,69810,1,2
448,160,69999,1,0
384,96,70188,1,8
320,160,70377,1,0
256,96,70566,1,0
256,96,70661,1,0
256,96,70755,1,0
192,160,70945,5,8
192,160,71039,1,0
192,160,71134,1,0
192,160,71228,1,0
192,160,71323,1,0
256,192,71370,12,6,72458
