osu file format v9

[General]
AudioFilename: Zao Gao Xian Jin Guo.mp3
AudioLeadIn: 2000
PreviewTime: 24450
Countdown: 0
SampleSet: Normal
StackLeniency: 0.5
Mode: 0
LetterboxInBreaks: 1

[Editor]
Bookmarks: 24034,60352
DistanceSpacing: 1
BeatDivisor: 4
GridSize: 4

[Metadata]
Title:Zao Gao Xian Jin Guo
Artist:Bilibili Douga
Creator:a3272509123
Version:Hard
Source:Wuwaa
Tags:Geping Gepao McDonald Bluecat Acfun Zaogaoxianjinguo Jin Guan Zhang Jinguanzhang The World

[Difficulty]
HPDrainRate:6
CircleSize:4
OverallDifficulty:6
ApproachRate:7
SliderMultiplier:1.8
SliderTickRate:1

[Events]
//Background and Video events
Video,0,"video.avi"
0,0,"background.jpg"
//Break Periods
//Storyboard Layer 0 (Background)
//Storyboard Layer 1 (Fail)
//Storyboard Layer 2 (Pass)
//Storyboard Layer 3 (Foreground)
//Storyboard Sound Samples
//Background Colour Transformations
3,100,163,162,255

[TimingPoints]
201,378.310214375788,4,1,0,60,1,0
24412,-100,4,1,0,60,0,1
36518,-100,4,1,0,60,0,0
60730,-100,4,1,0,60,0,1
66783,-100,4,1,0,60,0,0

[Colours]
Combo1 : 255,0,0
Combo2 : 5,240,5
Combo3 : 255,255,0
Combo4 : 0,128,255

[HitObjects]
152,84,201,1,4
180,168,390,1,2
180,168,484,1,0
180,168,579,1,8
248,224,768,1,0
336,236,957,2,0,B|440:236,1,90
468,156,1335,2,0,B|352:156,1,90,8|0
256,124,1714,5,2
256,124,1903,1,2
256,260,2281,1,2
256,260,2470,1,2
424,192,2849,1,8
388,108,3038,1,0
308,68,3227,6,0,B|196:84,1,90,4|0
218,80,3511,1,0
218,80,3605,1,8
156,148,3794,1,0
244,168,3984,2,0,B|276:280,2,90,0|0|8
218,80,4551,1,0
156,148,4740,2,0,B|148:228|72:248,2,135,2|2|0
218,80,5497,1,0
308,84,5686,1,0
392,120,5875,1,8
452,188,6064,1,8
364,204,6253,5,2
364,204,6348,1,0
364,204,6443,1,0
280,232,6632,2,0,B|148:232,1,90,8|0
100,232,7010,1,0
124,144,7199,1,2
212,168,7388,1,8
188,256,7578,1,0
276,236,7767,6,0,B|372:272|472:232,1,180,2|8
440,152,8334,1,0
440,152,8523,2,0,B|344:116|244:156,1,180,2|8
176,132,9091,1,0
176,132,9185,1,0
176,132,9280,6,0,B|112:232,2,90,0|0|10
336,216,10037,2,0,B|400:316,2,90,0|0|10
256,56,10793,1,2
256,144,10982,1,0
256,232,11171,1,8
256,324,11361,1,0
256,324,11550,2,0,B|172:272|84:328,1,180,4|8
108,148,12306,6,0,B|212:80,1,90,0|2
272,92,12685,2,0,B|320:176,1,90,8|2
404,160,13063,2,2,B|388:280,1,90
312,292,13441,1,8
312,292,13631,1,0
312,292,13820,2,0,B|200:292,1,90,0|2
160,124,14387,2,0,B|44:124,1,90,0|2
236,192,14955,1,2
236,192,15144,1,2
236,192,15333,6,0,B|352:192,1,90,4|0
416,192,15711,1,8
416,192,15900,1,0
372,272,16090,22,0,B|264:272,1,90
196,272,16468,1,8
196,272,16657,1,0
104,272,16846,2,0,B|76:112,2,135,2|0|0
164,204,17603,2,2,B|376:204,1,180,2|8
432,204,18170,1,8
432,116,18359,6,0,B|432:64,2,45,4|0|0
340,116,18738,1,8
252,116,18927,1,0
164,116,19116,2,0,B|136:172|176:212,1,90,0|2
256,196,19494,1,8
336,240,19683,1,0
416,196,19873,5,2
416,196,19967,1,0
416,196,20062,1,0
336,152,20251,1,8
336,152,20346,1,0
336,152,20440,1,0
256,196,20629,2,0,B|128:196,1,90,2|0
76,192,21008,2,0,B|76:80,1,90,8|0
164,104,21386,38,0,B|232:132|332:96,1,135,2|0
340,108,21764,2,0,B|452:108,1,90,8|0
272,192,22332,1,2
272,192,22521,1,2
92,196,22899,2,0,B|92:348,2,135,2|0|0
136,116,23656,2,0,B|328:116,1,180
360,116,24129,1,0
404,116,24223,1,0
392,204,24412,6,0,B|408:300,1,90,4|0
316,276,24791,1,8
228,292,24980,1,2
140,276,25169,2,0,B|100:196,2,90,0|2|8
196,208,25736,1,0
196,208,25831,1,0
196,208,25926,2,0,B|316:208,1,90,0|2
376,204,26304,1,8
376,204,26493,1,0
452,160,26682,1,0
372,116,26871,6,0,B|264:116,1,90,2|8
192,116,27250,1,0
148,116,27344,1,2
104,116,27439,1,4
156,188,27628,1,0
236,228,27817,1,8
324,240,28006,1,0
412,228,28195,2,0,B|412:104,1,90,0|2
324,156,28574,2,0,B|220:156,1,90,8|2
234,156,28952,5,4
100,156,29236,1,0
100,156,29330,1,8
144,236,29520,1,0
188,236,29614,1,0
232,236,29709,1,0
320,236,29898,2,0,B|376:236,2,45,0|0|8
320,148,30276,1,8
232,148,30465,5,6
144,148,30654,2,0,B|92:148,2,45,0|0|8
144,56,31033,1,0
232,56,31222,1,0
320,56,31411,2,2,B|408:96|288:176|424:216,1,180
392,296,31979,1,0
312,256,32168,1,0
312,256,32262,1,0
312,256,32357,1,8
244,184,32546,5,0
144,152,32735,1,0
56,212,32924,2,2,B|108:192|108:192|176:236|176:236|240:212,1,180
328,212,33492,5,4
328,212,33586,1,0
380,140,33776,1,0
380,140,33870,1,8
432,212,34059,1,0
332,296,34248,2,0,B|208:312,1,90
136,224,34627,2,0,B|248:208,1,90,8|0
256,68,35005,6,2,B|360:80|424:192|360:288|244:308,1,360,2|4
256,192,36140,1,8
76,192,36518,6,0,B|96:280,1,90,0|2
184,308,36897,1,8
272,284,37086,1,0
328,212,37275,2,0,B|400:196|416:104|376:60,1,180,0|8
292,80,37842,1,0
204,92,38032,2,0,B|108:92,1,90
114,92,38410,1,8
160,168,38599,1,0
116,248,38788,2,0,B|208:300|320:236,1,180,0|8
460,192,39545,5,0
460,192,39734,1,0
388,140,39923,1,8
388,140,40112,1,0
312,192,40301,1,0
312,192,40491,1,0
240,140,40680,1,8
240,140,40869,1,0
168,192,41058,2,0,B|64:192,1,90
124,268,41436,2,0,B|244:268,1,90,8|0
304,268,41815,5,6
416,192,42098,1,0
416,192,42193,1,8
348,136,42382,1,0
276,80,42571,2,0,B|160:80,1,90,4|0
128,148,42950,2,0,B|252:148,1,90,8|0
296,192,43328,6,0,B|272:264|352:316|408:280,1,180,0|8
432,200,43895,1,0
460,116,44084,2,0,B|400:48,1,90
316,76,44463,2,0,B|384:148,1,90,8|0
288,152,44841,2,0,B|96:152,1,180,0|8
76,328,45598,5,0
128,256,45787,1,0
216,300,45976,1,8
244,204,46165,1,0
344,240,46354,1,0
340,132,46544,1,0
340,132,46638,1,0
340,132,46733,1,8
460,164,46922,1,0
424,64,47111,6,0,B|324:52,1,90
228,36,47489,1,8
228,36,47678,1,0
228,36,47868,2,0,B|276:136|188:224,1,180,4|8
396,308,48624,5,0
396,308,48813,1,0
440,208,49003,1,8
396,108,49192,1,0
288,108,49381,5,0
288,108,49570,1,0
244,208,49760,1,8
288,308,49949,1,0
180,308,50137,1,0
180,308,50327,2,0,B|180:192|80:168,1,180
148,80,50894,1,0
256,76,51083,1,0
256,76,51178,1,0
256,76,51272,2,0,B|272:120|324:128,1,90,8|0
392,260,51651,6,0,B|376:216|324:208,1,90,4|0
216,212,52029,1,8
112,244,52218,1,0
52,152,52407,2,0,B|112:164|176:80|152:28,2,180,0|8|0
152,192,53353,1,0
252,156,53542,1,8
356,192,53731,1,0
460,160,53921,1,0
256,88,54299,5,8
256,196,54488,1,8
324,280,54677,2,0,B|436:264,1,90,4|0
440,164,55055,2,0,B|344:176,1,90,8|0
232,168,55434,2,0,B|232:244|116:244|116:168,1,180,0|8
172,64,56001,1,0
280,68,56190,5,8
380,108,56380,1,8
332,204,56569,1,8
236,156,56758,1,8
240,264,56947,2,0,B|324:328|408:260,1,180,4|8
444,164,57514,1,0
336,156,57704,6,0,B|144:156,1,180,2|8
48,156,58271,1,0
48,264,58460,6,0,B|260:264,1,180,2|8
336,264,59028,1,0
432,216,59217,1,2
344,152,59406,1,0
344,152,59501,1,0
344,152,59595,2,0,B|232:200,1,90,8|0
160,148,59974,2,0,B|356:64,1,180,4|8
448,80,60730,6,2,B|464:188,1,90,6|2
404,260,61108,1,8
304,296,61298,1,0
204,256,61487,1,0
164,156,61676,1,2
164,156,61770,1,0
164,156,61865,2,0,B|288:140,1,90,8|0
336,76,62243,6,0,B|344:176|456:168,1,135,2|0
444,216,62622,2,0,B|472:264|428:320,1,90,8|0
332,296,63000,1,0
332,296,63095,1,0
332,296,63189,1,0
224,316,63378,1,8
116,296,63567,1,2
188,216,63757,6,0,B|296:196,1,90,6|0
380,176,64135,1,8
380,176,64324,1,0
336,80,64513,1,2
236,116,64702,1,2
132,80,64892,1,8
32,116,65081,1,2
108,192,65270,2,0,B|168:228|144:316,1,135,4|0
200,316,65648,2,0,B|248:336|248:336|328:324,1,90,8|0
376,276,66026,5,0
440,188,66216,2,0,B|456:144,2,45,0|0|8
348,132,66594,1,8
256,80,66783,2,0,B|252:168|172:208,1,135,2|0
144,212,67161,1,8
76,296,67351,1,0
124,316,67445,1,0
176,324,67540,1,0
256,256,67729,2,2,B|464:256,1,180
432,152,68296,5,2
416,152,68391,1,0
400,152,68485,1,0
384,152,68580,1,0
368,152,68675,1,8
352,152,68769,1,0
336,152,68864,1,0
320,152,68958,1,0
304,152,69053,1,0
216,184,69242,6,2,B|256:288|408:216,1,180
440,280,69810,2,0,B|424:320,1,45
336,312,70093,2,0,B|288:344,1,45,0|8
208,328,70377,1,0
128,288,70566,1,0
104,200,70755,2,0,B|288:160,1,180
256,68,71323,6,2,B|360:80|424:192|360:288|244:308,1,360,2|4
254,305,72458,1,12
