osu file format v9

[General]
AudioFilename: Zao Gao Xian Jin Guo.mp3
AudioLeadIn: 2000
PreviewTime: 24450
Countdown: 0
SampleSet: Normal
StackLeniency: 0.5
Mode: 0
LetterboxInBreaks: 1

[Editor]
Bookmarks: 24034,60352
DistanceSpacing: 1.4
BeatDivisor: 4
GridSize: 4

[Metadata]
Title:Zao Gao Xian Jin Guo
Artist:Bilibili Douga
Creator:a3272509123
Version:ExStage
Source:Wuwaa
Tags:Geping Gepao McDonald Bluecat Acfun Zaogaoxianjinguo Jin Guan Zhang Jinguanzhang The World

[Difficulty]
HPDrainRate:6
CircleSize:4
OverallDifficulty:7
ApproachRate:8
SliderMultiplier:2.4
SliderTickRate:1

[Events]
//Background and Video events
Video,0,"video.avi"
0,0,"background.jpg"
//Break Periods
//Storyboard Layer 0 (Background)
//Storyboard Layer 1 (Fail)
//Storyboard Layer 2 (Pass)
//Storyboard Layer 3 (Foreground)
//Storyboard Sound Samples
//Background Colour Transformations
3,100,163,162,255

[TimingPoints]
201,378.310214375788,4,1,0,60,1,0
11550,-200,4,1,0,60,0,0
11928,-100,4,1,0,60,0,0
14009,-200,4,1,0,60,0,0
14387,-100,4,1,0,60,0,0
14576,-200,4,1,0,60,0,0
15333,-100,4,1,0,60,0,0
24034,-100,4,2,0,60,0,0
24412,-100,4,1,0,60,0,1
25926,-100,4,1,0,60,0,1
26682,-100,4,1,0,60,0,1
35005,-100,4,1,0,20,0,1
35762,-100,4,1,0,60,0,1
36140,-200,4,1,0,60,0,1
36329,-100,4,2,0,5,0,1
36518,-100,4,1,0,60,0,0
57704,-133.333333333333,4,1,0,60,0,0
58460,-100,4,1,0,60,0,0
59217,-66.6666666666667,4,1,0,60,0,0
60352,-100,4,2,0,60,0,0
60730,-100,4,1,0,60,0,1
62622,-200,4,1,0,60,0,1
63000,-100,4,1,0,60,0,1
66783,-100,4,1,0,60,0,0

[Colours]
Combo1 : 255,0,0
Combo2 : 5,240,5
Combo3 : 255,255,0
Combo4 : 0,128,255

[HitObjects]
160,80,201,1,0
280,88,390,2,0,B|360:88,2,60,0|0|8
208,184,768,1,0
328,200,957,2,0,B|424:192|464:200,1,120,0|0
304,304,1335,2,0,B|208:312|152:296,1,120,8|0
88,232,1714,5,0
80,208,1808,1,0
72,184,1903,1,0
80,160,1997,1,0
88,136,2092,1,8
192,192,2281,1,0
288,64,2470,2,0,B|352:80|400:136,1,120,0|0
288,320,2849,2,0,B|368:304|400:248,1,120,8|0
192,192,3227,5,0
320,192,3416,2,0,B|384:192,2,60,0|0|8
192,192,3794,1,0
64,136,3984,1,0
48,120,4078,1,0
64,248,4268,1,0
48,256,4362,1,8
192,192,4551,1,0
200,312,4740,6,0,B|288:312|288:312|320:328|320:328|440:328,1,240,0|8
440,332,5308,1,0
440,332,5497,2,0,B|439:260|439:260|460:220|460:220|460:92,1,240,0|8
456,92,6064,1,0
352,32,6253,5,0
328,40,6348,1,0
304,48,6443,1,0
280,56,6537,1,0
288,80,6632,5,8
280,104,6726,1,0
272,128,6821,1,0
264,152,6916,1,0
272,176,7010,5,0
256,192,7105,1,0
240,208,7199,1,0
224,224,7294,1,0
208,208,7388,5,8
184,216,7483,1,0
160,224,7578,1,0
136,232,7672,1,0
120,248,7767,6,0,B|64:312|80:384,1,120,0|0
216,304,8145,1,8
320,360,8334,6,0,B|376:296|360:224,1,120,0|0
476,184,8712,2,0,B|516:240,2,60,0|0|8
363,251,9091,1,8
360,120,9280,6,0,B|288:96|232:120,1,120,0|0
248,144,9564,1,0
256,176,9658,2,0,B|192:200|128:168,1,120,8|0
72,264,10037,6,0,B|176:280|200:304,1,120,0|0
187,294,10415,1,8
304,272,10604,1,0
187,294,10793,5,0
168,176,10982,1,0
288,152,11171,1,8
304,272,11361,1,0
288,152,11550,2,0,B|336:168,4,30,0|0|0|0|8
184,56,12306,5,0
184,56,12496,1,0
212,220,12685,1,8
212,220,12779,1,0
212,220,12874,1,0
380,196,13063,1,0
380,196,13252,1,0
360,28,13441,1,8
360,28,13536,1,0
360,28,13631,1,0
352,184,13820,5,0
384,184,13914,1,0
416,184,14009,2,0,B|488:184,1,60,0|8
352,280,14387,1,0
320,280,14482,1,0
288,280,14576,2,0,B|216:280,1,60,0|0
228,280,14955,2,0,B|240:320|216:352,1,60,8|0
152,240,15333,5,0
128,240,15427,1,0
120,216,15522,1,0
96,216,15617,1,0
88,192,15711,1,8
64,192,15806,1,0
56,168,15900,1,0
32,168,15995,1,0
32,132,16090,6,0,B|112:132,1,60,0|0
128,120,16279,2,0,B|216:120,1,60,0|0
224,112,16468,2,0,B|296:112,1,60,8|0
320,128,16657,2,0,B|400:128,1,60,0|0
380,128,16846,5,0
432,240,17224,1,8
432,240,17414,1,0
432,240,17603,2,0,B|360:272,4,60,0|0|0|0|8
184,224,18359,5,0
376,72,18738,1,8
392,72,18927,1,0
408,72,19116,1,0
136,64,19494,1,8
136,80,19683,1,0
136,96,19873,2,0,B|176:104|176:104|136:112|136:112|176:120|176:120|136:128|136:128|176:136|176:136|136:144|136:144|176:152|176:152|136:160|136:160|176:168|176:168|136:176|136:176|176:184|176:184|136:192|136:192|176:200|176:200|136:208|136:208|176:216|176:216|136:224|136:224|176:232|176:232|136:240|136:240|176:248|176:248|176:248|176:248|176:248|176:248,1,720,0|8
149,237,21197,1,0
64,172,21386,6,0,B|156:128|280:188,2,180,0|0|0
149,237,22142,1,8
148,260,22332,1,0
148,284,22521,2,0,B|148:348,2,60
232,320,22899,6,0,B|336:256|424:376|496:288,1,240,0|8
472,288,23372,1,0
480,264,23467,2,0,B|504:200|432:160|520:120,1,120,0|0
480,148,24034,2,0,B|459:89|411:89,2,60,8|0|0
240,168,24412,5,0
192,96,24602,1,0
224,184,24791,1,8
124,148,24980,1,0
208,208,25169,1,0
76,220,25358,1,0
200,240,25547,1,8
60,304,25736,1,0
176,320,25926,6,0,B|240:256,3,60,0|0|0|0
208,128,26493,2,0,B|256:80,2,60
176,320,27061,2,0,B|256:320,3,60
272,320,27439,5,4
304,320,27628,1,0
332,304,27817,2,0,B|392:260|384:196,1,120,8|0
384,180,28195,1,0
380,156,28385,1,0
368,136,28574,2,0,B|336:60|252:40,1,120,8|0
256,176,28952,5,0
160,240,29141,1,0
144,256,29235,1,0
128,272,29330,1,8
96,160,29519,1,0
80,160,29614,1,0
64,160,29708,1,0
160,80,29897,1,0
144,64,29992,1,0
128,48,30086,1,8
112,32,30182,1,0
96,16,30276,1,0
224,160,30465,5,0
320,224,30654,1,0
336,224,30749,1,0
352,224,30844,2,0,B|400:224|400:224|432:240|432:240|496:240,1,120,8|0
432,328,31222,1,0
416,344,31317,1,0
392,352,31411,1,0
368,344,31506,1,0
352,328,31600,1,8
232,296,31789,5,0
112,296,31979,1,0
96,280,32073,1,0
88,256,32168,1,0
96,232,32262,1,0
112,208,32357,2,0,B|152:160|112:96,1,120,8|0
112,96,32735,2,0,B|48:80,4,60,0|0|0|0|8
256,192,33303,12,0,35005
256,192,35762,5,0
256,192,36140,5,8
160,192,36518,5,0
352,192,36707,1,0
160,192,36897,2,0,B|96:192,2,60,8|0|0
352,192,37275,2,0,B|432:192,2,60,0|0|0
352,96,37653,1,8
352,288,37842,1,0
256,256,38032,5,0
256,144,38221,1,0
160,96,38410,1,8
96,192,38599,1,0
160,288,38788,1,0
160,288,39166,6,0,B|272:368,1,120,8|0
320,272,39545,6,0,B|368:272|368:272|400:288|400:288|448:288,1,120,0|0
384,192,39923,2,0,B|336:192|336:192|304:176|304:176|256:176,1,120,8|0
176,112,40301,1,0
176,224,40491,1,0
96,64,40680,1,8
96,288,40869,1,0
160,368,41058,1,0
272,368,41247,1,0
96,288,41436,1,8
336,288,41625,1,0
336,288,41815,6,0,B|400:320|480:304,1,120,0|0
416,160,42193,2,0,B|352:128|272:144,1,120,8|0
224,224,42571,5,0
128,160,42760,1,0
64,256,42950,1,8
160,320,43139,1,0
256,272,43328,1,0
208,176,43517,1,0
112,224,43706,1,8
160,320,43895,1,0
256,272,44084,6,0,B|304:208|320:336|368:256,1,120,0|0
336,200,44463,2,0,B|384:136|400:264|448:184,1,120,8|0
288,144,44841,2,0,B|216:216|136:128|56:192,1,240,0|8
304,64,45598,6,0,B|192:64|192:64|160:96|160:96|48:96,1,240,0|8
77,96,46165,5,0
128,208,46354,1,0
176,320,46544,1,0
80,320,46733,1,8
224,208,46922,1,0
288,320,47111,6,0,B|432:320,1,120,0|0
368,208,47489,2,0,B|512:208,2,120,8|0|0
372,212,48246,1,8
372,212,48435,1,0
304,112,48624,6,0,B|288:48,2,60,0|0|0
192,144,49003,2,0,B|128:160,2,60,8|0|0
224,256,49381,1,0
224,256,49570,2,0,B|240:336,2,60,0|0|8
336,224,49948,1,0
336,224,50137,5,0
336,224,50327,1,0
336,224,50516,1,8
336,224,50610,1,0
336,224,50705,2,0,B|352:272|352:272|352:304|352:304|368:336,1,120,0|0
192,96,51272,1,8
192,96,51462,1,0
176,224,51651,5,0
64,272,51840,1,0
160,336,52029,1,8
336,144,52407,1,0
448,112,52596,1,0
368,32,52786,1,8
256,192,53164,5,0
160,272,53542,1,8
80,304,53731,1,0
352,272,54110,1,0
432,304,54299,1,8
256,96,54677,5,0
256,128,54866,1,0
256,160,55055,1,8
256,192,55245,1,0
160,256,55434,2,0,B|128:192,2,60,0|0|0
352,256,55812,2,0,B|400:192,2,60,8|0|0
352,256,56190,5,0
460,256,56380,1,0
408,216,56569,1,8
376,312,56758,1,0
440,312,56947,1,0
48,108,57325,1,8
48,108,57514,1,0
48,108,57704,6,0,B|128:52|180:152|260:84,1,179.999994635582,0|8
48,224,58460,2,0,B|128:164|212:272|296:208,1,240,0|8
48,336,59217,2,0,B|144:256|292:424|412:312,1,359.999989271164,0|8
448,264,59784,5,0
448,264,59879,1,0
448,264,59974,1,0
420,140,60352,1,2
304,96,60730,5,0
192,112,60919,1,0
208,224,61108,1,8
320,208,61298,1,0
304,96,61487,1,0
112,128,61676,1,0
144,320,61865,1,8
336,288,62054,1,0
304,96,62243,6,0,B|416:96|416:192,1,120,0|0
384,336,62622,2,0,B|352:336|320:304,1,60,8|0
176,320,63000,6,0,B|64:320|64:224|96:128|208:144|224:224|160:272|32:224|16:176|96:64|176:64,1,420
125,80,63757,5,0
240,48,63946,2,0,B|304:32,1,60
408,88,64230,2,0,B|480:72,1,60
416,192,64513,1,0
432,216,64608,1,0
440,240,64702,1,0
440,264,64797,1,0
432,288,64892,1,8
416,304,64986,1,0
392,320,65081,1,0
256,192,65270,12,8,66405
352,48,66783,5,0
392,160,66972,2,0,B|416:220,2,60,0|0|8
276,128,67351,1,0
256,140,67445,1,0
236,152,67540,2,0,B|172:188,2,60,0|0|0
312,244,67918,5,8
312,244,68107,1,0
312,244,68296,2,0,B|232:232,3,60,0|0|0|0
228,240,68675,2,0,B|176:276,3,60,8|0|0|0
156,268,69053,2,0,B|80:260,4,60,0|0|0|0|8
76,148,69810,5,0
316,140,70188,1,8
432,176,70377,1,0
348,260,70566,1,0
108,260,70945,1,8
352,260,71323,1,0
256,192,71370,12,0,72079
256,192,72458,21,12
