osu file format v9

[General]
AudioFilename: Zao Gao Xian Jin Guo.mp3
AudioLeadIn: 2000
PreviewTime: 24450
Countdown: 0
SampleSet: Normal
StackLeniency: 0.5
Mode: 0
LetterboxInBreaks: 1

[Editor]
Bookmarks: 24034,60352
DistanceSpacing: 0.8
BeatDivisor: 2
GridSize: 4

[Metadata]
Title:Zao Gao Xian Jin Guo
Artist:Bilibili Douga
Creator:a3272509123
Version:Easy
Source:Wuwaa
Tags:Geping Gepao McDonald Bluecat Acfun Zaogaoxianjinguo Jin Guan Zhang Jinguanzhang The World

[Difficulty]
HPDrainRate:2
CircleSize:3
OverallDifficulty:2
ApproachRate:3
SliderMultiplier:0.999999999999999
SliderTickRate:1

[Events]
//Background and Video events
Video,0,"video.avi"
0,0,"background.jpg"
//Break Periods
//Storyboard Layer 0 (Background)
//Storyboard Layer 1 (Fail)
//Storyboard Layer 2 (Pass)
//Storyboard Layer 3 (Foreground)
//Storyboard Sound Samples
//Background Colour Transformations
3,100,163,162,255

[TimingPoints]
201,378.310214375788,4,1,0,60,1,0
24412,-100,4,1,0,60,0,1
36518,-100,4,1,0,60,0,0
60730,-100,4,1,0,60,0,1
66783,-100,4,1,0,60,0,0

[Colours]
Combo1 : 255,0,0
Combo2 : 5,240,5
Combo3 : 255,255,0
Combo4 : 0,128,255

[HitObjects]
80,64,201,2,0,B|208:64,1,99.9999999999999,4|8
260,64,957,1,0
424,112,1714,2,0,B|456:224|344:320,1,200,0|0
292,304,2849,1,8
228,256,3227,6,0,B|84:256,2,99.9999999999999,0|8|0
288,112,4740,2,0,B|416:112,1,99.9999999999999,0|8
424,184,5497,1,0
348,324,6253,6,0,B|240:268|124:340,1,200,4|0
112,256,7388,1,8
112,176,7767,2,0,B|112:48,1,99.9999999999999,0|8
192,80,8523,1,0
276,216,9280,6,0,B|372:264|468:216,1,200,0|0
464,136,10415,1,8
392,96,10793,2,0,B|296:48|200:96,1,200,0|0
128,132,11928,1,8
192,180,12306,6,0,B|320:180,1,99.9999999999999,4|8
372,180,13063,1,0
332,248,13441,1,8
288,316,13820,2,0,B|176:348|64:316,1,200,0|0
92,244,14955,1,8
144,184,15333,6,0,B|144:76,1,99.9999999999999,0|8
224,80,16090,1,0
304,96,16468,1,8
376,128,16846,2,0,B|448:224|348:340,1,200
292,336,17981,1,8
216,308,18359,6,0,B|168:292|72:324,2,99.9999999999999,4|8|0
256,240,19494,2,0,B|400:240,1,99.9999999999999,8|0
412,180,20251,2,0,B|412:52,1,99.9999999999999,8|0
332,64,21008,1,8
252,64,21386,6,0,B|124:64,1,99.9999999999999,0|8
148,184,22332,2,0,B|148:264,1,50,0|8
224,256,22899,2,0,B|356:304|452:224,1,200,0|0
416,80,24412,6,0,B|272:80,1,99.9999999999999,0|8
240,80,25169,2,0,B|240:208,1,99.9999999999999,0|8
320,192,25926,2,0,B|448:192,1,99.9999999999999,0|8
464,256,26682,2,0,B|352:304,1,99.9999999999999,0|8
292,304,27439,6,0,B|148:304,1,99.9999999999999,0|8
120,272,28195,2,0,B|120:144,1,99.9999999999999,0|8
196,144,28952,2,0,B|260:112|356:192|436:128,1,200,0|0
460,192,30087,1,8
428,264,30465,6,0,B|384:304|308:248,1,99.9999999999999,0|8
264,228,31222,2,0,B|220:204|164:228,2,99.9999999999999,0|8|0
336,192,32357,1,8
380,124,32735,1,0
312,84,33113,1,8
272,152,33492,5,0
200,184,33870,2,0,B|120:248,1,99.9999999999999,8|0
56,288,34627,1,8
256,192,35005,12,4,36518
72,192,37275,6,0,B|200:192,1,99.9999999999999,0|8
216,128,38032,2,0,B|352:128,1,99.9999999999999,0|8
392,128,38788,2,0,B|392:336,1,200,0|0
312,328,39923,1,8
232,328,40301,2,0,B|104:328,1,99.9999999999999,0|8
48,328,41058,5,0
128,192,41815,1,0
192,144,42193,1,8
256,96,42571,5,4
416,96,43328,1,0
416,264,44084,1,0
248,264,44841,1,0
88,264,45598,6,0,B|48:192|104:96|200:120,1,200,0|0
248,112,46733,1,8
328,112,47111,2,0,B|328:168|328:168|360:240|360:240|360:304,1,200,0|0
200,272,48624,5,4
192,112,49381,1,0
352,112,50137,1,0
352,272,50894,1,0
272,272,51272,1,8
192,272,51651,5,4
96,144,52407,2,0,B|96:40,2,99.9999999999999,0|8|0
256,144,53921,2,0,B|256:216|408:216|408:128,1,200,0|4
272,56,55434,1,0
192,40,55812,1,8
112,56,56190,5,0
112,216,56947,1,0
272,216,57704,2,0,B|416:216,1,99.9999999999999,0|8
424,152,58460,2,0,B|424:40,1,99.9999999999999,0|8
344,48,59217,2,0,B|344:120|200:120|200:48,1,200,0|0
40,72,60730,6,0,B|80:184,1,99.9999999999999,4|8
144,208,61487,1,0
224,224,61865,1,8
304,208,62243,2,0,B|304:120|376:120|376:24,1,200,0|0
456,48,63378,1,8
456,128,63757,6,0,B|456:256,2,99.9999999999999,4|8|0
376,128,64892,1,8
296,128,65270,2,0,B|88:128,1,200,0|0
56,280,66783,6,0,B|176:328,1,99.9999999999999,4|8
232,312,67540,2,0,B|344:320,1,99.9999999999999,0|8
400,272,68296,2,0,B|312:152|312:152|160:104,1,300,0|8
112,168,69810,6,0,B|104:272,1,99.9999999999999,4|8
184,280,70566,2,0,B|304:288,1,99.9999999999999,0|8
348,336,71323,6,2,B|472:36,1,300,0|4
