osu file format v5

[General]
AudioFilename: Big Bang & 2NE1 - Lollipop MV (english subbed).mp3
AudioLeadIn: 0
PreviewTime: -1
Countdown: 1
SampleSet: Normal
StackLeniency: 0.7
Mode: 0
LetterboxInBreaks: 1
EditorDistanceSpacing: 0.800000011920929

[Metadata]
Title:Lollipop
Artist:Big Bang feat. 2NE1
Creator:tetrojensen
Version:Easy
Source:
Tags:

[Difficulty]
HPDrainRate:3
CircleSize:3
OverallDifficulty:4
SliderMultiplier:1.4
SliderTickRate:2

[Events]
//Background and Video events
1,-2756,"Big Bang feat. 2NE1 - Lollipop MV (english subbed).flv"
0,0,"lollipop.jpg"
//Break Periods
2,44554,47035
2,54554,55035
//Storyboard Layer 0 (Background)
//Storyboard Layer 1 (Failing)
//Storyboard Layer 2 (Passing)
//Storyboard Layer 3 (Foreground)
//Storyboard Sound Samples
//Background Colour Transformations
3,100,163,162,255

[TimingPoints]
10355,500,4,1,1,61,1,0

[Colours]
Combo1 : 128,0,255
Combo2 : 255,0,128
Combo3 : 255,128,0
Combo4 : 255,255,0
Combo5 : 0,255,255

[HitObjects]
64,64,10855,1,8
160,128,11855,1,8
256,192,12855,1,8
352,256,13855,1,8
448,160,14855,5,8
320,160,15855,1,8
192,160,16855,1,8
256,256,17355,5,8
256,256,17855,5,8
448,320,18855,5,8
352,256,19855,1,8
256,192,20855,1,8
160,128,21855,1,8
64,224,22855,5,8
192,224,23855,1,8
320,224,24855,1,8
256,128,25355,5,8
256,128,25855,5,8
64,256,26605,5,2
160,192,27105,5,2
256,128,27605,5,2
352,64,28105,5,2
448,32,28605,5,2
448,128,29105,5,2
448,224,29605,5,2
448,320,30105,5,2
352,320,30605,5,2
352,224,31105,5,2
352,128,31605,5,2
256,128,32105,5,2
256,224,32605,5,2
256,320,33105,5,2
256,192,33355,12,0,34355
448,288,35105,5,2
352,288,35605,5,2
256,288,36105,5,2
160,288,36605,5,2
64,288,37105,5,2
64,192,37605,5,2
160,192,38105,5,2
256,192,38605,5,2
352,192,39105,5,2
448,192,39605,5,2
448,96,40105,5,2
352,96,40605,5,2
256,96,41105,5,2
256,192,41480,12,0,42355
160,256,43105,6,0,B|192:96|320:64|352:288,1,350
256,192,48355,12,0,50355
256,192,51105,6,0,B|256:160|256:128|224:96|160:96|160:128|160:192|160:224|192:256|256:288|320:256|352:224|352:128|320:96|256:64|192:64|224:64|224:64|128:96|96:160|128:224|128:224|224:288|288:288|352:256,1,910
384,192,56355,5,0
288,192,56855,5,0
192,192,57355,5,0
128,192,57730,5,0
32,320,58355,5,0
128,320,58855,1,8
224,320,59355,1,0
320,320,59855,1,8
416,320,60355,1,0
480,256,60855,1,8
480,160,61355,1,0
480,64,61855,1,8
384,64,62355,6,0,B|384:160,1,70,0|8
384,128,62855,6,0,B|384:224,1,70,0|8
384,192,63355,6,0,B|384:288,1,70,0|8
384,320,63855,5,12
256,192,64105,12,4,65855
256,192,66355,6,0,B|256:32,2,140,0|8|0
256,192,67855,6,0,B|416:192,2,140,8|0|8
256,192,69355,6,0,B|256:352,2,140,0|8|0
256,192,70855,6,0,B|96:192,2,140,8|0|8
256,192,72355,12,0,73855
