osu file format v7

[General]
AudioFilename: Big Bang-01-Lollipop Pt.2.mp3
AudioLeadIn: 0
PreviewTime: 63775
Countdown: 1
SampleSet: Normal
StackLeniency: 0.7
Mode: 0
LetterboxInBreaks: 1

[Editor]
DistanceSpacing: 1
BeatDivisor: 4
GridSize: 8

[Metadata]
Title:Lollipop Pt.2
Artist:Big Bang
Creator:lRasl
Version:Normal
Source:Lollipop Pt.2 (Digital Single)
Tags:k pop bigbang taiko woodrockman kwon ji yong g dragon top choi seung hyu lee seung ri v.i tempop tae yang dong yong bae ybtk dae sung d lite delight t.o.p yg g-dragon gdragon

[Difficulty]
HPDrainRate:5
CircleSize:4
OverallDifficulty:5
SliderMultiplier:1.2
SliderTickRate:1

[Events]
//Background and Video events
0,0,"BG.png"
//Break Periods
2,47975,55075
2,60474,63075
2,79975,86575
2,111975,119075
2,124474,127075
2,143975,146575
2,159974,163075
2,176225,179075
2,185975,187075
2,191975,194575
//Storyboard Layer 0 (Background)
//Storyboard Layer 1 (Fail)
//Storyboard Layer 2 (Pass)
//Storyboard Layer 3 (Foreground)
//Storyboard Sound Samples
//Background Colour Transformations
3,100,163,162,255

[TimingPoints]
16275,500,4,1,0,60,1,0
38897,-100,4,1,0,30,0,0
39147,-100,4,1,0,40,0,0
39897,-100,4,1,0,50,0,0
40147,-100,4,1,0,60,0,0
56150,-100,4,1,0,30,0,0
56400,-100,4,1,0,45,0,0
56650,-100,4,1,0,60,0,0
56650,-100,4,1,0,60,0,0
64275,-100,4,1,0,60,0,1
79775,-100,4,1,0,60,0,0
90150,-100,4,1,0,30,0,0
90650,-100,4,1,0,45,0,0
91025,-100,4,1,0,60,0,0
103150,-100,4,1,0,30,0,0
103650,-100,4,1,0,45,0,0
103900,-100,4,1,0,60,0,0
128275,-100,4,1,0,60,0,1
143775,-100,4,1,0,60,0,0
164275,-100,4,1,0,60,0,1
195650,-100,4,1,0,30,0,1
195900,-100,4,1,0,60,0,1

[Colours]
Combo1 : 252,244,101
Combo2 : 149,255,149
Combo3 : 255,162,208
Combo4 : 106,143,255
Combo5 : 255,106,106

[HitObjects]
64,192,15775,1,0
120,192,16025,1,0
176,192,16275,2,0,B|224:248|176:304,2,120,8|2|0
256,288,17775,1,0
256,192,18275,1,8
256,96,18775,1,2
152,96,19275,2,0,B|104:96|104:184|168:184,1,120,4|0
152,304,20275,5,8
256,240,20775,1,2
296,192,21025,1,0
256,152,21275,1,0
144,192,21775,1,0
256,240,22275,2,0,B|376:288,1,120,8|2
400,168,23275,2,0,B|280:120,1,120,4|0
192,192,24275,5,8
120,288,24775,2,0,B|40:288,1,60,2|0
60,228,25275,1,0
60,108,25775,2,0,B|148:108,2,60,0|0|8
60,198,26650,1,0
60,288,27025,1,0
232,280,27775,5,0
144,200,28275,1,8
232,120,28775,1,2
320,200,29275,2,0,B|300:195|432:212|452:312|345:316|282:279,1,240,0|8
232,248,30525,1,0
184,216,30775,1,2
184,216,31275,2,0,B|181:235|211:105|123:52|83:152|96:224,1,240,0|8
120,336,32775,5,2
192,240,33275,1,0
144,200,33525,1,0
192,168,33775,2,0,B|320:168,2,120,0|8|2
192,168,35025,1,0
256,336,35775,5,0
304,296,36025,1,0
256,256,36275,2,0,B|240:200|184:200|176:272,2,120,8|2|0
376,256,37775,1,0
272,200,38275,1,8
232,160,38525,2,0,B|152:160,1,60,0|2
168,224,39025,1,0
344,200,39775,5,0
344,200,40025,1,0
304,240,40275,2,0,B|176:240,1,120,8|2
184,296,41025,1,0
128,328,41275,1,0
96,216,41775,5,0
136,176,42025,1,0
88,136,42275,2,0,B|88:32|208:32,1,180,8|0
206,32,43275,1,0
256,144,43775,1,0
256,144,44025,1,0
256,264,44525,5,0
256,264,44775,1,2
352,192,45275,1,0
352,192,45525,1,0
352,192,45775,2,0,B|424:240|488:240,1,120,0|8
400,344,46775,1,2
288,304,47275,1,0
256,192,47775,1,4
256,192,56275,5,0
208,232,56525,1,0
256,264,56775,1,2
376,264,57275,2,0,B|416:280|448:256,2,60
320,264,58025,1,0
416,192,58525,5,0
416,136,58775,1,2
416,80,59025,1,0
312,136,59525,1,0
280,192,59775,2,0,B|264:240|216:240|200:176,1,120,4|8
160,280,64275,6,0,B|216:344|280:208|328:288,1,180,8|0
376,256,65275,1,0
376,136,65775,1,0
272,200,66275,6,0,B|200:312|120:120|48:256,1,240,8|0
40,176,67525,1,0
56,120,67775,1,0
160,64,68275,6,0,B|232:176|312:-16|384:120,1,240,8|0
408,144,69525,1,0
448,192,69775,1,0
368,264,70275,5,8
224,264,70775,1,2
224,120,71275,1,4
368,120,71775,1,4
464,192,72275,6,0,B|464:320,1,120,8|2
352,264,73275,1,0
344,144,73775,1,0
296,176,74025,1,0
248,208,74275,6,0,B|112:208,1,120,8|2
128,88,75275,1,0
128,88,75775,1,0
248,88,76275,6,0,B|248:160|320:160|320:88,1,120,8|2
316,111,77025,1,0
376,112,77275,2,0,B|456:112|456:112,2,60
296,192,78275,5,8
176,192,78775,1,2
232,192,79025,2,0,B|272:256|232:304,1,120
232,303,79775,1,0
256,192,87775,5,0
136,192,88275,1,8
80,296,88775,1,2
136,320,89025,1,0
192,296,89275,1,0
136,192,89775,1,0
256,192,90275,2,0,B|280:232|336:240,2,90,0|0|4
256,72,91525,6,0,B|336:72,2,60
144,120,92525,1,0
144,120,92775,1,2
240,192,93275,1,0
240,192,93525,1,0
336,120,94025,1,0
336,120,94275,2,0,B|432:120|432:208,1,120,8|2
424,240,95025,1,0
336,328,95525,5,0
280,328,95775,1,0
280,328,96025,1,0
232,288,96275,2,0,B|184:232|208:160,1,120,8|2
320,192,97275,2,0,B|352:248|432:256,1,120
416,136,98275,1,8
416,136,98775,1,2
416,136,99025,1,0
296,136,99775,5,0
240,136,100025,1,0
184,136,100275,2,0,B|64:200,1,120,8|2
96,248,101025,1,0
144,288,101275,2,0,B|224:360|288:200|376:272,1,240,0|8
368,144,102775,1,2
256,192,103275,5,0
256,312,103775,1,0
256,256,104025,1,0
200,280,104275,2,0,B|144:304|80:272,1,120,0|2
144,168,105275,2,0,B|88:144|24:176,2,120,0|0|2
200,192,106525,1,0
320,192,107025,1,0
256,296,107525,6,0,B|320:296,2,60
200,296,108275,1,8
200,176,108775,1,2
320,176,109275,1,0
320,176,109525,1,0
320,176,109775,1,0
440,176,110275,2,0,B|440:312|272:312,1,240,8|0
144,320,111775,1,4
112,192,120275,5,8
232,192,120775,1,2
200,240,121025,1,0
232,288,121275,2,0,B|296:288,2,60,0|0|0
112,288,122275,1,8
112,168,122775,1,2
112,168,123025,1,0
112,168,123275,1,0
216,224,123775,2,0,B|240:288|320:304,1,120,4|8
392,192,128275,6,0,B|320:320|256:112|192:264,1,240,8|2
80,248,129775,1,0
144,144,130275,2,0,B|168:40|304:136|336:16,1,240,8|2
400,128,131775,1,0
312,192,132275,6,0,B|240:192,1,60,8|0
192,192,132775,1,2
200,312,133275,2,0,B|144:344|80:312,1,120
88,192,134275,1,8
208,192,134775,1,0
328,192,135275,1,4
328,192,135525,1,0
384,192,135775,2,0,B|416:224|384:248,1,60,4|0
328,248,136275,6,0,B|320:296|288:304|256:296|240:240,1,120,8|2
152,192,137275,2,0,B|40:192|32:80,1,180
32,85,138275,2,0,B|136:0|256:88|256:88,1,240
384,80,139775,1,0
344,192,140275,6,0,B|312:256|240:264,1,120,8|2
216,312,141025,1,0
184,264,141275,2,0,B|120:232|112:160,1,120,0|2
256,64,142525,6,0,B|320:120|368:64,2,120
192,64,143775,1,4
256,192,147775,5,0
136,192,148275,2,0,B|72:192|56:240|80:288|144:312,1,180,8|0
192,296,149275,1,0
312,296,149775,1,0
312,296,150025,1,0
352,248,150275,2,0,B|336:192|280:192|264:256|264:256,1,120,8|2
264,128,151275,2,4,B|280:72|336:72|352:136|352:136,1,120,4|4
256,208,152275,5,8
144,176,152775,1,2
88,192,153025,1,0
104,248,153275,2,0,B|128:312|216:328,1,120
312,320,154275,1,8
368,320,154525,1,0
424,296,154775,2,0,B|480:240|424:184,1,120,2|0
304,192,155775,1,4
184,192,156275,5,8
120,96,156775,2,0,B|48:96,2,60,2|0|0
240,96,157775,1,0
360,96,158275,1,8
304,200,158775,1,2
304,200,159025,2,0,B|304:304|176:304,1,180,0|4
136,192,164275,6,0,B|160:264|232:240,1,120,8|2
232,120,165275,1,0
328,192,165775,1,0
424,120,166275,2,0,B|480:200|424:296,1,180,8|0
368,288,167275,1,0
248,288,167775,1,0
152,224,168275,6,0,B|152:296|88:296|88:216,1,120,8|2
152,136,169275,2,0,B|152:64|216:64|216:152,2,120,0|0|8
192,176,170525,1,0
248,176,170775,1,2
248,296,171275,1,0
192,320,171525,1,0
152,280,171775,1,0
48,336,172275,6,0,B|96:280|48:224,1,120,8|2
48,104,173275,1,0
48,104,173525,2,0,B|192:104,1,120
168,104,174275,2,0,B|216:200|336:176,1,180,8|0
376,176,175275,1,0
376,296,175775,1,0
376,296,176025,1,0
128,296,180275,6,0,B|72:168|216:160,1,180,8|0
248,160,181275,1,0
368,160,181775,1,0
368,160,182025,1,0
368,160,182275,2,0,B|440:160|440:224|352:224,1,120,8|2
256,224,183275,5,0
176,312,183775,1,0
176,312,184025,1,0
176,312,184275,2,0,B|40:248|80:96,1,240,8|0
168,192,185775,1,4
400,192,188275,6,0,B|400:264|272:264|272:336,1,180,8|0
216,312,189275,1,0
120,232,189775,1,0
64,128,190275,2,0,B|120:64|168:136,1,120,8|0
288,192,191275,1,0
288,192,191775,1,4
256,192,195775,5,4
