osu file format v7

[General]
AudioFilename: Big Bang-01-Lollipop Pt.2.mp3
AudioLeadIn: 0
PreviewTime: 63775
Countdown: 1
SampleSet: Normal
StackLeniency: 0.7
Mode: 0
LetterboxInBreaks: 1

[Editor]
DistanceSpacing: 1
BeatDivisor: 4
GridSize: 8

[Metadata]
Title:Lollipop Pt.2
Artist:Big Bang
Creator:lRasl
Version:Hard
Source:Lollipop Pt.2 (Digital Single)
Tags:k pop bigbang taiko woodrockman kwon ji yong g dragon top choi seung hyu lee seung ri v.i tempop tae yang dong yong bae ybtk dae sung d lite delight t.o.p yg g-dragon gdragon

[Difficulty]
HPDrainRate:6
CircleSize:5
OverallDifficulty:7
SliderMultiplier:1.6
SliderTickRate:1

[Events]
//Background and Video events
0,0,"BG.png"
//Break Periods
2,55975,63375
2,79975,86875
2,112225,119375
2,123975,127375
2,143975,146875
//Storyboard Layer 0 (Background)
//Storyboard Layer 1 (Fail)
//Storyboard Layer 2 (Pass)
//Storyboard Layer 3 (Foreground)
//Storyboard Sound Samples
//Background Colour Transformations
3,100,163,162,255

[TimingPoints]
16275,500,4,1,0,60,1,0
39275,-100,4,1,0,20,0,0
39391,-100,4,1,0,30,0,0
39397,-100,4,1,0,30,0,0
39897,-100,4,1,0,50,0,0
40147,-100,4,1,0,60,0,0
55150,-100,4,1,0,45,0,0
55650,-100,4,1,0,30,0,0
55900,-100,4,1,0,60,0,0
64275,-100,4,1,0,60,0,1
79775,-100,4,1,0,60,0,0
90147,-100,4,1,0,20,0,0
90397,-100,4,1,0,40,0,0
90772,-100,4,1,0,60,0,0
103147,-100,4,2,0,100,0,0
104147,-100,4,1,0,60,0,0
128275,-100,4,1,0,60,0,1
143775,-100,4,1,0,60,0,0
159150,-100,4,2,0,100,0,0
160150,-100,4,1,0,30,0,0
161150,-100,4,1,0,40,0,0
162150,-100,4,1,0,50,0,0
163150,-100,4,1,0,60,0,0
163775,-50,4,1,0,60,0,0
164025,-100,4,1,0,60,0,0
164275,-100,4,1,0,60,0,1
195400,-100,4,1,0,46,0,1
195650,-100,4,1,0,30,0,1

[Colours]
Combo1 : 252,244,101
Combo2 : 149,255,149
Combo3 : 255,162,208
Combo4 : 106,143,255
Combo5 : 255,106,106

[HitObjects]
256,192,15775,1,0
256,272,16025,1,0
296,288,16150,1,0
336,272,16275,2,0,B|384:256|384:192|320:192,1,120,8|0
328,152,16775,1,2
296,80,17025,2,0,B|200:80,1,80,0|8
256,192,17775,5,0
168,112,18025,1,0
256,192,18275,5,8
336,104,18525,1,0
256,192,18775,5,6
336,280,19025,1,0
256,192,19275,5,12
232,160,19400,1,0
208,192,19525,1,0
184,160,19650,1,0
160,192,19775,1,4
160,192,20025,1,0
104,248,20275,6,0,B|136:320|216:320,1,120,8|0
232,320,20775,1,2
312,320,21025,1,0
360,256,21275,2,0,B|448:256,2,80,8|0|0
280,256,22025,1,0
328,192,22275,5,8
256,96,22525,1,0
184,192,22775,1,6
136,256,23025,5,0
88,192,23275,1,12
80,152,23400,1,0
120,160,23525,1,0
112,120,23650,1,0
152,128,23775,1,4
152,128,24025,1,0
272,128,24275,6,0,B|392:128,1,80,8|0
256,208,24775,2,0,B|152:208,1,80,2|0
272,280,25275,2,0,B|368:280,2,80,8|0|0
192,280,26025,1,0
136,224,26275,6,0,B|88:224,2,40
160,192,26650,2,0,B|104:168,2,40
176,152,27025,2,0,B|416:192,1,240,0|4
256,328,28275,5,8
224,256,28525,1,0
152,216,28775,1,2
224,192,29025,1,0
152,152,29275,1,0
224,128,29525,1,0
296,160,29775,2,0,B|288:208|328:240|392:208,1,120,0|0
373,215,30275,1,12
424,280,30525,1,0
408,200,30775,6,0,B|400:152|440:120|504:152,1,120,2|0
485,144,31275,1,4
472,224,31525,1,0
485,144,31775,2,0,B|509:88|444:16|373:72,1,160,0|12
296,128,32525,5,0
344,216,32775,1,2
296,296,33025,1,0
200,296,33275,1,0
152,216,33525,1,0
200,128,33775,1,2
200,128,34025,1,0
200,128,34275,6,0,B|120:136|160:240,1,120,8|0
152,216,34775,1,0
152,216,34900,1,0
152,216,35025,2,0,B|336:216,1,160
392,216,35775,1,4
352,152,36025,1,0
280,120,36275,6,0,B|160:120,1,80,8|0
344,120,36775,2,0,B|432:120,1,80,2|0
312,208,37275,2,0,B|304:272|240:312,1,120
208,328,37775,1,4
232,232,38025,1,0
144,272,38275,6,0,B|136:144|256:176,2,160,8|2|0
120,120,39775,5,0
248,64,40025,1,0
392,120,40275,1,8
328,160,40525,1,0
400,200,40775,5,2
328,232,41025,1,0
328,232,41275,2,0,B|328:320|240:320,1,120
216,320,41775,1,2
216,320,42025,1,0
136,320,42275,2,0,B|136:232|48:232,1,120,8|0
32,232,42775,1,2
32,232,43025,1,0
32,152,43275,2,0,B|200:152,1,160,0|4
192,232,44025,5,0
272,232,44275,1,8
192,232,44525,2,0,B|96:232,1,80,0|2
272,232,45025,2,0,B|368:232,1,80
320,160,45525,2,0,B|224:160,2,80
400,168,46275,5,0
352,232,46525,2,0,B|384:256|312:288|352:312,1,80,0|2
224,328,47025,2,0,B|248:296|280:368|304:328,2,80
168,272,47775,1,0
224,216,48025,1,0
160,168,48275,5,12
208,112,48525,1,0
184,80,48650,1,0
160,112,48775,1,2
80,112,49025,1,0
160,112,49275,1,4
184,144,49400,1,0
160,176,49525,2,0,B|64:176,1,80,0|2
80,256,50025,5,0
80,256,50275,2,0,B|80:304|128:320,1,80,12|0
160,320,50650,1,0
200,320,50775,2,0,B|248:320,2,40,2|0|0
192,240,51275,1,0
264,272,51525,1,0
304,272,51650,1,0
344,272,51775,1,4
368,192,52025,1,0
256,160,52275,5,12
216,88,52525,2,0,B|272:88,2,40,0|0|2
176,160,53025,1,0
168,80,53275,1,4
128,80,53400,1,0
104,120,53525,1,0
176,160,53775,1,4
176,240,54025,1,0
288,200,54275,6,0,B|312:160|376:160|400:224,1,120,12|0
440,200,54775,1,4
416,296,55025,1,0
416,200,55275,1,0
416,296,55525,1,0
392,200,55775,1,0
256,320,64275,6,0,B|256:184,1,120,8|0
256,160,64775,1,2
184,192,65025,2,0,B|152:224|96:224,1,80,0|0
32,240,65525,1,0
64,168,65775,1,0
112,104,66025,1,0
64,40,66275,2,0,B|128:16|200:48|176:128,1,160,8|2
264,104,67025,5,0
344,104,67275,2,0,B|328:216|224:184,1,160
235,187,68025,1,0
160,192,68275,2,0,B|88:208|136:232|192:256|104:264,1,120,8|0
118,262,68775,1,2
176,320,69025,1,0
256,312,69275,1,0
296,240,69525,2,0,B|384:240|384:240,2,80
256,152,70275,5,8
304,72,70525,1,0
208,72,70775,1,0
160,152,71025,1,0
112,72,71275,1,4
64,152,71525,1,0
112,240,71775,1,4
208,240,72025,1,0
304,240,72275,6,0,B|360:312|384:144|440:240,1,160,8|2
480,296,73025,1,0
432,232,73275,1,0
384,296,73525,1,0
432,232,73775,1,0
384,168,74025,1,0
336,232,74275,6,0,B|248:288|168:160|72:232,1,240,8|0
32,192,75275,1,0
88,136,75525,1,0
152,88,75775,1,0
216,136,76025,1,0
256,208,76275,6,0,B|312:208,1,40,8|0
256,280,76650,2,0,B|208:280,1,40,0|2
136,264,77025,1,0
192,200,77275,2,0,B|88:120|200:128|64:208,1,160,0|4
192,320,78275,5,8
136,264,78525,1,0
192,208,78775,1,2
248,264,79025,1,0
304,208,79275,2,0,B|304:272|384:272|400:200,1,120
386,231,79775,1,0
256,192,87775,5,8
120,280,88275,5,8
56,232,88525,1,0
120,192,88775,1,2
56,144,89025,2,0,B|56:80|136:80,2,80
120,192,89775,1,0
200,192,90025,1,0
256,264,90212,5,4
424,192,90587,1,4
272,96,90962,1,4
120,192,91525,5,0
64,136,91775,1,0
120,80,92025,1,0
232,192,92525,1,0
296,232,92775,2,0,B|384:232,2,80,2|0|0
232,280,93525,1,0
232,280,93775,1,0
168,232,94025,6,0,B|168:320|88:224|88:320,1,120
90,297,94525,1,0
88,216,94775,1,2
88,216,95025,2,0,B|88:128|168:224|168:128,1,120,0|0
165,150,95525,1,0
248,152,95775,1,0
272,184,95900,1,0
296,152,96025,1,0
368,192,96275,5,12
440,232,96525,1,0
408,304,96775,1,2
328,304,97025,1,0
288,232,97275,2,0,B|152:232,1,120
128,232,97775,1,4
152,152,98025,2,0,B|256:152,2,80,0|8|0
72,152,98775,1,2
72,152,99025,1,0
72,72,99275,5,4
104,40,99400,1,0
128,72,99525,1,0
152,40,99650,1,0
176,72,99775,1,4
176,72,100025,1,0
256,72,100275,6,0,B|312:120|312:176|256:240,1,160,8|2
192,216,101025,1,0
272,216,101275,2,0,B|360:224|424:168,1,160
376,104,102025,1,0
304,136,102275,1,8
232,96,102525,1,0
232,16,102775,1,2
160,56,103025,1,0
168,136,103275,5,2
136,160,103400,1,0
168,184,103525,1,2
136,200,103650,1,0
168,224,103775,1,2
168,224,104025,1,0
216,288,104275,6,0,B|352:328|288:176,1,160,8|2
224,208,105025,1,0
224,128,105275,2,0,B|88:88|152:240,1,160
136,280,106025,1,0
216,280,106275,2,0,B|296:320|392:272,1,160,8|2
440,232,107025,1,0
368,192,107275,2,0,B|288:152|192:200,1,160
152,240,108025,1,0
88,192,108275,6,0,B|40:192,2,40,8|0|0
88,112,108775,1,2
160,80,109025,2,0,B|208:80,1,40
240,152,109400,2,0,B|192:152,1,40
240,80,109775,1,0
240,80,110025,1,0
320,96,110275,5,8
384,152,110525,1,0
384,232,110775,1,2
320,288,111025,1,0
240,288,111275,1,0
184,232,111525,1,0
184,152,111775,1,0
240,96,112025,1,0
408,224,120275,5,8
384,256,120400,1,0
344,272,120525,1,0
336,192,120775,1,2
256,192,121025,2,0,B|256:240,2,40
256,152,121400,1,0
256,112,121525,1,0
256,112,121775,1,4
176,112,122025,5,0
136,112,122150,1,0
96,112,122275,1,8
96,112,122525,1,0
72,192,122775,1,2
112,192,122900,1,0
152,192,123025,1,0
152,192,123275,2,0,B|152:240,1,40
216,280,123650,2,0,B|216:232,1,40,0|4
256,304,128275,6,0,B|256:192|176:304|176:176,2,160,8|2|0
320,352,129525,1,0
384,304,129775,1,0
432,240,130025,1,0
376,176,130275,2,0,B|312:16|272:344|200:184,1,240,8|0
152,256,131275,5,0
96,200,131525,1,0
152,144,131775,1,4
152,144,132025,1,0
96,88,132275,2,0,B|104:24|224:24|224:120,1,160,8|2
232,160,133025,1,0
296,112,133275,5,0
376,112,133525,1,0
296,112,133775,1,0
376,112,134025,2,0,B|464:112,1,80,0|8
408,176,134525,2,0,B|312:176,2,80,0|2|0
448,248,135275,1,4
392,312,135525,1,0
448,248,135775,1,4
392,312,136025,1,0
352,248,136275,6,0,B|352:144|192:216|192:80,1,240,8|0
112,120,137275,1,0
88,192,137525,1,0
112,264,137775,1,0
192,264,138025,1,0
224,192,138275,6,0,B|304:152|392:200,1,160,8|2
456,152,139025,1,0
456,152,139275,2,0,B|456:296,1,120
456,272,139775,1,0
456,272,140025,1,0
384,296,140275,6,0,B|336:360|288:216|232:296,2,160,12|2|4
456,272,141525,1,0
384,232,141775,1,4
144,192,142525,5,0
200,248,142775,1,2
256,192,143025,1,0
200,128,143275,2,0,B|144:80|88:136,1,120
92,131,143775,1,0
256,192,147775,5,12
120,272,148275,5,8
176,216,148525,1,0
120,160,148775,2,0,B|64:160|64:216,2,80,2|0|0
176,104,149525,1,0
240,152,149775,2,0,B|296:152|296:96,2,80,2|0|8
256,272,150525,5,0
344,192,150775,1,2
256,112,151025,1,0
256,192,151275,5,4
192,232,151525,1,0
128,192,151775,1,4
192,296,152025,6,0,B|232:336|272:288,1,80,0|8
376,256,152525,2,0,B|336:216|296:264,1,80,0|2
200,192,153025,1,0
88,232,153275,2,0,B|48:192|96:152,2,80,0|0|2
200,192,154025,2,0,B|296:192,1,80,0|8
360,280,154525,1,0
440,192,154775,1,2
360,104,155025,1,0
288,176,155275,5,4
216,104,155525,1,0
144,176,155775,1,4
216,248,156025,1,0
288,320,156275,6,0,B|384:320,2,80,8|0|2
192,320,157025,1,0
272,256,157275,2,0,B|376:256,2,80,0|0|2
192,320,158025,1,0
208,224,158275,2,0,B|168:200|120:232,1,80,8|0
208,160,158775,2,0,B|248:136|296:168,1,80,2|0
384,192,159275,5,2
416,168,159400,1,0
384,144,159525,1,2
416,120,159650,1,0
384,96,159775,1,2
384,96,160025,1,0
288,64,160275,5,0
208,64,160525,1,0
128,64,160775,1,0
168,136,161025,1,0
248,136,161275,5,0
208,208,161525,1,0
288,208,161775,1,0
368,208,162025,1,0
328,280,162275,5,0
248,280,162525,1,0
288,352,162775,1,0
208,352,163025,1,0
168,280,163275,5,0
208,208,163525,1,0
128,208,163775,2,4,L|112:200|128:192|112:184|128:176|112:168|128:160|112:152|128:144|112:136|128:128,1,160
168,80,164275,6,0,B|200:48|232:80|272:120|320:80,1,160,8|2
384,128,165025,1,0
320,176,165275,1,0
384,224,165525,1,0
320,272,165775,1,0
384,224,166025,1,0
320,272,166275,6,0,B|192:224|184:360|72:272,1,240,8|0
136,216,167275,1,0
56,216,167525,1,0
56,136,167775,1,0
56,216,168025,1,0
56,136,168275,6,0,B|144:136|56:72|160:72,1,120,8|0
184,72,168775,1,2
184,152,169025,1,0
256,192,169275,1,0
328,152,169525,1,0
328,72,169775,1,0
256,32,170025,6,0,B|256:208,2,160
184,72,171275,1,4
328,72,171525,1,0
184,72,171775,1,4
328,72,172025,1,0
256,112,172275,6,0,B|182:159|238:247|326:190,2,160,8|2|0
328,72,173525,1,0
368,144,173775,1,0
432,192,174025,1,0
368,240,174275,6,0,B|320:320|224:232|232:336,1,160,8|2
233,304,175025,1,0
168,256,175275,1,0
216,192,175525,1,0
136,184,175775,1,0
184,120,176025,1,0
256,80,176275,5,8
288,56,176400,1,0
216,80,176650,1,0
184,56,176775,1,2
232,120,177025,1,0
232,200,177275,2,0,B|184:256|272:256|224:320,1,120
272,312,177775,2,0,B|324:344|380:304|436:328,1,160,0|8
480,264,178525,5,0
440,192,178775,1,2
440,112,179025,1,0
368,152,179275,2,0,B|224:152,1,120
248,152,179775,1,4
248,152,180025,1,0
176,192,180275,6,0,B|168:280|96:280|96:160,1,160,8|2
136,128,181025,1,0
176,56,181275,1,0
216,128,181525,1,0
264,192,181775,2,0,B|312:232|256:264,1,80
192,224,182275,6,0,B|136:224|96:256|136:304|216:304,1,160,8|2
264,264,183025,1,0
328,216,183275,1,0
312,144,183525,1,0
328,216,183775,1,0
248,192,184025,1,0
184,152,184275,6,0,B|192:48|328:88,1,160,8|2
376,80,185025,1,0
432,136,185275,1,0
368,184,185525,2,0,B|368:272,1,80
368,184,186025,2,0,B|464:184,1,80,0|8
368,184,186525,5,0
312,240,186775,1,2
368,184,187025,2,0,B|400:144|360:104,1,80,0|4
296,152,187525,1,0
224,112,187775,2,0,B|192:152|232:192,2,80,4|0|8
168,48,188525,5,0
120,112,188775,1,2
168,176,189025,1,0
168,176,189275,2,0,B|160:240|104:240|104:152,1,120
105,175,189775,1,0
24,176,190025,1,0
64,248,190275,2,0,B|32:280|40:328,1,80,8|0
120,296,190775,6,0,B|208:296,1,80,2|0
256,240,191275,1,0
200,184,191525,1,0
256,240,191775,1,0
312,184,192025,1,0
256,128,192275,6,0,B|256:80,1,40,8|0
200,32,192650,2,0,B|144:32,1,40,0|2
160,112,193025,1,0
80,112,193275,2,0,B|40:184|80:272,1,160
256,312,194275,5,8
360,248,194525,1,0
256,192,194775,2,0,B|248:248|176:248|176:176,1,120,2|0
177,194,195275,1,0
216,120,195525,1,0
144,120,195775,1,4
