osu file format v4

[General]
AudioFilename: Lies.mp3
AudioLeadIn: 0
AudioHash: fc2300f7dbae99be5a9c41a89342a7d7
PreviewTime: -1
SampleSet: Soft

[Metadata]
Title:Lies
Artist:Big Bang
Creator:Maximum
Version:

[Difficulty]
HPDrainRate:5
CircleSize:5
OverallDifficulty:5
SliderMultiplier: 1.5
SliderTickRate: 2

[Events]
//Background and Video events
0,-1,"l_p1004976835.jpg"
//Break Periods
2,95190,109150
//Storyboard Layer 0 (Background)
//Storyboard Layer 1 (Failing)
//Storyboard Layer 2 (Passing)
//Storyboard Layer 3 (Foreground)
//Storyboard Sound Samples
//Background Colour Transformations

[TimingPoints]
3310,480,4,2,0

[Colours]
Combo1 : 255,150,0
Combo2 : 40,205,31
Combo3 : 45,88,228
Combo4 : 200,38,38

[HitObjects]
256,192,9549,5,0
384,192,9790,1,0
352,160,10030,1,0
320,128,10270,1,0
256,128,10510,1,0
128,64,10990,5,0
128,128,11230,1,0
128,192,11710,1,0
128,256,11950,1,0
256,192,12430,1,0
320,192,12910,1,0
352,192,13150,1,0
416,160,13870,6,0,B|416:160|416:96,2,75
256,192,16270,5,0
256,192,18190,1,4
64,64,19390,5,2
128,64,19630,1,2
192,64,19870,2,2,B|192:64|352:64,1,150
416,192,21310,5,0
352,192,21550,1,0
288,192,21790,1,0
256,192,22030,2,0,B|256:192|32:192|32:32,2,300
416,96,24910,5,0
384,128,25150,1,0
352,160,25390,1,2
320,192,25630,1,2
288,224,25870,2,2,B|288:224|128:224,1,150
128,160,26590,2,2,B|128:160|192:160,4,75
256,160,27790,1,0
320,96,28270,6,0,B|320:96|416:96,1,75
384,160,29230,1,2
384,224,29470,1,2
384,288,29710,1,2
96,192,31630,1,2
96,128,31870,6,2,B|96:128|384:128|416:128,1,300
384,192,33550,2,0,B|384:192|128:192|160:224,2,225
160,288,35710,6,0,B|160:288|224:288,3,50
288,288,36430,5,0
352,288,36750,2,2,B|352:288|352:128,1,150
384,64,37630,5,2
352,64,37870,1,2
320,64,38110,1,2
288,64,38350,1,2
256,96,38590,1,2
224,128,38710,1,2
192,160,38950,1,2
160,192,39070,1,2
160,256,39310,2,0,B|160:256|480:256,2,300
160,64,41470,5,0
224,64,41710,1,0
288,64,41950,2,0,B|288:64|288:224,2,150
256,192,43150,5,4
224,64,43630,1,0
288,64,43870,1,0
224,128,44590,1,0
288,128,44830,1,0
224,128,45070,1,0
64,256,45550,2,0,B|64:256|448:256,1,375
256,192,46990,1,4
320,96,47470,5,0
256,96,47950,1,0
192,96,48430,1,0
128,96,48910,1,0
160,160,49070,1,0
192,224,49390,5,0
224,224,49630,1,0
256,224,49870,1,0
288,224,50110,1,0
320,192,50350,1,0
320,160,50590,1,0
320,96,50830,2,0,B|320:96|160:96,2,150
128,160,52270,1,0
160,192,52510,1,0
224,192,52750,2,0,B|224:192|384:192,2,150
448,160,54190,1,2
448,64,54670,2,0,B|448:64|32:64,1,375
32,64,56110,1,0
32,128,56350,1,0
96,128,56830,6,0,B|96:128|256:128,1,150
224,192,57790,2,0,B|224:192|64:192,1,150
64,288,58750,2,0,B|64:288|512:288,1,375
448,224,60190,1,2
448,160,60670,2,2,B|448:160|224:32|0:192|64:160,1,375
64,32,62350,5,2
64,96,62590,1,2
128,96,62830,1,2
128,160,63070,1,2
192,160,63310,1,2
192,224,63550,1,2
256,224,63790,1,0
320,224,64270,2,0,B|320:224|320:64,4,150
320,256,66670,1,0
384,256,67390,5,0
416,224,67630,1,2
448,192,67870,1,0
448,128,68110,2,0,B|448:128|384:128|288:160|288:192,1,150
288,96,68830,2,0,B|288:96|224:96,4,75
352,96,70270,1,4
448,96,70750,5,0
448,160,70990,1,0
448,96,71230,1,0
448,160,71470,1,0
448,96,71710,1,0
448,224,71950,2,0,B|448:224|448:384,3,150
352,288,73870,5,2
160,288,74350,1,2
192,64,75070,5,0
256,64,75310,1,0
96,128,75790,2,0,B|96:128|352:128,1,225
416,128,76990,1,2
416,128,77230,1,2
416,192,77710,2,4,B|416:192|256:192,3,150
448,288,79630,2,0,B|448:288|96:288|32:32,1,525
96,32,81550,1,0
160,32,82030,1,0
256,64,82990,5,0
320,64,83230,1,0
320,128,83470,1,0
256,128,83710,1,2
288,96,84190,5,2
288,96,84430,1,2
256,128,84910,5,2
256,64,85150,1,2
320,64,85390,1,2
320,128,85630,1,2
384,128,85870,1,2
448,128,86110,1,2
512,128,86350,2,2,B|512:128|512:288,1,150
448,288,87070,5,0
384,288,87310,2,0,B|384:288|224:288,4,150
384,224,89710,5,4
320,96,90430,5,4
256,96,90670,1,4
128,160,91150,2,0,B|128:160|384:160,1,225
416,160,92350,1,2
480,160,92590,1,2
480,224,93070,2,4,B|480:224|320:224,4,150
192,192,110350,6,0,B|192:192|320:192,1,75
352,192,110830,1,0
352,128,110990,1,0
352,64,111150,1,0
288,64,111470,1,0
288,96,111550,1,2
288,128,111790,1,0
288,128,112030,2,0,B|288:128|32:128|64:288|224:320|448:320|416:128|256:128|320:160,1,525
448,96,114190,5,0
448,128,114430,1,0
448,160,114670,1,0
416,192,114910,1,0
384,224,115150,1,0
352,256,115390,1,2
320,256,115630,1,0
32,96,116110,5,0
32,128,116350,1,0
32,160,116590,1,0
64,192,116830,1,0
96,224,117070,1,0
128,256,117310,1,0
160,256,117550,1,0
288,288,118030,6,0,B|288:288|448:32|32:96|32:32,3,375
256,192,122110,5,0
192,192,122350,1,0
160,192,122590,1,0
128,160,122830,1,0
128,128,123070,1,0
160,96,123310,1,0
224,96,123790,2,4,B|224:96|384:96,3,150
448,192,125710,5,0
384,192,125950,1,0
320,192,126190,1,0
320,256,126430,1,0
256,256,126670,1,0
256,192,126910,1,0
192,192,127150,1,0
192,256,127390,1,0
128,256,127630,1,0
64,256,127870,1,0
64,320,128110,2,0,B|64:320|320:320,1,225
352,320,129070,5,0
384,288,129310,1,0
416,224,129550,2,0,B|416:224|224:224|224:160,1,150
256,128,130270,5,0
320,128,130510,1,0
320,64,130750,1,0
256,64,130990,1,0
192,64,131230,2,0,B|192:64|192:256,1,150
192,288,132190,2,0,B|192:288|320:288|384:288,2,150
416,288,133390,5,0
416,256,133630,1,0
384,224,133870,1,0
352,192,134110,1,0
320,160,134350,1,0
288,128,134590,1,0
256,96,134830,1,0
224,96,135070,1,0
160,96,135310,2,0,B|160:96|160:256,1,150
160,224,136510,6,0,B|160:224|256:224,1,75
288,224,137230,2,0,B|288:224|416:128|224:32,1,225
224,32,138670,1,4
256,192,139150,12,0,141070
256,192,142990,1,0
256,320,143470,1,0
352,320,144430,5,0
384,288,144670,1,0
384,192,144910,1,2
352,160,145150,1,2
275,160,145630,2,0,B|275:160|211:160,1,75
128,160,146350,1,0
96,192,146590,1,0
96,288,146830,1,0
128,320,147070,1,0
160,320,147310,5,0
192,288,147550,1,0
224,256,147790,2,0,B|224:256|224:96,2,150
288,256,148990,5,2
352,256,149470,1,0
416,256,149950,1,0
416,192,150430,1,0
416,128,150670,1,0
256,192,151150,1,4
128,64,151870,5,4
128,128,152110,1,4
128,192,152590,2,4,B|128:192|416:192,1,225
352,224,153790,1,0
416,256,154030,1,0
416,192,154510,2,4,B|416:192|384:128|224:128,4,150
