osu file format v14

[General]
AudioFilename: Bibio - Anything New(HD)-Kj1QAy6ZxFY.mp3
AudioLeadIn: 0
PreviewTime: 164499
Countdown: 0
SampleSet: Soft
StackLeniency: 0.7
Mode: 0
LetterboxInBreaks: 0
WidescreenStoryboard: 1

[Editor]
DistanceSpacing: 0.8
BeatDivisor: 6
GridSize: 4
TimelineZoom: 1

[Metadata]
Title:Anything New
TitleUnicode:Anything New
Artist:Bibio
ArtistUnicode:Bibio
Creator:Noseosu
Version:Normal
Source:Mind Bokeh
Tags:hd
BeatmapID:980136
BeatmapSetID:457191

[Difficulty]
HPDrainRate:5
CircleSize:4
OverallDifficulty:5
ApproachRate:5
SliderMultiplier:1.4
SliderTickRate:2

[Events]
//Background and Video events
0,0,"yeah.jpg",0,0
//Break Periods
2,40866,42762
2,62541,64465
2,111544,112872
2,157792,162528
2,240061,244115
//Storyboard Layer 0 (Background)
//Storyboard Layer 1 (Fail)
//Storyboard Layer 2 (Pass)
//Storyboard Layer 3 (Foreground)
//Storyboard Sound Samples

[TimingPoints]
410,681.818181818182,4,2,0,100,1,0
14292,-66.6666666666667,4,2,0,100,0,0
15765,-66.6666666666667,4,2,0,100,0,0
16816,-100,4,2,0,100,0,0
17581,-66.6666666666667,4,2,0,100,0,0
18048,-100,4,2,0,100,0,0
22707,-66.6666666666667,4,2,0,100,0,0
23491,-100,4,2,0,100,0,0
25384,-66.6666666666667,4,2,0,100,0,0
26593,-100,4,2,0,100,0,0
36331,-66.6666666666667,4,2,0,100,0,0
37613,-100,4,2,0,100,0,0
47099,-66.6666666666667,4,2,0,100,0,0
48474,-100,4,2,0,100,0,0
52900,-66.6666666666667,4,2,0,100,0,0
53540,-100,4,2,0,100,0,0
150634,-66.6666666666667,4,2,0,100,0,0
151674,-100,4,2,0,100,0,0
190032,-66.6666666666667,4,2,0,100,0,0
190822,-100,4,2,0,100,0,0
224744,-66.6666666666667,4,2,0,100,0,0
225253,-100,4,2,0,100,0,0
229083,-66.6666666666667,4,2,0,100,0,1
240062,-100,4,2,0,100,0,0

[Colours]
Combo1 : 0,128,64
Combo2 : 0,202,0
Combo3 : 18,124,255
Combo4 : 242,24,57
Combo5 : 255,192,0
Combo6 : 128,255,255
Combo7 : 255,128,0
Combo8 : 128,0,128

[HitObjects]
96,160,441,6,0,P|96:192|192:224,1,140
192,128,1805,2,0,P|288:192|256:224,1,186.666666666667
320,320,3168,1,2,0:0:0:0:
352,224,3623,2,0,L|288:160,2,70
302,174,4873,1,0,0:0:0:0:
252,112,5895,2,0,L|92:112,1,140
96,192,6918,2,0,P|128:192|192:288,2,140
32,192,8623,1,0,0:0:0:0:
32,224,9077,1,0,0:0:0:0:
32,224,9418,1,0,0:0:0:0:
32,288,9759,5,0,0:0:0:0:
32,288,10327,1,0,0:0:0:0:
192,224,11236,1,0,0:0:0:0:
224,160,11804,2,0,P|256:160|288:128,2,70
160,160,12940,1,0,0:0:0:0:
64,160,13509,1,0,0:0:0:0:
64,256,14077,1,0,0:0:0:0:
224,288,15781,2,0,L|352:288,2,105.000004005432
128,288,16804,1,0,0:0:0:0:
160,224,17258,2,0,P|224:192|256:256,1,140
320,256,18395,5,0,0:0:0:0:
384,224,18963,1,0,0:0:0:0:
352,192,19417,2,0,P|352:160|256:160,2,140,0|8|0,0:0|0:0|0:0,0:0:0:0:
288,192,21122,1,0,0:0:0:0:
256,192,21463,1,0,0:0:0:0:
224,192,21804,1,2,0:0:0:0:
192,256,22145,1,0,0:0:0:0:
256,256,22713,2,0,L|384:256,1,105.000004005432
448,256,23394,1,0,0:0:0:0:
96,224,25440,6,0,B|64:192|256:64|256:96,1,210.000008010865
256,96,26576,1,0,0:0:0:0:
96,160,27599,2,0,L|320:160,1,210
320,160,29190,1,0,0:0:0:0:
288,160,29531,2,0,P|288:224|192:256,2,163.333333333333
256,192,32030,1,0,0:0:0:0:
320,192,32371,1,0,0:0:0:0:
192,192,32712,1,0,0:0:0:0:
96,224,33053,2,0,P|160:128|224:192,1,233.333333333333
224,192,34644,5,0,0:0:0:0:
288,192,35212,2,0,L|416:192,1,116.666666666667
512,232,36348,2,0,L|512:360,1,105.000004005432
352,320,37030,1,0,0:0:0:0:
256,192,39075,12,0,40666,0:0:0:0:
288,288,43962,6,0,L|160:256,1,116.666666666667
224,224,44984,1,0,0:0:0:0:
288,224,45325,1,0,0:0:0:0:
212,120,45666,2,0,P|244:56|308:88,1,140
320,192,47143,2,0,L|192:192,1,105.000004005432
215,192,47825,1,0,0:0:0:0:
160,192,49416,2,0,L|160:96,2,93.3333333333333
160,192,50893,1,0,0:0:0:0:
224,192,51575,1,0,0:0:0:0:
256,192,52143,2,0,L|352:192,1,93.3333333333333
352,192,52938,5,0,0:0:0:0:
352,192,53279,1,0,0:0:0:0:
320,224,54529,2,0,P|288:256|128:256,1,210,0|8,0:0|0:0,0:0:0:0:
128,224,56915,1,8,0:0:0:0:
160,192,57597,1,0,0:0:0:0:
192,160,58279,1,8,0:0:0:0:
256,128,58961,1,0,0:0:0:0:
320,128,59643,1,10,0:0:0:0:
372,156,60296,2,0,L|456:280,1,140,0|8,0:0|0:0,0:0:0:0:
276,280,61660,2,0,P|272:240|176:216,1,140,0|8,0:0|0:0,0:0:0:0:
128,192,65665,6,0,P|128:160|288:160,1,256.666666666667
320,160,67597,1,0,0:0:0:0:
384,160,67938,1,0,0:0:0:0:
448,160,68279,2,0,P|480:192|448:288,1,140
384,288,69642,1,0,0:0:0:0:
288,288,70324,1,0,0:0:0:0:
192,288,71119,2,0,P|160:288|128:128,1,233.333333333333
256,128,73051,1,0,0:0:0:0:
320,128,73392,2,0,P|352:128|288:352,1,420
302,357,75778,1,0,0:0:0:0:
244,356,76574,5,0,0:0:0:0:
168,356,77142,2,0,L|80:352,1,70
108,304,77823,1,0,0:0:0:0:
148,252,78278,1,0,0:0:0:0:
192,204,78846,1,0,0:0:0:0:
232,200,79301,2,0,L|372:200,1,140
456,208,80323,2,0,P|468:184|508:284,1,280
408,288,82028,1,0,0:0:0:0:
368,380,82596,2,0,L|280:384,1,70
282,291,83278,1,0,0:0:0:0:
236,200,83732,5,0,0:0:0:0:
184,384,84300,2,0,L|84:376,1,93.3333333333333
80,272,85323,2,0,P|80:248|284:168,1,280,0|2,0:0|0:0,0:0:0:0:
320,256,87482,1,0,0:0:0:0:
364,168,87937,2,0,L|452:176,1,70
440,172,88618,1,0,0:0:0:0:
512,172,89187,2,0,P|552:216|460:288,1,210
372,264,90777,1,0,0:0:0:0:
336,236,91459,1,0,0:0:0:0:
296,200,92141,1,0,0:0:0:0:
252,152,92936,6,0,L|96:172,1,140,0|8,0:0|0:0,0:0:0:0:
136,256,94186,1,0,0:0:0:0:
184,312,94754,2,0,L|288:308,2,93.3333333333333
136,272,96345,1,8,0:0:0:0:
184,296,98391,2,0,P|76:200|228:172,1,350
256,164,100550,1,0,0:0:0:0:
296,140,101118,2,0,P|316:112|384:280,1,396.666666666667
344,288,103845,1,0,0:0:0:0:
288,288,104527,1,0,0:0:0:0:
236,288,105208,1,0,0:0:0:0:
160,288,105890,1,0,0:0:0:0:
256,192,106458,12,0,108390,0:0:0:0:
56,332,109299,6,0,P|20:216|248:168,1,420
272,200,114072,5,0,0:0:0:0:
328,208,114412,1,0,0:0:0:0:
364,232,114753,2,0,P|392:332|208:256,2,443.333333333333
16,360,120208,2,2,P|16:328|488:364,1,770
440,356,124639,1,0,0:0:0:0:
84,360,125548,6,2,P|248:192|376:356,1,490
140,348,128275,6,0,P|144:280|328:348,1,350,0|2,0:0|0:0,0:0:0:0:
36,264,131003,1,0,0:0:0:0:
84,240,131571,1,0,0:0:0:0:
128,208,131912,2,0,L|200:156,1,70,0|2,0:0|0:0,0:0:0:0:
188,168,132707,1,0,0:0:0:0:
244,168,133275,1,0,0:0:0:0:
308,168,133730,1,0,0:0:0:0:
368,192,134298,2,0,L|424:256,1,70
416,248,134980,1,0,0:0:0:0:
380,276,136457,6,0,P|344:212|296:216,1,116.666666666667
307,211,137366,1,0,0:0:0:0:
312,208,137707,1,0,0:0:0:0:
276,208,138161,2,0,L|44:212,1,210
64,208,139752,1,0,0:0:0:0:
60,256,140093,2,0,P|60:296|84:296,1,70
256,192,141229,12,0,142934,0:0:0:0:
96,188,144638,5,0,0:0:0:0:
160,188,145093,1,0,0:0:0:0:
220,188,145661,1,0,0:0:0:0:
256,188,146229,2,0,L|368:184,1,93.3333333333333
172,216,150888,2,0,L|292:208,1,116.666666666667
288,208,151797,1,0,0:0:0:0:
108,176,152820,1,0,0:0:0:0:
160,176,153274,2,0,L|280:176,1,116.666666666667
312,176,155547,2,0,L|400:232,1,93.3333333333333
390,226,156456,1,0,0:0:0:0:
360,268,157024,2,0,L|256:328,1,116.666666666667
84,172,163728,5,0,0:0:0:0:
252,184,165092,1,0,0:0:0:0:
388,160,166455,1,0,0:0:0:0:
400,160,167819,2,0,P|496:196|500:240,1,140
500,216,169182,1,0,0:0:0:0:
444,220,170432,1,0,0:0:0:0:
388,224,171796,1,0,0:0:0:0:
280,224,173159,2,0,L|148:292,1,140
155,288,174523,1,0,0:0:0:0:
100,292,175205,1,0,0:0:0:0:
96,236,175887,5,0,0:0:0:0:
136,192,177250,1,0,0:0:0:0:
192,192,178614,2,0,L|344:192,1,140
332,192,179977,1,0,0:0:0:0:
392,196,180659,1,0,0:0:0:0:
392,224,181341,2,0,L|268:296,1,140
216,296,182704,1,0,0:0:0:0:
256,192,183386,12,0,185091,0:0:0:0:
104,280,186113,6,0,L|384:280,1,280,0|8,0:0|0:0,0:0:0:0:
28,68,188159,2,0,L|172:240,1,210
168,228,189522,2,0,L|312:228,1,140,0|8,0:0|0:0,0:0:0:0:
356,232,190886,1,0,0:0:0:0:
312,252,192249,2,0,L|176:296,1,140
148,280,193613,2,0,L|148:188,1,70
256,292,196340,2,0,P|100:144|332:140,1,560
328,124,199408,1,0,0:0:0:0:
344,144,200431,2,0,L|440:256,1,140
388,256,202476,1,0,0:0:0:0:
356,260,203158,6,0,L|216:256,1,140
256,192,204749,12,0,205886,0:0:0:0:
108,288,207249,6,0,B|88:248|96:176|244:168,1,210
280,164,208612,2,0,L|404:228,1,140
380,260,209976,1,0,0:0:0:0:
312,260,211339,1,0,0:0:0:0:
248,264,212021,2,0,L|108:272,1,140
96,260,213385,2,8,P|40:240|128:104,1,280
176,96,215430,2,0,P|232:64|164:176,1,420
172,148,218157,1,0,0:0:0:0:
120,144,218612,2,0,P|36:284|80:296,1,280
59,293,220316,1,0,0:0:0:0:
116,296,220884,5,0,0:0:0:0:
160,292,221566,2,0,L|320:296,1,140
299,295,222930,1,0,0:0:0:0:
304,244,223611,1,0,0:0:0:0:
304,256,224748,2,0,L|184:208,1,105.000004005432
116,280,229634,2,2,P|40:260|168:136,1,373.333333333333,0|2,0:0|0:0,0:0:0:0:
164,132,231225,1,0,0:0:0:0:
224,136,231679,2,2,P|368:236|248:288,1,385.000014686585,0|2,0:0|0:0,0:0:0:0:
248,284,233270,1,0,0:0:0:0:
192,280,234406,2,2,L|-4:288,1,175.00000667572,0|2,0:0|0:0,0:0:0:0:
24,260,235770,2,2,L|116:92,1,175.00000667572,0|2,0:0|0:0,0:0:0:0:
256,192,237133,12,0,239861,0:0:0:0:
256,192,245315,12,0,247488,0:0:0:0:
