osu file format v14

[General]
AudioFilename: troublebusters_192.mp3
AudioLeadIn: 0
PreviewTime: 57950
Countdown: 0
SampleSet: Normal
StackLeniency: 0.4
Mode: 0
LetterboxInBreaks: 1
WidescreenStoryboard: 1

[Editor]
DistanceSpacing: 1
BeatDivisor: 4
GridSize: 4
TimelineZoom: 1.9

[Metadata]
Title:Trouble Busters
TitleUnicode:Trouble Busters
Artist:BiBi
ArtistUnicode:BiBi
Creator:[CSGA]Ar3sgice
Version:Normal
Source:Love Live! School idol project
Tags:ラブライブ! 矢澤にこ Yazawa Niko Nico 徳井青空 Tokui Sora 絢瀬絵里 Ayase Eri Eli 南條愛乃 Nanjou Yoshino 西木野真姫 Nishikino Maki Pile muse u's μ's LL lovelive
BeatmapID:658803
BeatmapSetID:279051

[Difficulty]
HPDrainRate:3
CircleSize:3
OverallDifficulty:3
ApproachRate:5
SliderMultiplier:1.2
SliderTickRate:1

[Events]
//Background and Video events
0,0,"tbBG.jpg",0,0
//Break Periods
//Storyboard Layer 0 (Background)
//Storyboard Layer 1 (Fail)
//Storyboard Layer 2 (Pass)
//Storyboard Layer 3 (Foreground)
//Storyboard Sound Samples

[TimingPoints]
1390,382.165605095541,4,1,1,60,1,0
57950,-100,4,1,1,60,0,1
82409,-100,4,1,1,60,0,0
128268,-100,4,1,1,60,0,1
152727,-100,4,1,1,60,0,0
224574,-100,4,1,1,60,0,1
255147,-100,4,1,1,60,0,0

[Colours]
Combo1 : 255,172,172
Combo2 : 255,113,113
Combo3 : 253,204,204
Combo4 : 201,46,46

[HitObjects]
168,300,1390,6,0,L|292:300,1,120,4|0,0:0|0:0,0:0:0:0:
392,360,2154,2,0,P|404:324|392:240,1,120,4|0,0:0|0:0,0:0:0:0:
320,152,2918,6,0,L|320:80,1,60,4|0,0:0|0:0,0:0:0:0:
356,36,3300,2,0,L|420:36,1,60,4|0,0:0|0:0,0:0:0:0:
472,60,3682,2,0,P|480:104|464:188,1,120,4|0,0:0|0:0,0:0:0:0:
388,264,4447,6,0,L|196:264,1,180,2|2,0:2|0:2,0:0:0:0:
88,132,5593,6,0,P|72:188|76:256,1,120,8|0,0:0|0:0,0:0:0:0:
124,360,6358,1,0,0:0:0:0:
208,272,6740,1,0,0:0:0:0:
292,360,7122,1,8,0:0:0:0:
376,272,7504,6,0,L|504:272,1,120,4|8,0:0|0:0,0:0:0:0:
508,212,8077,1,4,0:0:0:0:
496,152,8268,2,0,L|368:152,1,120,0|8,0:0|0:0,0:0:0:0:
276,80,9033,5,0,0:0:0:0:
220,100,9224,2,0,P|160:108|96:100,1,120,8|0,0:0|0:0,0:0:0:0:
52,136,9797,2,0,P|40:180|44:268,1,120,8|0,0:0|0:0,0:0:0:0:
108,352,10561,5,4,0:0:0:0:
224,316,10944,1,8,0:0:0:0:
280,296,11135,2,0,L|344:276,1,60,0|0,0:0|0:0,0:0:0:0:
448,236,11708,1,8,0:0:0:0:
336,180,12090,5,4,0:0:0:0:
224,128,12472,1,8,0:0:0:0:
172,100,12663,1,0,0:0:0:0:
120,72,12854,2,0,L|52:96,1,60,0|0,0:0|0:0,0:0:0:0:
8,112,13237,1,8,0:0:0:0:
116,168,13619,5,4,0:0:0:0:
136,288,14001,1,8,0:0:0:0:
236,356,14383,2,0,L|312:360,1,60,0|0,0:0|0:0,0:0:0:0:
356,344,14765,1,8,0:0:0:0:
272,256,15147,6,0,L|272:132,1,120,4|4,0:0|0:0,0:0:0:0:
224,96,15721,1,0,0:0:0:0:
164,104,15912,2,0,L|164:228,1,120,0|8,0:0|0:0,0:0:0:0:
48,260,16676,5,4,0:0:0:0:
144,336,17058,1,8,0:0:0:0:
200,352,17249,1,0,0:0:0:0:
260,360,17440,2,0,L|384:360,1,120,0|8,0:0|0:0,0:0:0:0:
496,312,18205,5,4,0:0:0:0:
480,256,18396,2,0,L|464:192,1,60,0|8,0:0|0:0,0:0:0:0:
436,80,18969,1,0,0:0:0:0:
360,172,19351,1,2,0:2:0:0:
320,60,19733,6,0,L|196:60,1,120,4|8,0:0|0:0,0:0:0:0:
140,60,20307,1,0,0:0:0:0:
92,96,20498,2,0,P|84:144|96:228,1,120,0|8,0:0|0:0,0:0:0:0:
96,336,21262,5,4,0:0:0:0:
200,276,21644,1,4,0:0:0:0:
308,324,22026,2,0,P|356:332|428:324,1,120,4|4,0:0|0:0,0:0:0:0:
368,216,22791,5,4,0:0:0:0:
112,120,23937,1,4,0:0:0:0:
272,32,25084,5,4,0:0:0:0:
412,96,25848,5,4,0:0:0:0:
496,180,26230,1,8,0:0:0:0:
452,292,26612,1,0,0:0:0:0:
332,300,26995,1,8,0:0:0:0:
272,196,27377,2,0,L|148:196,1,120,0|8,0:0|0:0,0:0:0:0:
96,180,27950,2,0,P|84:236|108:364,1,180,0|8,0:0|0:0,0:0:0:0:
288,312,29097,6,0,L|360:312,1,60,0|8,0:0|0:0,0:0:0:0:
396,204,29670,2,0,L|468:204,1,60,0|8,0:0|0:0,0:0:0:0:
412,92,30243,1,0,0:0:0:0:
360,64,30434,2,0,P|296:56|240:68,2,120,8|8|0,0:0|0:0|0:0,0:0:0:0:
136,148,31963,5,4,0:0:0:0:
84,256,32345,1,8,0:0:0:0:
156,352,32727,2,0,P|208:348|272:320,1,120,0|8,0:0|0:0,0:0:0:0:
352,236,33491,2,0,L|332:112,1,120,0|8,0:0|0:0,0:0:0:0:
372,72,34065,2,0,P|296:88|188:72,1,180,0|8,0:0|0:0,0:0:0:0:
60,192,35211,5,0,0:0:0:0:
24,244,35402,1,8,0:0:0:0:
112,324,35784,2,0,L|180:324,1,60,0|0,0:0|0:0,0:0:0:0:
272,260,36358,2,0,L|272:324,2,60,0|0|0,0:0|0:0|0:0,0:0:0:0:
236,212,36931,1,8,0:0:0:0:
268,160,37122,2,0,L|388:160,1,120,0|4,0:0|0:0,0:0:0:0:
468,72,37886,5,0,0:0:0:0:
416,44,38077,1,4,0:0:0:0:
476,284,38842,1,0,0:0:0:0:
248,360,39606,1,4,0:0:0:0:
316,260,39988,1,8,0:0:0:0:
268,152,40370,1,0,0:0:0:0:
36,216,41135,6,0,L|164:212,1,120,4|4,0:0|0:0,0:0:0:0:
120,164,41708,1,0,0:0:0:0:
84,116,41899,2,0,L|212:112,1,120,4|4,0:0|0:0,0:0:0:0:
308,52,42663,2,0,L|320:120,1,60,4|4,0:0|0:0,0:0:0:0:
360,152,43046,2,0,L|372:220,1,60,4|4,0:0|0:0,0:0:0:0:
408,260,43428,1,4,0:0:0:0:
352,364,43810,1,0,0:0:0:0:
240,320,44192,5,4,0:0:0:0:
132,368,44574,1,8,0:0:0:0:
24,316,44956,2,0,P|4:256|0:192,1,120,0|8,0:0|0:0,0:0:0:0:
60,212,45530,6,0,L|80:28,1,180,0|8,0:0|0:0,0:0:0:0:
136,52,46294,1,0,0:0:0:0:
192,68,46485,1,0,0:0:0:0:
308,36,46867,1,8,0:0:0:0:
420,84,47249,1,0,0:0:0:0:
468,196,47632,5,8,0:0:0:0:
368,260,48014,2,0,P|356:220|356:136,1,120,0|8,0:0|0:0,0:0:0:0:
312,100,48587,2,0,L|180:100,1,120,0|0,0:0|0:0,0:0:0:0:
132,100,49160,1,8,0:0:0:0:
64,200,49542,1,0,0:0:0:0:
108,312,49925,1,8,0:0:0:0:
220,348,50307,6,0,P|240:288|236:220,1,120,0|8,0:0|0:0,0:0:0:0:
220,176,50880,1,0,0:0:0:0:
188,124,51071,2,0,L|312:124,1,120,0|8,0:0|0:0,0:0:0:0:
400,44,51835,5,0,0:0:0:0:
480,132,52218,1,8,0:0:0:0:
480,192,52409,1,0,0:0:0:0:
456,248,52600,2,0,P|408:280|340:288,1,120,0|8,0:0|0:0,0:0:0:0:
244,224,53364,6,0,L|4:224,1,240,4|4,0:0|0:0,0:0:0:0:
56,52,54702,6,0,L|176:52,1,120,0|0,0:0|0:0,0:0:0:0:
236,64,55275,2,0,P|296:72|360:60,1,120,0|4,0:0|0:0,0:0:0:0:
496,256,56421,5,4,0:0:0:0:
380,236,56804,1,4,0:0:0:0:
364,292,56995,1,4,0:0:0:0:
324,340,57186,1,4,0:0:0:0:
100,264,57950,6,0,L|232:264,1,120,4|8,0:0|0:0,0:0:0:0:
324,204,58714,2,0,P|340:152|336:84,1,120,0|8,0:0|0:0,0:0:0:0:
300,40,59288,2,0,L|172:40,1,120,0|0,0:0|0:0,0:0:0:0:
124,20,59861,1,8,0:0:0:0:
36,100,60243,2,0,P|28:164|40:228,1,120,0|8,0:0|0:0,0:0:0:0:
100,320,61007,5,4,0:0:0:0:
216,352,61389,1,4,0:0:0:0:
336,336,61772,1,4,0:0:0:0:
388,304,61963,1,0,0:0:0:0:
416,252,62154,1,4,0:0:0:0:
444,136,62536,1,0,0:0:0:0:
360,52,62918,1,8,0:0:0:0:
260,116,63300,2,0,P|272:180|260:240,1,120,0|8,0:0|0:0,0:0:0:0:
360,304,64065,6,0,L|484:304,1,120,0|8,0:0|0:0,0:0:0:0:
504,184,64829,2,0,L|380:184,1,120,0|8,0:0|0:0,0:0:0:0:
328,160,65402,2,0,P|268:168|208:160,1,120,0|0,0:0|0:0,0:0:0:0:
152,180,65975,2,0,P|92:172|33:180,2,120,8|0|8,0:0|0:0|0:0,0:0:0:0:
92,284,67122,5,4,0:0:0:0:
184,364,67504,2,0,L|312:364,2,120,4|4|4,0:0|0:0|0:0,0:0:0:0:
92,284,68651,2,0,L|92:160,1,120,4|8,0:0|0:0,0:0:0:0:
120,112,69224,1,0,0:0:0:0:
220,44,69606,2,0,L|264:100,1,60,8|8,0:0|0:0,0:0:0:0:
372,56,70179,6,0,P|388:128|368:240,1,180,0|0,0:0|0:0,0:0:0:0:
328,272,70944,2,0,L|208:272,1,120,0|8,0:0|0:0,0:0:0:0:
100,328,71708,2,0,P|76:284|68:152,1,180,0|0,0:0|0:0,0:0:0:0:
104,108,72472,2,0,L|176:108,1,60,0|0,0:0|0:0,0:0:0:0:
224,96,72854,1,8,0:0:0:0:
280,76,73046,1,0,0:0:0:0:
336,52,73237,5,4,0:0:0:0:
448,96,73619,1,4,0:0:0:0:
384,200,74001,2,0,L|316:200,2,60,4|4|8,0:0|0:0|0:0,0:0:0:0:
448,304,74765,5,4,0:0:0:0:
336,348,75147,1,8,0:0:0:0:
224,308,75530,2,0,L|152:308,1,60,0|8,0:0|0:0,0:0:0:0:
108,328,75912,2,0,P|68:324|-8:276,1,120,8|4,0:0|0:0,0:0:0:0:
96,212,76676,5,8,0:0:0:0:
88,92,77058,2,0,L|212:92,1,120,4|8,0:0|0:0,0:0:0:0:
260,120,77632,1,8,0:0:0:0:
368,68,78014,5,0,0:0:0:0:
424,44,78205,2,0,L|488:56,1,60,8|0,0:0|0:0,0:0:0:0:
508,108,78587,2,0,L|508:232,1,120,0|8,0:0|0:0,0:0:0:0:
384,360,79542,6,0,L|368:288,1,60,4|0,0:0|0:0,0:0:0:0:
256,332,80116,2,0,L|240:260,1,60,4|0,0:0|0:0,0:0:0:0:
124,292,80689,2,0,P|108:224|112:160,1,120,4|0,0:0|0:0,0:0:0:0:
124,116,81262,1,8,0:0:0:0:
168,76,81453,2,0,L|300:76,1,120,0|0,0:0|0:0,0:0:0:0:
340,44,82026,1,8,0:0:0:0:
448,100,82409,6,0,P|460:176|424:336,1,240,4|0,0:0|0:0,0:0:0:0:
316,284,83555,1,8,0:0:0:0:
204,332,83937,2,0,P|170:217|181:98,1,240,4|0,0:0|0:0,0:0:0:0:
64,64,85084,1,8,0:0:0:0:
16,176,85466,6,0,L|264:176,1,240,4|0,0:0|0:0,0:0:0:0:
356,112,86612,1,8,0:0:0:0:
456,176,86995,2,0,P|464:248|452:304,1,120,4|4,0:0|0:0,0:0:0:0:
344,344,87759,2,0,P|336:272|348:216,1,120,0|8,0:0|0:0,0:0:0:0:
244,164,88523,6,0,P|164:160|4:208,1,240,4|0,0:0|0:0,0:0:0:0:
52,316,89670,1,8,0:0:0:0:
164,352,90052,2,0,L|180:100,1,240,4|0,0:0|0:0,0:0:0:0:
256,20,91198,1,8,0:0:0:0:
332,112,91581,6,0,L|348:352,1,240,4|0,0:0|0:0,0:0:0:0:
460,316,92727,1,8,0:0:0:0:
500,204,93109,2,0,L|492:80,1,120,4|4,0:0|0:0,0:0:0:0:
392,152,93874,2,0,L|384:28,1,120,4|4,0:0|0:0,0:0:0:0:
284,96,94638,5,4,0:0:0:0:
52,164,95402,1,0,0:0:0:0:
284,228,96167,1,0,0:0:0:0:
140,336,96740,2,0,L|140:212,1,120,0|4,0:0|0:0,0:0:0:0:
192,108,97504,2,0,L|224:40,1,60,4|4,0:0|0:0,0:0:0:0:
324,108,98077,5,8,0:0:0:0:
440,72,98460,2,0,P|456:136|448:256,1,180,0|0,0:0|0:0,0:0:0:0:
404,288,99224,2,0,L|272:288,1,120,0|8,0:0|0:0,0:0:0:0:
240,328,99797,1,0,0:0:0:0:
184,352,99988,2,0,L|112:352,1,60,0|4,0:0|0:0,0:0:0:0:
36,272,100561,6,0,L|16:204,1,60,4|4,0:0|0:0,0:0:0:0:
44,96,101135,1,8,0:0:0:0:
84,52,101326,1,0,0:0:0:0:
144,36,101517,2,0,P|160:96|148:160,1,120,0|8,0:0|0:0,0:0:0:0:
180,204,102090,1,0,0:0:0:0:
240,212,102281,2,0,L|372:212,1,120,0|8,0:0|0:0,0:0:0:0:
416,232,102854,2,0,P|429:174|416:104,1,120,0|0,0:0|0:0,0:0:0:0:
336,28,103619,5,0,0:0:0:0:
276,28,103810,1,4,0:0:0:0:
68,144,104574,1,0,0:0:0:0:
112,320,105147,5,0,0:0:0:0:
160,356,105339,1,0,0:0:0:0:
272,312,105721,1,8,0:0:0:0:
180,236,106103,1,0,0:0:0:0:
220,192,106294,2,0,P|284:188|344:200,1,120,0|0,0:0|0:0,0:0:0:0:
384,240,106867,6,0,L|508:240,1,120,4|8,0:0|0:0,0:0:0:0:
496,120,107632,2,0,L|372:120,1,120,0|8,0:0|0:0,0:0:0:0:
276,52,108396,2,0,P|204:44|36:84,1,240,4|0,0:0|0:0,0:0:0:0:
104,184,109542,1,8,0:0:0:0:
52,292,109925,6,0,P|104:300|172:292,1,120,4|4,0:0|0:0,0:0:0:0:
280,244,110689,1,4,0:0:0:0:
388,296,111071,1,4,0:0:0:0:
496,240,111453,6,0,L|444:212,1,60,4|4,0:0|0:0,0:0:0:0:
392,184,111835,1,4,0:0:0:0:
444,156,112026,1,4,0:0:0:0:
496,124,112218,2,0,L|436:12,1,120,4|0,0:0|0:0,0:0:0:0:
336,80,112982,6,0,P|280:88|216:80,1,120,4|8,0:0|0:0,0:0:0:0:
108,32,113746,2,0,P|88:108|92:160,1,120,0|8,0:0|0:0,0:0:0:0:
132,192,114319,2,0,L|148:316,1,120,0|0,0:0|0:0,0:0:0:0:
160,372,114893,1,8,0:0:0:0:
268,316,115275,1,0,0:0:0:0:
372,372,115657,1,8,0:0:0:0:
476,312,116039,6,0,P|492:248|484:180,1,120,0|8,0:0|0:0,0:0:0:0:
404,108,116804,2,0,L|272:108,1,120,0|8,0:0|0:0,0:0:0:0:
232,136,117377,2,0,P|152:148|52:136,1,180,0|8,0:0|0:0,0:0:0:0:
4,244,118332,1,0,0:0:0:0:
84,332,118714,1,8,0:0:0:0:
196,288,119097,6,0,L|204:152,1,120,0|8,0:0|0:0,0:0:0:0:
232,116,119670,1,0,0:0:0:0:
276,76,119861,2,0,L|324:24,1,60,0|0,0:0|0:0,0:0:0:0:
432,76,120434,2,0,P|452:144|448:212,1,120,0|0,0:0|0:0,0:0:0:0:
424,244,121007,1,8,0:0:0:0:
384,288,121198,1,0,0:0:0:0:
332,316,121389,2,0,L|200:316,1,120,0|8,0:0|0:0,0:0:0:0:
96,360,122154,5,0,0:0:0:0:
68,308,122345,1,0,0:0:0:0:
48,252,122536,2,0,L|52:180,1,60,8|0,0:0|0:0,0:0:0:0:
56,132,122918,1,0,0:0:0:0:
128,32,123300,1,8,0:0:0:0:
244,80,123682,6,0,L|436:80,1,180,4|0,0:0|0:0,0:0:0:0:
472,116,124447,2,0,P|488:176|484:248,1,120,0|8,0:0|0:0,0:0:0:0:
452,280,125020,6,0,L|328:280,1,120,0|0,0:0|0:0,0:0:0:0:
272,284,125593,1,8,0:0:0:0:
216,308,125784,1,0,0:0:0:0:
180,356,125975,2,0,P|112:364|52:356,1,120,4|0,0:0|0:0,0:0:0:0:
0,256,126740,5,0,0:0:0:0:
64,156,127122,1,0,0:0:0:0:
172,192,127504,2,0,L|248:192,1,60,0|4,0:0|0:0,0:0:0:0:
292,192,127886,1,4,0:0:0:0:
396,256,128268,5,4,0:0:0:0:
492,180,128651,1,8,0:0:0:0:
492,60,129033,2,0,P|432:68|364:60,1,120,0|8,0:0|0:0,0:0:0:0:
320,32,129606,2,0,L|200:32,1,120,0|0,0:0|0:0,0:0:0:0:
140,16,130179,1,8,0:0:0:0:
48,96,130561,2,0,P|40:156|48:220,1,120,0|8,0:0|0:0,0:0:0:0:
136,296,131326,5,4,0:0:0:0:
228,220,131708,1,4,0:0:0:0:
320,296,132090,1,4,0:0:0:0:
440,292,132472,1,4,0:0:0:0:
504,188,132854,5,4,0:0:0:0:
476,136,133046,1,0,0:0:0:0:
428,100,133237,2,0,L|364:100,1,60,8|0,0:0|0:0,0:0:0:0:
312,120,133619,2,0,P|296:188|300:240,1,120,0|8,0:0|0:0,0:0:0:0:
220,328,134383,5,4,0:0:0:0:
100,312,134765,1,8,0:0:0:0:
40,208,135147,1,0,0:0:0:0:
80,96,135530,1,8,0:0:0:0:
140,108,135721,2,0,L|272:108,1,120,0|0,0:0|0:0,0:0:0:0:
320,96,136294,2,0,P|332:164|324:228,2,120,8|0|8,0:0|0:0|0:0,0:0:0:0:
228,16,137440,5,4,0:0:0:0:
124,76,137823,1,4,0:0:0:0:
148,192,138205,2,0,P|144:252|164:316,1,120,4|4,0:0|0:0,0:0:0:0:
260,244,138969,2,0,L|384:244,1,120,4|8,0:0|0:0,0:0:0:0:
400,188,139542,1,0,0:0:0:0:
420,132,139733,2,0,L|296:132,1,120,0|8,0:0|0:0,0:0:0:0:
216,44,140498,6,0,P|148:36|32:68,1,180,4|0,0:0|0:0,0:0:0:0:
76,112,141262,2,0,L|76:236,1,120,0|8,0:0|0:0,0:0:0:0:
20,340,142026,2,0,P|88:360|204:348,1,180,0|0,0:0|0:0,0:0:0:0:
256,336,142791,2,0,L|380:336,1,120,0|8,0:0|0:0,0:0:0:0:
484,284,143555,5,4,0:0:0:0:
376,228,143937,1,4,0:0:0:0:
484,176,144319,2,0,L|484:48,1,120,4|4,0:0|0:0,0:0:0:0:
368,80,145084,6,0,P|304:88|244:80,1,120,4|8,0:0|0:0,0:0:0:0:
264,200,145848,2,0,P|200:208|140:200,1,120,0|8,0:0|0:0,0:0:0:0:
40,148,146612,5,4,0:0:0:0:
16,268,146995,1,4,0:0:0:0:
104,348,147377,2,0,P|172:360|236:352,1,120,4|0,0:0|0:0,0:0:0:0:
280,340,147950,2,0,L|404:340,1,120,4|4,0:0|0:0,0:0:0:0:
456,316,148523,1,4,0:0:0:0:
500,272,148714,1,4,0:0:0:0:
508,212,148905,1,0,0:0:0:0:
400,160,149288,1,8,0:0:0:0:
276,28,149861,6,0,L|276:92,1,60,8|0,0:0|0:0,0:0:0:0:
160,64,150434,2,0,L|160:128,1,60,8|0,0:0|0:0,0:0:0:0:
40,108,151007,2,0,P|28:172|40:228,1,120,4|0,0:0|0:0,0:0:0:0:
76,272,151581,1,0,0:0:0:0:
128,300,151772,2,0,L|324:300,1,180,0|8,0:0|0:0,0:0:0:0:
412,360,152727,5,4,0:0:0:0:
500,132,153491,1,4,0:0:0:0:
264,176,154256,5,4,0:0:0:0:
384,156,154638,1,4,0:0:0:0:
340,268,155020,2,0,P|272:292|172:256,1,180,4|0,0:0|0:0,0:0:0:0:
140,208,155784,6,0,L|140:80,1,120,4|0,0:0|0:0,0:0:0:0:
20,108,156549,2,0,L|20:228,1,120,4|0,0:0|0:0,0:0:0:0:
96,320,157313,2,0,P|156:324|216:300,1,120,4|0,0:0|0:0,0:0:0:0:
264,276,157886,1,0,0:0:0:0:
296,224,158077,1,0,0:0:0:0:
308,164,158268,2,0,L|308:84,1,60,0|0,0:0|0:0,0:0:0:0:
484,60,159033,6,0,L|472:128,1,60,0|4,0:0|0:0,0:0:0:0:
384,40,159606,2,0,L|372:108,1,60,0|4,0:0|0:0,0:0:0:0:
264,144,160179,2,0,L|252:76,1,60,0|4,0:0|0:0,0:0:0:0:
164,164,160752,2,0,L|152:96,1,60,0|4,0:0|0:0,0:0:0:0:
64,260,161517,1,8,0:0:0:0:
152,344,161899,6,0,L|280:344,1,120,4|0,0:0|0:0,0:0:0:0:
312,300,162472,1,0,0:0:0:0:
352,256,162663,2,0,L|480:256,1,120,4|0,0:0|0:0,0:0:0:0:
504,204,163237,1,0,0:0:0:0:
500,144,163428,1,4,0:0:0:0:
420,56,163810,1,0,0:0:0:0:
308,100,164192,1,4,0:0:0:0:
248,108,164383,1,0,0:0:0:0:
188,92,164574,2,0,L|144:48,1,60,0|0,0:0|0:0,0:0:0:0:
100,160,165147,6,0,L|83:217,1,60,0|4,0:0|0:0,0:0:0:0:
204,224,165721,2,0,L|185:281,1,60,0|4,0:0|0:0,0:0:0:0:
304,272,166294,2,0,L|324:344,1,60,0|4,0:0|0:0,0:0:0:0:
436,292,166868,2,0,L|460:368,1,60,0|4,0:0|0:0,0:0:0:0:
500,172,167632,1,8,0:0:0:0:
404,100,168014,6,0,P|344:108|284:100,1,120,4|0,0:0|0:0,0:0:0:0:
228,80,168587,1,0,0:0:0:0:
180,44,168778,2,0,P|168:104|180:164,1,120,4|0,0:0|0:0,0:0:0:0:
212,212,169351,1,0,0:0:0:0:
264,244,169542,2,0,L|388:244,1,120,4|0,0:0|0:0,0:0:0:0:
476,164,170307,1,0,0:0:0:0:
448,112,170498,1,0,0:0:0:0:
396,80,170689,1,0,0:0:0:0:
304,156,171071,6,0,L|304:284,1,120,4|0,0:0|0:0,0:0:0:0:
188,240,171835,2,0,L|188:368,1,120,4|0,0:0|0:0,0:0:0:0:
68,344,172600,6,0,L|28:284,1,60,4|0,0:0|0:0,0:0:0:0:
16,240,172982,1,0,0:0:0:0:
28,180,173173,1,0,0:0:0:0:
64,132,173364,2,0,P|56:68|64:4,1,120,4|0,0:0|0:0,0:0:0:0:
256,192,174128,12,0,177186,0:0:0:0:
420,96,177950,5,0,0:0:0:0:
184,44,178714,1,0,0:0:0:0:
104,132,179097,1,8,0:0:0:0:
104,192,179288,1,0,0:0:0:0:
132,244,179479,1,0,0:0:0:0:
352,344,180243,6,0,L|352:220,1,120,0|8,0:0|0:0,0:0:0:0:
312,180,180816,2,0,P|236:192|128:180,1,180,0|8,0:0|0:0,0:0:0:0:
76,76,181772,1,0,0:0:0:0:
180,16,182154,1,8,0:0:0:0:
264,104,182536,2,0,L|360:104,2,90,0|8|8,0:0|0:0|0:0,0:0:0:0:
228,152,183300,5,0,0:0:0:0:
372,344,184065,1,0,0:0:0:0:
484,128,184829,1,0,0:0:0:0:
272,16,185593,2,0,L|152:16,1,120,0|8,0:0|0:0,0:0:0:0:
40,56,186358,6,0,P|20:152|44:300,1,240,0|0,0:0|0:0,0:0:0:0:
148,344,187504,1,8,0:0:0:0:
256,288,187886,2,0,P|277:170|256:52,1,240,0|0,0:0|0:0,0:0:0:0:
448,196,189415,6,0,L|320:196,1,120,4|8,0:0|0:0,0:0:0:0:
268,196,189988,2,0,P|180:212|88:196,1,180,4|4,0:0|0:0,0:0:0:0:
180,40,191135,1,0,0:0:0:0:
224,360,192472,1,4,0:0:0:0:
284,360,192663,6,0,L|296:228,1,120,0|4,0:0|0:0,0:0:0:0:
356,232,193237,2,0,L|352:160,1,60,4|0,0:0|0:0,0:0:0:0:
380,116,193619,2,0,L|376:48,1,60
316,52,194001,5,4,0:0:0:0:
212,112,194383,2,0,L|88:112,2,120,4|4|4,0:0|0:0|0:0,0:0:0:0:
276,216,195530,2,0,P|308:220|352:220,1,60,4|0,0:0|0:0,0:0:0:0:
448,180,196103,2,0,L|440:320,1,120,4|0,0:0|0:0,0:0:0:0:
436,360,196676,1,8,0:0:0:0:
328,312,197058,5,4,0:0:0:0:
216,360,197440,1,4,0:0:0:0:
104,312,197823,2,0,P|96:252|104:188,1,120,4|4,0:0|0:0,0:0:0:0:
192,112,198587,6,0,L|264:112,1,60,4|4,0:0|0:0,0:0:0:0:
372,92,199160,2,0,P|388:164|368:276,1,180,4|8,0:0|0:0,0:0:0:0:
252,252,200116,5,4,0:0:0:0:
196,356,200498,1,4,0:0:0:0:
84,308,200880,2,0,P|72:240|84:184,1,120,4|4,0:0|0:0,0:0:0:0:
164,104,201644,6,0,L|232:104,1,60,4|4,0:0|0:0,0:0:0:0:
284,100,202026,1,0,0:0:0:0:
332,60,202218,2,0,P|400:68|512:56,1,180,4|8,0:0|0:0,0:0:0:0:
452,164,203173,5,4,0:0:0:0:
504,272,203555,1,4,0:0:0:0:
468,320,203746,1,0,0:0:0:0:
412,344,203937,2,0,P|351:352|292:344,1,120,4|4,0:0|0:0,0:0:0:0:
172,344,204702,2,0,P|111:352|52:344,1,120,4|4,0:0|0:0,0:0:0:0:
112,240,205466,2,0,L|112:108,1,120,4|0,0:0|0:0,0:0:0:0:
192,28,206230,5,0,0:0:0:0:
432,160,207759,5,4,0:0:0:0:
224,284,208523,1,0,0:0:0:0:
316,56,209479,6,0,L|296:136,1,60,4|4,0:0|0:0,0:0:0:0:
192,64,210052,2,0,P|128:72|72:64,1,120,4|0,0:0|0:0,0:0:0:0:
0,164,210816,2,0,P|60:184|124:176,2,120,0|0|0,0:0|0:0|0:0,0:0:0:0:
144,356,212345,5,4,0:2:0:0:
300,176,213109,2,0,L|424:176,1,120,0|0,0:0|0:0,0:0:0:0:
480,172,213682,2,0,P|492:240|476:360,1,180,2|2,0:2|0:2,0:0:0:0:
364,312,214638,2,0,L|240:312,1,120,0|0,0:0|0:0,0:0:0:0:
132,360,215402,5,2,0:2:0:0:
28,300,215784,1,0,0:0:0:0:
44,180,216167,2,0,L|168:180,1,120,2|0,0:2|0:0,0:0:0:0:
264,116,216931,2,0,P|320:124|384:116,2,120,0|0|0,0:0|0:0|0:0,0:0:0:0:
484,216,218460,5,4,0:0:0:0:
428,324,218842,1,8,0:0:0:0:
308,344,219224,1,0,0:0:0:0:
356,236,219606,1,8,0:0:0:0:
396,192,219797,2,0,L|396:72,1,120,0|0,0:0|0:0,0:0:0:0:
352,32,220370,2,0,P|288:24|224:32,1,120,8|0,0:0|0:0,0:0:0:0:
140,108,221135,1,8,0:0:0:0:
184,220,221517,5,4,0:0:0:0:
364,220,222090,1,4,0:0:0:0:
424,220,222281,1,4,0:0:0:0:
224,356,223046,6,0,L|164:352,1,60
124,308,223428,2,0,L|176:272,1,60,8|0,0:0|0:0,0:0:0:0:
224,240,223810,1,0,0:0:0:0:
280,224,224001,2,0,L|348:212,1,60,0|8,0:0|0:0,0:0:0:0:
248,140,224574,6,0,L|244:12,1,120,4|8,0:0|0:0,0:0:0:0:
128,40,225339,2,0,L|132:168,1,120,0|8,0:0|0:0,0:0:0:0:
148,216,225912,2,0,P|148:284|116:348,1,120,0|0,0:0|0:0,0:0:0:0:
76,364,226485,1,8,0:0:0:0:
32,252,226867,2,0,L|32:128,1,120,0|8,0:0|0:0,0:0:0:0:
104,36,227632,6,0,L|228:36,1,120,4|4,0:0|0:0,0:0:0:0:
208,156,228396,1,4,0:0:0:0:
328,152,228778,1,4,0:0:0:0:
380,44,229160,1,4,0:0:0:0:
424,84,229351,1,0,0:0:0:0:
440,140,229542,2,0,L|432:216,1,60,8|0,0:0|0:0,0:0:0:0:
396,248,229925,2,0,P|400:296|380:364,1,120,0|8,0:0|0:0,0:0:0:0:
272,288,230689,6,0,L|144:288,1,120,4|8,0:0|0:0,0:0:0:0:
56,356,231453,2,0,P|37:299|39:239,1,120,0|8,0:0|0:0,0:0:0:0:
76,192,232026,2,0,L|76:72,1,120,0|0,0:0|0:0,0:0:0:0:
120,32,232600,2,0,P|180:24|240:32,1,120,8|0,0:0|0:0,0:0:0:0:
336,100,233364,1,8,0:0:0:0:
228,160,233746,6,0,L|228:288,1,120,4|4,0:0|0:0,0:0:0:0:
316,360,234511,1,4,0:0:0:0:
436,344,234893,1,4,0:0:0:0:
500,244,235275,2,0,L|492:172,1,60,4|4,0:0|0:0,0:0:0:0:
484,124,235657,2,0,L|408:132,1,60,4|4,0:0|0:0,0:0:0:0:
364,144,236039,1,0,0:0:0:0:
360,204,236230,2,0,L|288:204,1,60,0|8,0:0|0:0,0:0:0:0:
260,316,236804,6,0,L|76:316,1,180,0|0,0:0|0:0,0:0:0:0:
36,276,237568,2,0,P|28:216|36:152,1,120,0|8,0:0|0:0,0:0:0:0:
96,56,238332,2,0,P|176:44|276:56,1,180,0|0,0:0|0:0,0:0:0:0:
324,92,239097,2,0,L|324:212,1,120,0|8,0:0|0:0,0:0:0:0:
392,308,239861,5,4,0:0:0:0:
288,372,240243,1,4,0:0:0:0:
184,312,240625,2,0,P|124:320|64:312,1,120,4|4,0:0|0:0,0:0:0:0:
124,208,241389,6,0,L|124:88,1,120,4|8,0:0|0:0,0:0:0:0:
240,52,242154,2,0,L|240:128,1,60,8|0,0:0|0:0,0:0:0:0:
240,172,242536,1,8,0:0:0:0:
236,292,242918,6,0,P|304:300|356:292,1,120,4|4,0:0|0:0,0:0:0:0:
460,236,243682,1,4,0:0:0:0:
460,116,244065,2,0,L|460:52,1,60,0|4,0:0|0:0,0:0:0:0:
344,92,244638,2,0,L|344:28,2,60,4|4|4,0:0|0:0|0:0,0:0:0:0:
308,140,245211,2,0,P|248:148|184:140,1,120,0|8,0:0|0:0,0:0:0:0:
36,44,246167,6,0,L|52:112,1,60,4|0,0:0|0:0,0:0:0:0:
36,220,246740,2,0,L|52:288,1,60,4|0,0:0|0:0,0:0:0:0:
140,356,247313,2,0,P|200:364|260:356,1,120,4|0,0:0|0:0,0:0:0:0:
312,324,247886,2,0,L|432:324,2,120,8|0|8,0:0|0:0|0:0,0:0:0:0:
240,228,249033,5,4,0:0:0:0:
304,128,249415,1,4,0:0:0:0:
420,164,249797,2,0,L|420:284,1,120,4|4,0:0|0:0,0:0:0:0:
392,336,250370,1,4,0:0:0:0:
276,368,250753,6,0,L|216:368,2,60,4|4|4,0:0|0:0|0:0,0:0:0:0:
316,324,251326,2,0,P|324:256|312:204,1,120,0|8,0:0|0:0,0:0:0:0:
164,104,252281,6,0,L|100:104,1,60,4|0,0:0|0:0,0:0:0:0:
64,216,252854,2,0,L|128:216,1,60,4|0,0:0|0:0,0:0:0:0:
244,216,253428,2,0,P|328:228|376:224,1,120,4|0,0:0|0:0,0:0:0:0:
420,208,254001,1,8,0:0:0:0:
504,124,254383,1,0,0:0:0:0:
440,24,254765,1,8,0:0:0:0:
328,64,255147,5,4,0:0:0:0:
216,24,255530,1,8,0:0:0:0:
156,20,255721,1,0,0:0:0:0:
100,44,255912,2,0,P|88:112|96:164,1,120,0|8,0:0|0:0,0:0:0:0:
148,272,256676,5,4,0:0:0:0:
240,348,257058,1,8,0:0:0:0:
300,360,257249,1,0,0:0:0:0:
360,360,257440,1,0,0:0:0:0:
472,312,257823,1,8,0:0:0:0:
360,272,258205,5,4,0:0:0:0:
248,228,258587,1,8,0:0:0:0:
204,188,258778,1,0,0:0:0:0:
176,136,258969,2,0,P|166:78|172:16,1,120,0|8,0:0|0:0,0:0:0:0:
292,8,259734,5,4,0:0:0:0:
340,44,259925,1,4,0:0:0:0:
376,92,260116,1,8,0:0:0:0:
424,204,260498,2,0,P|436:272|424:328,1,120,0|8,0:0|0:0,0:0:0:0:
316,372,261262,5,4,0:0:0:0:
200,348,261644,1,8,0:0:0:0:
144,332,261835,1,0,0:0:0:0:
88,316,262026,2,0,L|84:196,1,120,0|8,0:0|0:0,0:0:0:0:
80,76,262791,6,0,P|144:68|200:72,1,120,4|8,0:0|0:0,0:0:0:0:
316,104,263555,1,0,0:0:0:0:
428,56,263937,1,8,0:0:0:0:
508,140,264319,6,0,P|508:204|480:264,1,120,4|8,0:0|0:0,0:0:0:0:
440,296,264893,1,0,0:0:0:0:
384,320,265084,2,0,L|260:320,1,120,0|8,0:0|0:0,0:0:0:0:
188,232,265848,6,0,L|144:280,1,60,4|0,0:0|0:0,0:0:0:0:
108,320,266230,2,0,L|64:264,1,60,4|0,0:0|0:0,0:0:0:0:
32,228,266612,2,0,L|80:172,1,60,4|0,0:0|0:0,0:0:0:0:
112,140,266994,1,4,0:0:0:0:
148,188,267186,1,0,0:0:0:0:
188,232,267377,6,0,P|288:248|424:232,1,240,4|0,0:0|0:0,0:0:0:0:
488,128,268523,1,8,0:0:0:0:
384,64,268905,2,0,P|364:144|376:304,1,240,4|0,0:0|0:0,0:0:0:0:
276,368,270052,1,8,0:0:0:0:
180,300,270434,6,0,P|194:181|170:64,1,240,4|4,0:0|0:0,0:0:0:0:
20,252,271963,5,0,0:0:0:0:
32,312,272154,1,8,0:0:0:0:
80,344,272345,2,0,L|148:344,1,60,0|8,0:0|0:0,0:0:0:0:
188,308,272727,2,0,L|252:308,1,60
304,288,273109,2,0,L|368:288,1,60,8|0,0:0|0:0,0:0:0:0:
420,308,273491,5,4,0:0:0:0:
496,216,273874,1,0,0:0:0:0:
452,176,274065,2,0,L|356:176,2,90
468,120,274829,1,4,0:0:0:0:
