osu file format v14

[General]
AudioFilename: troublebusters_192.mp3
AudioLeadIn: 0
PreviewTime: 57950
Countdown: 0
SampleSet: Normal
StackLeniency: 0.4
Mode: 0
LetterboxInBreaks: 1
WidescreenStoryboard: 1

[Editor]
DistanceSpacing: 1.2
BeatDivisor: 4
GridSize: 4
TimelineZoom: 1.9

[Metadata]
Title:Trouble Busters
TitleUnicode:Trouble Busters
Artist:BiBi
ArtistUnicode:BiBi
Creator:[CSGA]Ar3sgice
Version:Hard
Source:Love Live! School idol project
Tags:ラブライブ! 矢澤にこ Yazawa Niko Nico 徳井青空 Tokui Sora 絢瀬絵里 Ayase Eri Eli 南條愛乃 Nanjou Yoshino 西木野真姫 Nishikino Maki Pile muse u's μ's LL lovelive
BeatmapID:634685
BeatmapSetID:279051

[Difficulty]
HPDrainRate:4
CircleSize:4
OverallDifficulty:6
ApproachRate:8
SliderMultiplier:1.6
SliderTickRate:1

[Events]
//Background and Video events
0,0,"tbBG.jpg",0,0
//Break Periods
//Storyboard Layer 0 (Background)
//Storyboard Layer 1 (Fail)
//Storyboard Layer 2 (Pass)
//Storyboard Layer 3 (Foreground)
//Storyboard Sound Samples

[TimingPoints]
1390,382.165605095541,4,1,1,60,1,0
57950,-100,4,1,1,60,0,1
82409,-100,4,1,1,60,0,0
128268,-100,4,1,1,60,0,1
152727,-100,4,1,1,60,0,0
212345,-133.333333333333,4,1,1,60,0,0
222090,-100,4,1,1,60,0,0
224574,-100,4,1,1,60,0,1
255147,-100,4,1,1,60,0,0

[Colours]
Combo1 : 255,172,172
Combo2 : 255,113,113
Combo3 : 253,204,204
Combo4 : 201,46,46

[HitObjects]
309,349,1390,6,0,P|365:354|470:330,1,160,4|0,0:0|0:0,0:0:0:0:
389,173,2154,2,0,P|333:168|228:192,1,160,4|0,0:0|0:0,0:0:0:0:
158,30,2918,6,0,L|160:118,1,80,4|0,0:0|0:0,0:0:0:0:
63,75,3300,2,0,L|65:163,1,80,4|0,0:0|0:0,0:0:0:0:
32,245,3682,2,0,L|42:290,7,40,4|0|0|0|0|0|0|0,0:0|0:0|0:0|0:0|0:0|0:0|0:0|0:0,0:0:0:0:
58,329,4447,6,0,L|110:324,1,40,2|0,0:2|0:0,0:0:0:0:
336,303,5020,2,0,L|386:295,1,40,2|0,0:2|0:0,0:0:0:0:
479,196,5402,1,0,0:0:0:0:
383,187,5593,2,0,L|298:179,1,80,8|0,0:0|0:0,0:0:0:0:
207,170,5975,5,0,0:0:0:0:
142,241,6167,2,0,P|119:195|150:91,1,160,8|0,0:0|0:0,0:0:0:0:
222,36,6740,1,0,0:0:0:0:
304,84,6931,1,0,0:0:0:0:
304,84,7026,1,0,0:0:0:0:
304,84,7122,2,0,L|397:83,1,80,8|0,0:0|0:0,0:0:0:0:
478,65,7504,6,0,P|497:118|489:234,1,160,4|8,0:0|0:0,0:0:0:0:
418,280,8077,2,0,P|399:227|407:111,1,160,4|0,0:0|0:0,0:0:0:0:
314,164,8651,2,0,L|227:166,1,80,8|0,0:0|0:0,0:0:0:0:
149,120,9033,5,0,0:0:0:0:
59,155,9224,2,0,P|56:106|67:67,2,80,8|8|0,0:0|0:0|0:0,0:0:0:0:
127,221,9797,1,8,0:0:0:0:
127,221,9893,1,8,0:0:0:0:
127,221,9988,1,8,0:0:0:0:
61,290,10179,2,0,L|55:342,3,40,8|0|0|0,0:0|0:0|0:0|0:0,0:0:0:0:
104,322,10561,6,0,L|197:331,1,80,4|0,0:0|0:0,0:0:0:0:
279,343,10944,1,8,0:0:0:0:
372,321,11135,1,0,0:0:0:0:
372,321,11230,2,0,P|381:272|379:234,1,80,2|2,0:2|0:2,0:0:0:0:
322,165,11612,2,0,L|284:146,1,40,0|8,0:0|0:0,0:0:0:0:
410,114,11899,1,0,0:0:0:0:
498,75,12090,6,0,P|503:116|497:156,2,80,4|0|8,0:0|0:0|0:0,0:0:0:0:
418,21,12663,1,0,0:0:0:0:
418,21,12759,2,0,L|332:21,1,80,2|2,0:2|0:2,0:0:0:0:
250,59,13141,1,0,0:0:0:0:
250,59,13237,2,0,L|159:59,1,80,8|0,0:0|0:0,0:0:0:0:
80,25,13619,5,4,0:0:0:0:
22,102,13810,1,0,0:0:0:0:
78,179,14001,1,8,0:0:0:0:
171,155,14192,1,0,0:0:0:0:
171,155,14288,2,0,P|170:207|154:244,1,80,2|2,0:2|0:2,0:0:0:0:
213,312,14670,1,0,0:0:0:0:
213,312,14765,2,0,L|296:309,1,80,8|0,0:0|0:0,0:0:0:0:
380,348,15147,6,0,L|425:358,4,40,4|8|4|8|4,0:0|0:0|0:0|0:0|0:0,0:0:0:0:
434,268,15721,1,0,0:0:0:0:
434,268,15816,2,0,L|449:181,1,80,2|2,0:2|0:2,0:0:0:0:
458,93,16198,1,0,0:0:0:0:
458,93,16294,2,0,L|394:96,1,40,8|0,0:0|0:0,0:0:0:0:
372,79,16485,2,0,L|320:82,1,40,0|0,0:0|0:0,0:0:0:0:
286,65,16676,6,0,P|243:63|199:76,2,80,4|0|8,0:0|0:0|0:0,0:0:0:0:
255,156,17249,1,0,0:0:0:0:
255,156,17345,2,0,L|263:255,1,80,2|2,0:2|0:2,0:0:0:0:
167,254,17727,1,0,0:0:0:0:
167,254,17823,2,0,L|159:155,1,80,8|0,0:0|0:0,0:0:0:0:
84,115,18205,6,0,P|43:118|2:133,2,80,4|0|8,0:0|0:0|0:0,0:0:0:0:
143,39,18778,1,0,0:0:0:0:
143,39,18874,2,0,L|226:38,1,80,2|2,0:2|0:2,0:0:0:0:
308,81,19256,2,0,L|358:99,1,40,0|2,0:0|0:2,0:0:0:0:
439,73,19542,1,0,0:0:0:0:
494,151,19733,6,0,L|498:238,1,80,4|0,0:0|0:0,0:0:0:0:
407,196,20116,2,0,L|411:283,1,80,8|0,0:0|0:0,0:0:0:0:
418,322,20402,2,0,P|461:329|511:328,2,80,4|0|0,0:0|0:0|0:0,0:0:0:0:
375,344,20880,2,0,L|283:350,1,80,8|0,0:0|0:0,0:0:0:0:
249,332,21167,5,0,0:0:0:0:
249,332,21262,2,0,P|200:334|163:324,1,80,4|0,0:0|0:0,0:0:0:0:
90,273,21644,2,0,P|62:236|52:194,1,80,4|0,0:0|0:0,0:0:0:0:
43,108,22026,2,0,P|49:64|65:24,1,80,4|0,0:0|0:0,0:0:0:0:
149,70,22409,2,0,P|143:114|127:154,1,80,4|0,0:0|0:0,0:0:0:0:
204,208,22791,6,0,B|209:250|209:250|204:291,2,80,4|4|4,0:0|0:0|0:0,0:0:0:0:
299,208,23364,2,0,B|294:250|294:250|299:291,2,80,4|4|4,0:0|0:0|0:0,0:0:0:0:
299,112,23937,2,0,B|294:70|294:70|299:29,2,80,4|4|4,0:0|0:0|0:0,0:0:0:0:
394,112,24510,2,0,B|399:70|399:70|394:29,2,80,4|4|4,0:0|0:0|0:0,0:0:0:0:
394,208,25084,1,4,0:0:0:0:
153,366,25657,5,0,0:0:0:0:
113,278,25848,2,0,P|155:273|195:278,1,80,4|0,0:0|0:0,0:0:0:0:
284,305,26230,2,0,P|292:259|287:221,1,80,8|0,0:0|0:0,0:0:0:0:
244,140,26612,2,0,L|252:57,1,80,0|0,0:0|0:0,0:0:0:0:
346,45,26995,2,0,L|338:128,1,80,8|0,0:0|0:0,0:0:0:0:
405,193,27377,5,0,0:0:0:0:
405,193,27568,1,8,0:0:0:0:
488,145,27759,1,8,0:0:0:0:
489,240,27950,2,0,P|459:271|348:269,1,160,0|0,0:0|0:0,0:0:0:0:
263,227,28523,2,0,L|95:226,1,160,8|0,0:0|0:0,0:0:0:0:
20,175,29097,5,0,0:0:0:0:
20,175,29288,1,8,0:0:0:0:
153,37,29670,1,0,0:0:0:0:
153,37,29861,1,8,0:0:0:0:
319,132,30243,5,0,0:0:0:0:
233,88,30434,2,0,P|224:138|297:228,2,160,8|8|0,0:0|0:0|0:0,0:0:0:0:
314,36,31389,2,0,L|479:41,1,160,4|4,0:0|0:0,0:0:0:0:
504,132,31963,5,4,0:0:0:0:
429,192,32154,1,0,0:0:0:0:
339,156,32345,2,0,P|295:157|257:147,1,80,8|0,0:0|0:0,0:0:0:0:
171,112,32727,2,0,L|86:116,1,80,0|0,0:0|0:0,0:0:0:0:
144,203,33109,2,0,L|59:207,1,80,8|0,0:0|0:0,0:0:0:0:
20,292,33491,5,0,0:0:0:0:
20,292,33682,1,0,0:0:0:0:
83,364,33874,1,8,0:0:0:0:
170,324,34065,2,0,L|342:318,1,160,0|4,0:0|0:0,0:0:0:0:
486,94,35211,5,0,0:0:0:0:
392,70,35402,1,8,0:0:0:0:
400,203,35784,1,0,0:0:0:0:
306,179,35975,1,0,0:0:0:0:
172,88,36358,5,0,0:0:0:0:
93,33,36549,2,0,P|79:71|77:119,2,80,0|0|8,0:0|0:0|0:0,0:0:0:0:
172,88,37122,2,0,P|182:142|170:248,1,160,0|4,0:0|0:0,0:0:0:0:
22,346,37695,1,8,0:0:0:0:
64,260,37886,1,0,0:0:0:0:
132,327,38077,6,0,P|181:331|224:321,1,80,4|0,0:0|0:0,0:0:0:0:
294,277,38460,1,8,0:0:0:0:
379,319,38651,1,0,0:0:0:0:
379,319,38746,2,0,L|465:317,1,80,0|0,0:0|0:0,0:0:0:0:
484,224,39128,1,0,0:0:0:0:
484,224,39223,2,0,L|398:222,1,80,8|0,0:0|0:0,0:0:0:0:
317,178,39606,5,4,0:0:0:0:
263,98,39797,1,0,0:0:0:0:
210,178,39988,1,8,0:0:0:0:
120,213,40179,1,0,0:0:0:0:
120,213,40275,2,0,P|114:263|119:308,2,80,0|0|0,0:0|0:0|0:0,0:0:0:0:
98,169,40753,2,0,L|107:81,1,80,8|0,0:0|0:0,0:0:0:0:
176,24,41135,5,4,0:0:0:0:
176,24,41326,1,0,0:0:0:0:
249,85,41517,1,4,0:0:0:0:
249,85,41708,1,0,0:0:0:0:
324,25,41899,2,0,L|491:24,1,160,4|4,0:0|0:0,0:0:0:0:
499,215,42663,5,4,0:0:0:0:
403,221,42854,1,4,0:0:0:0:
499,215,43046,1,4,0:0:0:0:
403,221,43237,1,4,0:0:0:0:
447,135,43428,2,0,L|433:51,1,80,4|0,0:0|0:0,0:0:0:0:
299,135,43810,2,0,L|313:219,1,80,0|0,0:0|0:0,0:0:0:0:
334,307,44192,5,4,0:0:0:0:
334,307,44383,1,4,0:0:0:0:
261,369,44574,2,0,P|239:320|240:285,1,80,8|0,0:0|0:0,0:0:0:0:
162,235,44956,2,0,P|111:242|3:211,1,160,0|8,0:0|0:0,0:0:0:0:
30,120,45530,6,0,P|81:113|189:144,1,160,0|0,0:0|0:0,0:0:0:0:
264,87,46103,1,8,0:0:0:0:
264,87,46294,1,0,0:0:0:0:
350,127,46485,1,0,0:0:0:0:
442,101,46676,1,8,0:0:0:0:
442,101,46867,2,0,L|431:194,1,80,8|0,0:0|0:0,0:0:0:0:
473,267,47249,5,0,0:0:0:0:
393,320,47440,1,0,0:0:0:0:
301,288,47632,2,0,P|299:342|308:376,1,80,8|0,0:0|0:0,0:0:0:0:
203,332,48014,2,0,P|211:278|199:164,1,160,0|8,0:0|0:0,0:0:0:0:
134,104,48587,6,0,L|304:104,1,160,0|0,0:0|0:0,0:0:0:0:
363,37,49160,1,8,0:0:0:0:
447,81,49351,1,0,0:0:0:0:
404,166,49542,1,0,0:0:0:0:
486,215,49733,1,8,0:0:0:0:
486,215,49925,2,0,L|486:303,1,80,8|0,0:0|0:0,0:0:0:0:
420,365,50307,6,0,P|372:371|260:336,1,160,0|8,0:0|0:0,0:0:0:0:
168,235,50975,1,0,0:0:0:0:
168,235,51071,2,0,L|83:236,2,80,0|0|8,0:0|0:0|0:0,0:0:0:0:
262,250,51644,6,0,P|273:196|260:87,1,160,0|0,0:0|0:0,0:0:0:0:
320,16,52218,1,8,0:0:0:0:
411,46,52409,1,0,0:0:0:0:
396,140,52600,2,0,P|345:149|227:134,1,160,0|8,0:0|0:0,0:0:0:0:
89,15,53364,6,0,L|97:98,1,80,4|0,0:0|0:0,0:0:0:0:
98,190,53746,2,0,L|86:272,1,80,4|0,0:0|0:0,0:0:0:0:
117,360,54128,1,4,0:0:0:0:
117,360,54319,1,4,0:0:0:0:
206,324,54511,1,4,0:0:0:0:
294,361,54702,6,0,P|351:367|456:349,1,160,0|0,0:0|0:0,0:0:0:0:
506,271,55275,1,0,0:0:0:0:
452,191,55466,1,0,0:0:0:0:
363,227,55657,2,0,L|117:228,1,240,4|0,0:0|0:0,0:0:0:0:
40,178,56421,5,4,0:0:0:0:
38,82,56612,1,4,0:0:0:0:
119,29,56804,1,4,0:0:0:0:
200,80,56995,1,4,0:0:0:0:
201,175,57186,2,0,P|206:240|170:342,1,160,4|0,0:0|0:0,0:0:0:0:
344,233,57950,6,0,L|504:214,1,160,4|8,0:0|0:0,0:0:0:0:
322,147,58714,2,0,L|317:323,1,160,0|8,0:0|0:0,0:0:0:0:
238,362,59288,6,0,P|188:363|79:322,1,160,0|0,0:0|0:0,0:0:0:0:
132,242,59861,2,0,L|133:156,1,80,8|0,0:0|0:0,0:0:0:0:
72,87,60243,1,0,0:0:0:0:
137,16,60434,1,0,0:0:0:0:
137,16,60530,1,0,0:0:0:0:
137,16,60625,2,0,L|228:14,1,80,8|0,0:0|0:0,0:0:0:0:
304,52,61007,6,0,P|346:53|402:41,1,80,4|0,0:0|0:0,0:0:0:0:
485,133,61389,2,0,P|443:132|387:144,1,80,4|0,0:0|0:0,0:0:0:0:
366,166,61676,1,0,0:0:0:0:
366,166,61772,2,0,L|274:162,1,80,4|0,0:0|0:0,0:0:0:0:
190,156,62154,2,0,L|109:151,1,80,4|0,0:0|0:0,0:0:0:0:
35,211,62536,5,0,0:0:0:0:
35,211,62727,1,0,0:0:0:0:
14,304,62918,1,8,0:0:0:0:
14,304,63109,1,0,0:0:0:0:
89,363,63300,1,0,0:0:0:0:
170,312,63491,1,8,0:0:0:0:
170,312,63682,2,0,L|258:311,1,80,8|0,0:0|0:0,0:0:0:0:
333,358,64065,6,0,P|382:364|499:329,1,160,0|8,0:0|0:0,0:0:0:0:
429,152,64829,2,0,P|380:146|263:181,1,160,0|8,0:0|0:0,0:0:0:0:
193,122,65402,6,0,L|29:122,1,160,0|0,0:0|0:0,0:0:0:0:
127,41,65975,2,0,L|102:211,1,160,8|0,0:0|0:0,0:0:0:0:
84,293,66549,1,0,0:0:0:0:
84,293,66644,1,0,0:0:0:0:
84,293,66740,2,0,P|84:339|100:377,1,80,8|0,0:0|0:0,0:0:0:0:
175,316,67122,6,0,L|258:314,1,80,4|0,0:0|0:0,0:0:0:0:
350,311,67504,2,0,P|392:297|423:272,1,80,4|0,0:0|0:0,0:0:0:0:
441,232,67791,1,0,0:0:0:0:
441,232,67886,2,0,L|451:148,1,80,4|0,0:0|0:0,0:0:0:0:
353,58,68268,2,0,L|343:142,1,80,4|0,0:0|0:0,0:0:0:0:
273,203,68651,5,4,0:0:0:0:
181,172,68842,1,0,0:0:0:0:
122,248,69033,1,8,0:0:0:0:
178,325,69224,1,0,0:0:0:0:
270,300,69415,1,0,0:0:0:0:
181,172,69606,2,0,L|158:88,2,80,8|8|0,0:0|0:0|0:0,0:0:0:0:
250,106,70179,6,0,P|300:92|420:95,1,160,0|8,0:0|0:0,0:0:0:0:
485,148,70753,1,0,0:0:0:0:
485,148,70944,2,0,L|475:314,1,160,0|8,0:0|0:0,0:0:0:0:
398,365,71517,1,0,0:0:0:0:
310,326,71708,6,0,P|250:334|150:312,1,160,0|8,0:0|0:0,0:0:0:0:
70,266,72281,1,0,0:0:0:0:
46,172,72472,1,0,0:0:0:0:
46,172,72663,1,0,0:0:0:0:
92,87,72854,1,8,0:0:0:0:
92,87,73046,1,0,0:0:0:0:
176,40,73237,6,0,P|182:87|178:129,1,80,4|0,0:0|0:0,0:0:0:0:
287,151,73619,2,0,P|281:104|285:62,1,80,4|0,0:0|0:0,0:0:0:0:
373,103,74001,1,4,0:0:0:0:
373,103,74192,2,0,L|459:102,1,80,4|8,0:0|0:0,0:0:0:0:
497,224,74574,5,0,0:0:0:0:
497,224,74670,1,0,0:0:0:0:
497,224,74765,2,0,P|457:233|324:222,1,160,4|8,0:0|0:0,0:0:0:0:
263,286,75339,1,0,0:0:0:0:
188,225,75530,1,0,0:0:0:0:
188,225,75721,1,8,0:0:0:0:
113,285,75912,2,0,P|95:232|100:192,1,80,8|0,0:0|0:0,0:0:0:0:
159,136,76294,6,0,L|170:56,1,80,4|0,0:0|0:0,0:0:0:0:
250,108,76676,2,0,L|261:28,1,80,8|0,0:0|0:0,0:0:0:0:
312,176,77058,2,0,L|403:176,1,80,4|0,0:0|0:0,0:0:0:0:
487,176,77440,1,8,0:0:0:0:
487,176,77632,2,0,P|496:226|491:265,1,80,8|0,0:0|0:0,0:0:0:0:
451,341,78014,5,0,0:0:0:0:
451,341,78205,1,8,0:0:0:0:
451,341,78396,1,0,0:0:0:0:
358,313,78587,2,0,L|261:312,1,80,0|0,0:0|0:0,0:0:0:0:
188,347,78969,1,8,0:0:0:0:
97,313,79160,1,0,0:0:0:0:
23,152,79542,5,4,0:0:0:0:
114,181,79733,1,0,0:0:0:0:
133,47,80116,1,4,0:0:0:0:
224,76,80307,1,0,0:0:0:0:
360,20,80689,6,0,L|349:191,1,160,4|0,0:0|0:0,0:0:0:0:
343,275,81262,1,8,0:0:0:0:
423,327,81453,1,0,0:0:0:0:
495,264,81644,2,0,L|492:216,3,40,0|0|0|0,0:0|0:0|0:0|0:0,0:0:0:0:
469,181,82026,2,0,L|478:134,3,40,8|0|0|0,0:0|0:0|0:0|0:0,0:0:0:0:
486,94,82409,6,0,P|437:84|396:84,1,80,4|0,0:0|0:0,0:0:0:0:
319,123,82791,1,8,0:0:0:0:
229,88,82982,1,0,0:0:0:0:
229,88,83077,2,0,L|142:88,2,80,2|2|0,0:2|0:2|0:0,0:0:0:0:
261,123,83555,2,0,P|264:171|252:212,1,80,8|0,0:0|0:0,0:0:0:0:
179,258,83937,5,4,0:0:0:0:
92,216,84128,1,0,0:0:0:0:
37,294,84319,1,8,0:0:0:0:
96,369,84511,1,0,0:0:0:0:
96,369,84606,2,0,L|195:368,1,80,2|2,0:2|0:2,0:0:0:0:
264,330,84988,1,0,0:0:0:0:
264,330,85084,2,0,L|352:330,1,80,8|0,0:0|0:0,0:0:0:0:
435,358,85466,6,0,P|471:328|486:297,2,80,4|0|8,0:0|0:0|0:0,0:0:0:0:
398,269,86039,1,0,0:0:0:0:
398,269,86135,2,0,L|390:182,1,80,2|2,0:2|0:2,0:0:0:0:
429,101,86517,1,0,0:0:0:0:
429,101,86612,2,0,L|351:67,1,80,8|0,0:0|0:0,0:0:0:0:
273,19,86995,6,0,L|224:29,4,40,4|8|4|8|4,0:0|0:0|0:0|0:0|0:0,0:0:0:0:
259,113,87568,1,0,0:0:0:0:
259,113,87663,2,0,P|216:111|172:94,2,80,2|2|0,0:2|0:2|0:0,0:0:0:0:
292,148,88141,2,0,L|286:208,1,40,8|0,0:0|0:0,0:0:0:0:
288,236,88332,2,0,L|294:289,1,40,0|0,0:0|0:0,0:0:0:0:
279,322,88523,6,0,P|230:339|194:338,2,80,4|0|8,0:0|0:0|0:0,0:0:0:0:
370,353,89097,1,0,0:0:0:0:
370,353,89192,2,0,L|455:348,1,80,2|2,0:2|0:2,0:0:0:0:
494,263,89574,2,0,L|482:224,1,40,0|8,0:0|0:0,0:0:0:0:
503,130,89861,1,0,0:0:0:0:
454,47,90052,6,0,P|400:30|368:29,2,80,4|0|8,0:0|0:0|0:0,0:0:0:0:
396,124,90625,1,0,0:0:0:0:
396,124,90721,2,0,L|306:126,1,80,2|2,0:2|0:2,0:0:0:0:
220,128,91103,1,0,0:0:0:0:
220,128,91198,2,0,L|129:128,1,80,8|0,0:0|0:0,0:0:0:0:
50,90,91581,5,4,0:0:0:0:
17,180,91772,1,0,0:0:0:0:
71,258,91963,1,8,0:0:0:0:
164,235,92154,1,0,0:0:0:0:
164,235,92249,2,0,P|163:292|151:322,2,80,2|2|0,0:2|0:2|0:0,0:0:0:0:
203,207,92727,2,0,L|256:204,1,40,8|0,0:0|0:0,0:0:0:0:
290,214,92918,2,0,L|341:215,1,40,0|0,0:0|0:0,0:0:0:0:
377,221,93109,6,0,P|397:177|401:140,1,80,4|0,0:0|0:0,0:0:0:0:
483,97,93491,2,0,P|492:146|486:194,1,80,4|0,0:0|0:0,0:0:0:0:
463,268,93874,2,0,P|429:302|393:318,1,80,4|0,0:0|0:0,0:0:0:0:
310,348,94256,2,0,L|228:348,1,80,4|0,0:0|0:0,0:0:0:0:
134,353,94638,6,0,P|80:352|50:343,1,80,4|0,0:0|0:0,0:0:0:0:
28,252,95020,2,0,P|82:253|112:262,1,80,8|0,0:0|0:0,0:0:0:0:
175,193,95402,1,0,0:0:0:0:
175,193,95593,1,0,0:0:0:0:
130,108,95784,1,8,0:0:0:0:
130,108,95975,1,0,0:0:0:0:
190,32,96167,6,0,P|232:20|277:22,2,80,0|0|8,0:0|0:0|0:0,0:0:0:0:
244,111,96740,2,0,P|289:119|409:109,1,160,0|4,0:0|0:0,0:0:0:0:
480,288,97504,5,4,0:0:0:0:
480,288,97695,2,0,P|437:297|397:294,1,80,4|0,0:0|0:0,0:0:0:0:
326,354,98077,2,0,P|280:357|164:337,1,160,8|0,0:0|0:0,0:0:0:0:
155,242,98651,2,0,P|201:239|317:259,1,160,0|0,0:0|0:0,0:0:0:0:
390,200,99224,2,0,L|379:27,1,160,0|8,0:0|0:0,0:0:0:0:
203,115,99988,1,0,0:0:0:0:
203,115,100179,2,0,L|214:288,1,160,4|4,0:0|0:0,0:0:0:0:
148,346,100753,6,0,P|102:339|69:321,1,80,4|0,0:0|0:0,0:0:0:0:
11,249,101135,2,0,P|4:198|11:161,1,80,8|0,0:0|0:0,0:0:0:0:
54,86,101517,1,0,0:0:0:0:
138,131,101708,1,0,0:0:0:0:
224,90,101899,2,0,L|322:88,1,80,8|0,0:0|0:0,0:0:0:0:
394,56,102281,6,0,P|404:106|394:222,1,160,0|8,0:0|0:0,0:0:0:0:
318,269,102854,2,0,L|233:269,1,80,0|0,0:0|0:0,0:0:0:0:
150,308,103237,2,0,P|139:261|146:150,1,160,0|0,0:0|0:0,0:0:0:0:
219,89,103810,5,4,0:0:0:0:
297,143,104001,1,0,0:0:0:0:
297,143,104192,2,0,L|379:143,1,80,8|0,0:0|0:0,0:0:0:0:
483,235,104574,1,0,0:0:0:0:
483,235,104765,2,0,L|401:235,1,80,0|8,0:0|0:0,0:0:0:0:
333,301,105147,5,0,0:0:0:0:
242,266,105339,2,0,P|239:310|252:358,2,80,0|0|8,0:0|0:0|0:0,0:0:0:0:
166,206,105912,2,0,L|80:206,1,80,0|0,0:0|0:0,0:0:0:0:
62,112,106294,2,0,L|148:112,1,80,0|8,0:0|0:0,0:0:0:0:
209,43,106676,1,0,0:0:0:0:
285,100,106867,6,0,P|321:104|368:97,2,80,4|0|8,0:0|0:0|0:0,0:0:0:0:
238,184,107440,1,0,0:0:0:0:
238,184,107536,2,0,L|228:271,1,80,2|2,0:2|0:2,0:0:0:0:
319,231,107918,1,0,0:0:0:0:
319,231,108014,2,0,L|309:318,1,80,8|0,0:0|0:0,0:0:0:0:
388,365,108396,5,4,0:0:0:0:
476,328,108587,1,0,0:0:0:0:
417,252,108778,1,8,0:0:0:0:
504,212,108969,1,0,0:0:0:0:
504,212,109065,2,0,L|499:129,1,80,2|2,0:2|0:2,0:0:0:0:
409,35,109447,1,0,0:0:0:0:
409,35,109543,2,0,L|404:118,1,80,8|0,0:0|0:0,0:0:0:0:
310,92,109925,6,0,L|223:92,1,80,4|0,0:0|0:0,0:0:0:0:
272,199,110307,2,0,L|185:199,1,80,4|0,0:0|0:0,0:0:0:0:
118,261,110689,2,0,P|102:223|99:178,1,80,4|0,0:0|0:0,0:0:0:0:
139,36,111071,2,0,P|155:74|158:119,1,80,4|0,0:0|0:0,0:0:0:0:
252,63,111453,5,4,0:0:0:0:
337,106,111644,1,4,0:0:0:0:
422,63,111835,1,4,0:0:0:0:
337,106,112026,1,4,0:0:0:0:
401,177,112218,2,0,L|404:260,1,80,4|0,0:0|0:0,0:0:0:0:
308,213,112600,2,0,L|311:296,1,80,0|0,0:0|0:0,0:0:0:0:
246,363,112982,5,4,0:0:0:0:
246,363,113173,1,0,0:0:0:0:
160,319,113364,2,0,L|78:315,1,80,8|0,0:0|0:0,0:0:0:0:
9,250,113746,2,0,P|0:203|34:89,1,160,0|8,0:0|0:0,0:0:0:0:
110,46,114319,6,0,L|298:41,1,160,0|0,0:0|0:0,0:0:0:0:
362,15,114893,1,8,0:0:0:0:
420,90,115084,1,0,0:0:0:0:
364,168,115275,1,0,0:0:0:0:
272,137,115466,1,0,0:0:0:0:
272,137,115657,2,0,L|260:220,1,80,8|0,0:0|0:0,0:0:0:0:
293,306,116039,5,0,0:0:0:0:
293,306,116230,1,0,0:0:0:0:
217,365,116421,2,0,P|165:370|131:365,1,80,8|0,0:0|0:0,0:0:0:0:
18,272,116804,2,0,P|67:262|177:269,1,160,0|8,0:0|0:0,0:0:0:0:
251,209,117377,2,0,L|339:210,1,80,0|0,0:0|0:0,0:0:0:0:
426,208,117759,1,0,0:0:0:0:
426,208,117950,2,0,P|439:161|439:121,1,80,8|0,0:0|0:0,0:0:0:0:
310,28,118332,2,0,P|295:85|310:194,1,160,0|8,0:0|0:0,0:0:0:0:
352,268,118905,1,0,0:0:0:0:
272,323,119097,6,0,L|176:324,1,80,0|0,0:0|0:0,0:0:0:0:
103,360,119479,2,0,P|84:314|82:275,1,80,8|0,0:0|0:0,0:0:0:0:
106,243,119765,1,0,0:0:0:0:
106,243,119861,2,0,L|108:155,2,80,0|0|8,0:0|0:0|0:0,0:0:0:0:
192,200,120434,6,0,P|230:204|277:198,1,80,0|0,0:0|0:0,0:0:0:0:
350,144,120816,1,0,0:0:0:0:
421,207,121007,2,0,L|426:294,1,80,8|0,0:0|0:0,0:0:0:0:
332,263,121389,2,0,L|337:350,1,80,0|0,0:0|0:0,0:0:0:0:
243,369,121772,2,0,P|191:354|169:337,1,80,8|0,0:0|0:0,0:0:0:0:
113,261,122154,5,0,0:0:0:0:
113,261,122345,1,0,0:0:0:0:
177,189,122536,1,8,0:0:0:0:
177,189,122727,1,0,0:0:0:0:
116,114,122918,1,0,0:0:0:0:
116,114,123109,1,8,0:0:0:0:
179,42,123300,1,8,0:0:0:0:
263,87,123491,5,0,0:0:0:0:
263,87,123587,1,0,0:0:0:0:
263,87,123682,2,0,L|345:88,1,80,4|0,0:0|0:0,0:0:0:0:
433,55,124065,2,0,P|443:105|442:152,1,80,8|0,0:0|0:0,0:0:0:0:
403,221,124447,2,0,P|354:230|245:223,1,160,0|8,0:0|0:0,0:0:0:0:
166,167,125020,6,0,P|153:216|160:336,1,160,0|0,0:0|0:0,0:0:0:0:
237,376,125593,1,8,0:0:0:0:
307,311,125784,1,0,0:0:0:0:
264,224,125975,2,0,P|204:213|102:225,1,160,4|0,0:0|0:0,0:0:0:0:
19,51,126740,5,0,0:0:0:0:
19,51,126931,1,0,0:0:0:0:
110,21,127122,1,0,0:0:0:0:
110,21,127313,1,0,0:0:0:0:
160,102,127504,2,0,P|166:157|134:266,1,160,0|4,0:0|0:0,0:0:0:0:
305,353,128268,6,0,L|473:352,1,160,4|8,0:0|0:0,0:0:0:0:
508,164,129033,2,0,L|340:165,1,160,0|8,0:0|0:0,0:0:0:0:
263,210,129606,2,0,P|241:161|241:48,1,160,0|0,0:0|0:0,0:0:0:0:
329,25,130179,2,0,P|351:74|351:187,1,160,8|0,0:0|0:0,0:0:0:0:
439,221,130753,1,0,0:0:0:0:
439,221,130848,1,0,0:0:0:0:
439,221,130944,2,0,P|412:254|373:272,1,80,8|0,0:0|0:0,0:0:0:0:
312,339,131326,6,0,L|216:337,1,80,4|0,0:0|0:0,0:0:0:0:
136,335,131708,2,0,L|49:334,1,80,4|0,0:0|0:0,0:0:0:0:
20,301,131995,1,0,0:0:0:0:
20,301,132090,2,0,P|8:260|11:216,1,80,4|0,0:0|0:0,0:0:0:0:
62,70,132472,2,0,P|74:111|71:155,1,80,4|0,0:0|0:0,0:0:0:0:
160,110,132854,5,4,0:0:0:0:
250,144,133046,1,0,0:0:0:0:
216,233,133237,1,8,0:0:0:0:
307,262,133428,1,0,0:0:0:0:
345,174,133619,1,0,0:0:0:0:
425,121,133810,1,8,0:0:0:0:
425,121,134001,2,0,P|437:168|434:211,1,80,8|0,0:0|0:0,0:0:0:0:
390,283,134383,6,0,L|225:283,1,160,4|8,0:0|0:0,0:0:0:0:
55,361,135147,2,0,P|34:306|40:201,1,160,0|8,0:0|0:0,0:0:0:0:
93,127,135721,6,0,L|262:126,1,160,0|0,0:0|0:0,0:0:0:0:
327,66,136294,2,0,P|343:113|342:154,1,80,8|0,0:0|0:0,0:0:0:0:
292,224,136676,2,0,P|291:267|335:377,1,160,0|8,0:0|0:0,0:0:0:0:
425,348,137249,1,0,0:0:0:0:
473,265,137440,6,0,L|482:170,1,80,4|0,0:0|0:0,0:0:0:0:
384,187,137823,2,0,L|393:92,1,80,4|0,0:0|0:0,0:0:0:0:
363,68,138109,1,0,0:0:0:0:
363,68,138205,2,0,L|275:69,1,80,4|0,0:0|0:0,0:0:0:0:
187,70,138587,2,0,L|100:71,1,80,4|0,0:0|0:0,0:0:0:0:
24,119,138969,5,4,0:0:0:0:
24,119,139160,1,0,0:0:0:0:
109,162,139351,1,8,0:0:0:0:
109,162,139542,1,0,0:0:0:0:
26,211,139733,1,0,0:0:0:0:
110,256,139925,2,0,P|109:297|91:343,2,80,8|8|0,0:0|0:0|0:0,0:0:0:0:
201,283,140498,6,0,P|245:291|364:279,1,160,4|8,0:0|0:0,0:0:0:0:
427,212,141071,1,0,0:0:0:0:
427,212,141262,2,0,L|413:48,1,160,0|8,0:0|0:0,0:0:0:0:
325,91,141835,1,0,0:0:0:0:
248,33,142026,6,0,P|204:25|85:37,1,160,0|8,0:0|0:0,0:0:0:0:
21,103,142600,1,0,0:0:0:0:
103,152,142791,2,0,P|103:198|91:237,1,80,0|0,0:0|0:0,0:0:0:0:
189,277,143173,2,0,P|189:231|201:192,1,80,8|0,0:0|0:0,0:0:0:0:
282,244,143555,6,0,L|362:243,1,80,4|0,0:0|0:0,0:0:0:0:
309,335,143937,2,0,L|389:334,1,80,4|0,0:0|0:0,0:0:0:0:
483,350,144319,1,4,0:0:0:0:
483,350,144511,2,0,P|494:309|492:269,1,80,0|4,0:0|0:0,0:0:0:0:
434,195,144893,1,0,0:0:0:0:
491,118,145084,6,0,L|482:37,1,80,4|0,0:0|0:0,0:0:0:0:
396,94,145466,2,0,L|387:13,1,80,8|0,0:0|0:0,0:0:0:0:
323,159,145848,2,0,L|235:159,1,80,0|8,0:0|0:0,0:0:0:0:
292,250,146230,2,0,L|204:250,1,80,8|0,0:0|0:0,0:0:0:0:
146,319,146612,6,0,P|123:273|121:233,1,80,4|0,0:0|0:0,0:0:0:0:
87,154,146995,2,0,P|88:107|104:63,1,80,4|0,0:0|0:0,0:0:0:0:
185,37,147377,2,0,P|201:85|197:197,1,160,4|0,0:0|0:0,0:0:0:0:
287,158,147950,2,0,L|451:157,1,160,4|4,0:0|0:0,0:0:0:0:
500,236,148523,5,4,0:0:0:0:
436,307,148714,1,4,0:0:0:0:
344,278,148905,2,0,L|256:278,1,80,0|0,0:0|0:0,0:0:0:0:
198,348,149288,2,0,L|106:349,1,80,8|0,0:0|0:0,0:0:0:0:
19,184,149861,5,8,0:0:0:0:
45,276,150052,1,0,0:0:0:0:
124,83,150434,1,8,0:0:0:0:
150,175,150625,1,0,0:0:0:0:
252,76,151007,6,0,L|413:69,1,160,4|0,0:0|0:0,0:0:0:0:
488,127,151581,1,0,0:0:0:0:
375,175,151772,2,0,P|383:229|353:344,1,160,0|0,0:0|0:0,0:0:0:0:
269,299,152345,1,8,0:0:0:0:
193,358,152536,5,0,0:0:0:0:
193,358,152632,1,0,0:0:0:0:
193,358,152727,2,0,L|106:354,1,80,4|0,0:0|0:0,0:0:0:0:
22,262,153109,2,0,L|109:258,1,80,4|0,0:0|0:0,0:0:0:0:
199,168,153491,2,0,L|112:164,1,80,4|0,0:0|0:0,0:0:0:0:
28,72,153873,2,0,L|115:68,1,80,4|0,0:0|0:0,0:0:0:0:
190,18,154256,5,4,0:0:0:0:
190,18,154447,1,4,0:0:0:0:
274,63,154638,1,4,0:0:0:0:
274,63,154829,1,4,0:0:0:0:
364,29,155020,2,0,L|410:25,7,40,4|0|0|0|0|0|0|0,0:0|0:0|0:0|0:0|0:0|0:0|0:0|0:0,0:0:0:0:
450,39,155784,6,0,P|464:81|462:159,1,120,4|0,0:0|0:0,0:0:0:0:
446,201,156167,2,0,L|451:294,1,80,0|0,0:0|0:0,0:0:0:0:
404,364,156549,2,0,P|351:373|274:366,1,120,4|0,0:0|0:0,0:0:0:0:
244,342,156931,2,0,L|160:340,1,80,0|0,0:0|0:0,0:0:0:0:
81,290,157313,5,4,0:0:0:0:
114,200,157504,1,0,0:0:0:0:
205,228,157695,1,0,0:0:0:0:
248,142,157886,1,0,0:0:0:0:
336,180,158077,2,0,L|421:177,1,80,0|0,0:0|0:0,0:0:0:0:
458,200,158364,2,0,P|471:153|465:71,1,120,0|0,0:0|0:0,0:0:0:0:
249,26,159033,5,0,0:0:0:0:
337,64,159224,1,4,0:0:0:0:
210,144,159606,1,0,0:0:0:0:
298,182,159797,1,4,0:0:0:0:
120,203,160179,5,0,0:0:0:0:
32,241,160370,1,4,0:0:0:0:
159,321,160752,1,0,0:0:0:0:
71,359,160943,1,4,0:0:0:0:
252,280,161326,1,0,0:0:0:0:
252,280,161517,2,0,L|339:277,1,80,8|0,0:0|0:0,0:0:0:0:
413,328,161899,6,0,P|443:296|468:221,1,120,4|0,0:0|0:0,0:0:0:0:
444,182,162281,2,0,L|443:96,1,80,0|0,0:0|0:0,0:0:0:0:
335,20,162663,2,0,P|323:69|330:147,1,120,4|0,0:0|0:0,0:0:0:0:
293,172,163046,2,0,L|209:174,1,80,0|0,0:0|0:0,0:0:0:0:
123,139,163428,5,4,0:0:0:0:
123,139,163619,1,0,0:0:0:0:
61,212,163810,1,0,0:0:0:0:
61,212,164001,1,0,0:0:0:0:
106,296,164192,2,0,P|147:300|190:294,1,80,4|0,0:0|0:0,0:0:0:0:
229,315,164479,2,0,P|270:309|351:315,1,120,0|0,0:0|0:0,0:0:0:0:
483,178,165147,5,0,0:0:0:0:
388,198,165339,1,4,0:0:0:0:
411,52,165721,1,0,0:0:0:0:
316,72,165913,1,4,0:0:0:0:
99,251,166294,5,0,0:0:0:0:
194,271,166486,1,4,0:0:0:0:
171,125,166868,1,0,0:0:0:0:
266,145,167058,1,4,0:0:0:0:
394,348,167440,1,0,0:0:0:0:
394,348,167632,2,0,L|384:263,1,80,8|0,0:0|0:0,0:0:0:0:
448,196,168014,6,0,P|452:151|446:109,1,80,4|0,0:0|0:0,0:0:0:0:
418,78,168300,1,0,0:0:0:0:
418,78,168396,2,0,L|333:77,1,80,0|0,0:0|0:0,0:0:0:0:
255,28,168778,2,0,P|206:29|168:41,1,80,4|0,0:0|0:0,0:0:0:0:
137,66,169065,1,0,0:0:0:0:
137,66,169160,2,0,L|51:66,1,80
9,149,169542,5,4,0:0:0:0:
80,212,169733,1,0,0:0:0:0:
9,149,169925,1,0,0:0:0:0:
80,212,170116,1,0,0:0:0:0:
43,300,170307,2,0,P|84:303|122:298,1,80,0|0,0:0|0:0,0:0:0:0:
167,312,170593,2,0,P|216:304|296:313,1,120,0|0,0:0|0:0,0:0:0:0:
364,365,171071,6,0,L|365:201,1,160,4|0,0:0|0:0,0:0:0:0:
489,321,171835,2,0,L|490:157,1,160,4|0,0:0|0:0,0:0:0:0:
391,39,172600,5,4,0:0:0:0:
391,39,172695,2,0,P|342:43|302:39,1,80,0|0,0:0|0:0,0:0:0:0:
268,63,172982,2,0,L|182:65,1,80,0|0,0:0|0:0,0:0:0:0:
95,40,173364,1,4,0:0:0:0:
95,40,173460,2,0,P|84:89|86:127,1,80,0|0,0:0|0:0,0:0:0:0:
107,160,173746,2,0,P|110:209|99:251,1,80,0|0,0:0|0:0,0:0:0:0:
43,314,174128,5,0,0:0:0:0:
43,314,174319,1,0,0:0:0:0:
121,370,174511,1,0,0:0:0:0:
121,370,174702,1,0,0:0:0:0:
205,324,174893,2,0,L|292:323,1,80,0|0,0:0|0:0,0:0:0:0:
368,369,175275,2,0,L|453:367,1,80,0|0,0:0|0:0,0:0:0:0:
505,290,175657,6,0,L|507:232,5,53.3333333333333,0|0|0|0|0|0,0:0|0:0|0:0|0:0|0:0|0:0,0:0:0:0:
426,198,176421,2,0,L|428:140,5,53.3333333333333,0|0|0|0|0|0,0:0|0:0|0:0|0:0|0:0|0:0,0:0:0:0:
463,53,177186,6,0,L|379:51,1,80,4|0,0:0|0:0,0:0:0:0:
288,33,177568,2,0,P|232:44|120:30,1,160,8|0,0:0|0:0,0:0:0:0:
57,95,178141,1,0,0:0:0:0:
57,95,178332,1,8,0:0:0:0:
132,154,178523,6,0,P|137:211|116:315,1,160,0|0,0:0|0:0,0:0:0:0:
195,367,179097,2,0,L|286:367,1,80,8|0,0:0|0:0,0:0:0:0:
370,367,179479,2,0,P|382:314|369:206,1,160,0|8,0:0|0:0,0:0:0:0:
300,144,180052,5,0,0:0:0:0:
300,144,180147,1,0,0:0:0:0:
300,144,180243,2,0,L|299:61,1,80,0|0,0:0|0:0,0:0:0:0:
381,15,180625,1,8,0:0:0:0:
464,61,180816,2,0,P|475:107|463:224,1,160,0|0,0:0|0:0,0:0:0:0:
398,287,181389,2,0,L|314:288,1,80,8|0,0:0|0:0,0:0:0:0:
242,347,181772,6,0,P|187:358|83:346,1,160,0|8,0:0|0:0,0:0:0:0:
5,171,182536,2,0,P|60:160|127:166,2,120,0|8|8,0:0|0:0|0:0,0:0:0:0:
67,244,183300,6,0,L|85:69,1,160,0|0,0:0|0:0,0:0:0:0:
153,19,183874,2,0,P|203:29|324:21,1,160,0|0,0:0|0:0,0:0:0:0:
393,73,184447,1,8,0:0:0:0:
393,73,184638,6,0,L|376:244,1,160,0|0,0:0|0:0,0:0:0:0:
428,313,185211,1,8,0:0:0:0:
350,368,185402,1,0,0:0:0:0:
350,368,185498,1,0,0:0:0:0:
350,368,185593,2,0,P|296:369|262:360,1,80,0|0,0:0|0:0,0:0:0:0:
186,317,185975,2,0,L|105:320,1,80,8|0,0:0|0:0,0:0:0:0:
22,271,186358,6,0,P|9:212|19:111,1,160,0|8,0:0|0:0,0:0:0:0:
86,45,186931,1,0,0:0:0:0:
171,87,187122,2,0,L|262:86,1,80,0|0,0:0|0:0,0:0:0:0:
208,171,187504,2,0,L|299:170,1,80,8|0,0:0|0:0,0:0:0:0:
368,117,187886,5,0,0:0:0:0:
368,117,188077,1,0,0:0:0:0:
452,163,188268,2,0,P|465:217|451:327,1,160,8|0,0:0|0:0,0:0:0:0:
371,369,188842,1,0,0:0:0:0:
371,369,188937,1,0,0:0:0:0:
371,369,189033,2,0,L|286:369|285:369,1,80,8|0,0:0|0:0,0:0:0:0:
203,330,189415,6,0,P|157:336|42:313,1,160,4|8,0:0|0:0,0:0:0:0:
57,219,189988,2,0,P|103:213|218:236,1,160,4|0,0:0|0:0,0:0:0:0:
291,289,190561,2,0,L|300:124,1,160,4|0,0:0|0:0,0:0:0:0:
390,97,191135,2,0,L|381:262,1,160,0|0,0:0|0:0,0:0:0:0:
441,331,191708,5,4,0:0:0:0:
441,331,191899,1,0,0:0:0:0:
500,255,192090,1,4,0:0:0:0:
500,255,192281,1,0,0:0:0:0:
440,179,192472,2,0,L|354:184,1,80,4|4,0:0|0:0,0:0:0:0:
264,192,192854,2,0,L|178:197,1,80,4|4,0:0|0:0,0:0:0:0:
87,202,193237,2,0,L|52:177,7,40,4|0|0|0|0|0|0|0,0:0|0:0|0:0|0:0|0:0|0:0|0:0|0:0,0:0:0:0:
19,145,194001,6,0,P|23:94|37:56,1,80,4|0,0:0|0:0,0:0:0:0:
124,90,194383,2,0,L|212:86,1,80,4|0,0:0|0:0,0:0:0:0:
177,178,194765,2,0,L|265:174,1,80,4|0,0:0|0:0,0:0:0:0:
231,267,195147,2,0,L|319:263,1,80,4|0,0:0|0:0,0:0:0:0:
387,321,195530,5,4,0:0:0:0:
387,321,195721,2,0,P|402:282|404:239,1,80,4|0,0:0|0:0,0:0:0:0:
494,278,196103,2,0,P|506:217|496:109,1,160,4|0,0:0|0:0,0:0:0:0:
426,56,196676,2,0,L|339:57,1,80,8|0,0:0|0:0,0:0:0:0:
260,13,197058,6,0,P|252:61|259:103,1,80,4|0,0:0|0:0,0:0:0:0:
256,187,197440,2,0,P|262:234|254:272,1,80,4|0,0:0|0:0,0:0:0:0:
205,348,197823,2,0,L|125:348,1,80,4|0,0:0|0:0,0:0:0:0:
29,348,198205,2,0,P|19:303|22:260,1,80,4|0,0:0|0:0,0:0:0:0:
62,183,198587,5,4,0:0:0:0:
62,183,198778,2,0,L|55:101,1,80,4|0,0:0|0:0,0:0:0:0:
108,23,199160,2,0,P|157:31|274:21,1,160,4|0,0:0|0:0,0:0:0:0:
351,67,199733,2,0,L|440:66,1,80,8|0,0:0|0:0,0:0:0:0:
505,127,200116,6,0,P|505:173|494:213,1,80,4|0,0:0|0:0,0:0:0:0:
421,265,200498,2,0,L|338:265,1,80,4|0,0:0|0:0,0:0:0:0:
263,321,200880,2,0,P|220:326|179:321,1,80,4|0,0:0|0:0,0:0:0:0:
100,369,201262,2,0,P|90:327|95:284,1,80,4|0,0:0|0:0,0:0:0:0:
149,213,201644,5,4,0:0:0:0:
149,213,201835,2,0,L|142:132,1,80,4|0,0:0|0:0,0:0:0:0:
206,61,202218,2,0,P|256:68|372:57,1,160,4|0,0:0|0:0,0:0:0:0:
449,102,202791,1,8,0:0:0:0:
373,161,202982,1,0,0:0:0:0:
459,202,203173,6,0,L|450:284,1,80,4|0,0:0|0:0,0:0:0:0:
354,282,203555,2,0,L|345:364,1,80,4|0,0:0|0:0,0:0:0:0:
292,212,203937,2,0,L|212:212,1,80,4|0,0:0|0:0,0:0:0:0:
249,123,204319,2,0,L|169:123,1,80,4|0,0:0|0:0,0:0:0:0:
86,173,204702,2,0,P|74:229|91:336,2,160,4|4|4,0:0|0:0|0:0,0:0:0:0:
222,38,205848,1,0,0:0:0:0:
366,164,206230,5,0,0:0:0:0:
452,122,206421,1,0,0:0:0:0:
507,199,206612,2,0,P|467:211|417:210,1,80,8|0,0:0|0:0,0:0:0:0:
352,270,206995,2,0,L|190:270,1,160,0|0,0:0|0:0,0:0:0:0:
106,314,207568,6,0,P|75:273|64:237,1,80,0|4,0:0|0:0,0:0:0:0:
132,66,208141,1,0,0:0:0:0:
111,159,208332,1,0,0:0:0:0:
197,116,208523,2,0,P|248:107|354:118,1,160,0|0,0:0|0:0,0:0:0:0:
493,305,209479,5,4,0:0:0:0:
411,355,209670,2,0,L|326:355,1,80,4|0,0:0|0:0,0:0:0:0:
235,356,210052,2,0,P|222:313|231:195,1,160,4|0,0:0|0:0,0:0:0:0:
411,139,210816,6,0,L|428:56,1,80,0|0,0:0|0:0,0:0:0:0:
336,27,211198,2,0,L|319:110,1,80,0|0,0:0|0:0,0:0:0:0:
335,200,211581,2,0,P|287:211|166:200,1,160,0|8,0:0|0:0,0:0:0:0:
52,131,212345,5,4,0:2:0:0:
147,23,212727,1,0,0:0:0:0:
52,131,213109,2,0,L|46:260,1,120.000004577637,0|0,0:0|0:0,0:0:0:0:
85,325,213682,6,0,P|127:335|212:335,1,120.000004577637,2|0,0:2|0:0,0:0:0:0:
281,303,214256,2,0,L|417:298,1,120.000004577637,2|0,0:2|0:0,0:0:0:0:
485,120,215402,5,2,0:2:0:0:
341,33,215784,1,0,0:0:0:0:
401,143,216071,1,0,0:0:0:0:
401,143,216167,2,0,L|391:268,1,120.000004577637,2|0,0:2|0:0,0:0:0:0:
223,256,216931,5,0,0:0:0:0:
238,338,217122,1,0,0:0:0:0:
156,356,217313,1,0,0:0:0:0:
139,273,217504,1,0,0:0:0:0:
67,316,217695,2,0,P|61:253|90:206,1,120.000004577637,0|0,0:0|0:0,0:0:0:0:
168,85,218460,6,0,L|297:81,1,120.000004577637,4|8,0:0|0:0,0:0:0:0:
221,214,219224,2,0,L|350:210,1,120.000004577637,0|8,0:0|0:0,0:0:0:0:
421,187,219797,2,0,P|429:230|418:318,1,120.000004577637,0|0,0:0|0:0,0:0:0:0:
342,333,220370,2,0,P|334:290|345:202,1,120.000004577637,8|0,0:0|0:0,0:0:0:0:
480,120,221135,1,8,0:0:0:0:
437,47,221326,1,0,0:0:0:0:
348,21,221517,5,4,0:0:0:0:
192,185,222090,5,4,0:0:0:0:
281,150,222281,1,4,0:0:0:0:
100,358,223046,5,0,0:0:0:0:
16,310,223237,1,0,0:0:0:0:
37,216,223428,1,8,0:0:0:0:
16,310,223619,1,0,0:0:0:0:
100,358,223810,1,0,0:0:0:0:
168,291,224001,2,0,P|214:298|263:293,2,80,0|8|0,0:0|0:0|0:0,0:0:0:0:
131,202,224574,6,0,P|142:151|129:38,1,160,4|8,0:0|0:0,0:0:0:0:
52,99,225147,1,0,0:0:0:0:
52,99,225339,2,0,P|108:106|215:97,1,160,0|8,0:0|0:0,0:0:0:0:
292,147,225912,6,0,P|371:138|450:145,1,160,0|0,0:0|0:0,0:0:0:0:
477,238,226485,2,0,P|397:246|318:239,1,160,8|0,0:0|0:0,0:0:0:0:
251,307,227058,1,0,0:0:0:0:
251,307,227249,2,0,L|163:307,1,80,8|0,0:0|0:0,0:0:0:0:
91,361,227632,6,0,P|66:315|64:283,1,80,4|0,0:0|0:0,0:0:0:0:
31,197,228014,2,0,P|39:152|61:112,1,80,4|0,0:0|0:0,0:0:0:0:
95,97,228300,1,0,0:0:0:0:
95,97,228396,2,0,L|179:87,1,80,4|0,0:0|0:0,0:0:0:0:
268,70,228778,2,0,L|352:60,1,80,4|0,0:0|0:0,0:0:0:0:
440,38,229160,5,4,0:0:0:0:
440,38,229351,1,0,0:0:0:0:
490,119,229542,1,8,0:0:0:0:
490,119,229733,1,0,0:0:0:0:
423,189,229925,1,0,0:0:0:0:
332,158,230116,2,0,P|329:198|341:238,2,80,8|8|0,0:0|0:0|0:0,0:0:0:0:
240,185,230689,6,0,L|154:185,1,80,4|0,0:0|0:0,0:0:0:0:
67,158,231071,2,0,P|55:213|71:326,1,160,8|0,0:0|0:0,0:0:0:0:
144,371,231644,2,0,P|157:331|157:289,1,80,0|8,0:0|0:0,0:0:0:0:
243,335,232026,6,0,P|299:343|403:331,1,160,0|0,0:0|0:0,0:0:0:0:
424,237,232600,2,0,P|368:229|264:241,1,160,8|0,0:0|0:0,0:0:0:0:
195,175,233173,1,0,0:0:0:0:
195,175,233268,1,0,0:0:0:0:
195,175,233364,2,0,L|111:176,1,80,8|0,0:0|0:0,0:0:0:0:
24,142,233746,6,0,P|18:98|25:53,1,80,4|0,0:0|0:0,0:0:0:0:
43,238,234128,2,0,P|49:282|42:327,1,80,4|0,0:0|0:0,0:0:0:0:
78,351,234415,1,0,0:0:0:0:
78,351,234511,2,0,L|165:349,1,80,4|0,0:0|0:0,0:0:0:0:
253,344,234893,2,0,L|340:342,1,80,4|0,0:0|0:0,0:0:0:0:
426,363,235275,5,4,0:0:0:0:
426,363,235466,1,4,0:0:0:0:
487,289,235657,1,4,0:0:0:0:
487,289,235848,1,4,0:0:0:0:
440,204,236039,1,0,0:0:0:0:
346,225,236230,2,0,P|295:228|256:220,2,80,0|8|0,0:0|0:0|0:0,0:0:0:0:
310,135,236804,6,0,P|262:128|142:143,1,160,0|8,0:0|0:0,0:0:0:0:
63,101,237377,1,0,0:0:0:0:
63,101,237568,2,0,P|49:158|54:262,1,160,0|8,0:0|0:0,0:0:0:0:
96,344,238141,1,0,0:0:0:0:
180,299,238332,6,0,L|265:297,1,80,0|0,0:0|0:0,0:0:0:0:
328,364,238714,2,0,L|413:362,1,80,8|0,0:0|0:0,0:0:0:0:
485,305,239097,1,0,0:0:0:0:
417,236,239288,1,0,0:0:0:0:
479,163,239479,2,0,P|483:119|472:81,1,80,8|0,0:0|0:0,0:0:0:0:
402,20,239861,6,0,L|309:20,1,80,4|0,0:0|0:0,0:0:0:0:
333,115,240243,2,0,L|240:115,1,80,4|0,0:0|0:0,0:0:0:0:
167,71,240625,1,4,0:0:0:0:
167,71,240816,2,0,P|157:115|162:159,1,80,0|4,0:0|0:0,0:0:0:0:
198,237,241198,5,0,0:0:0:0:
198,237,241294,1,0,0:0:0:0:
198,237,241389,2,0,L|197:325,1,80,4|0,0:0|0:0,0:0:0:0:
306,353,241772,2,0,L|307:265,1,80,8|0,0:0|0:0,0:0:0:0:
383,215,242154,1,8,0:0:0:0:
383,215,242345,1,0,0:0:0:0:
468,259,242536,2,0,P|476:211|472:173,1,80,8|0,0:0|0:0,0:0:0:0:
425,97,242918,6,0,L|339:96,1,80,4|0,0:0|0:0,0:0:0:0:
261,49,243300,2,0,L|175:48,1,80,4|0,0:0|0:0,0:0:0:0:
85,46,243682,2,0,P|73:91|83:213,1,160,4|0,0:0|0:0,0:0:0:0:
138,279,244256,1,4,0:0:0:0:
303,181,244638,5,4,0:0:0:0:
303,181,244829,1,4,0:0:0:0:
303,181,245020,1,4,0:0:0:0:
266,269,245211,2,0,L|262:358,1,80,0|0,0:0|0:0,0:0:0:0:
397,301,245593,2,0,L|401:212,1,80,8|0,0:0|0:0,0:0:0:0:
406,17,246167,5,4,0:0:0:0:
494,54,246358,1,0,0:0:0:0:
319,105,246740,1,4,0:0:0:0:
407,142,246931,1,0,0:0:0:0:
234,198,247313,6,0,P|186:204|74:183,1,160,4|0,0:0|0:0,0:0:0:0:
9,115,247886,1,8,0:0:0:0:
94,71,248077,2,0,L|104:235,1,160,0|0,0:0|0:0,0:0:0:0:
113,326,248651,1,8,0:0:0:0:
199,368,248842,5,0,0:0:0:0:
199,368,248937,1,0,0:0:0:0:
199,368,249033,2,0,P|206:327|200:285,1,80,4|0,0:0|0:0,0:0:0:0:
278,232,249415,2,0,P|271:179|257:149,1,80,4|0,0:0|0:0,0:0:0:0:
186,93,249797,2,0,L|356:93,1,160,4|4,0:0|0:0,0:0:0:0:
434,56,250370,2,0,P|443:105|433:220,1,160,4|4,0:0|0:0,0:0:0:0:
484,296,250944,5,4,0:0:0:0:
484,296,251135,1,4,0:0:0:0:
410,358,251326,2,0,L|329:358,1,80,0|0,0:0|0:0,0:0:0:0:
242,319,251708,2,0,L|154:319,1,80,8|0,0:0|0:0,0:0:0:0:
57,130,252281,5,4,0:0:0:0:
18,217,252472,1,0,0:0:0:0:
183,136,252854,1,4,0:0:0:0:
144,223,253045,1,0,0:0:0:0:
329,183,253428,6,0,P|338:136|325:23,1,160,4|0,0:0|0:0,0:0:0:0:
246,79,254001,1,8,0:0:0:0:
246,79,254192,2,0,L|431:80,1,160,0|0,0:0|0:0,0:0:0:0:
487,131,254765,1,8,0:0:0:0:
425,204,254956,5,0,0:0:0:0:
425,204,255052,1,0,0:0:0:0:
425,204,255147,2,0,L|419:302,1,80,4|0,0:0|0:0,0:0:0:0:
364,362,255530,1,8,0:0:0:0:
272,333,255721,1,0,0:0:0:0:
272,333,255816,2,0,P|219:338|184:331,1,80,2|2,0:2|0:2,0:0:0:0:
172,239,256198,1,0,0:0:0:0:
172,239,256293,2,0,P|225:234|260:241,1,80,8|0,0:0|0:0,0:0:0:0:
326,178,256676,5,4,0:0:0:0:
289,89,256867,1,0,0:0:0:0:
326,178,257058,1,8,0:0:0:0:
419,154,257249,1,0,0:0:0:0:
419,154,257345,2,0,P|416:208|404:240,1,80,2|2,0:2|0:2,0:0:0:0:
339,300,257727,1,0,0:0:0:0:
339,300,257823,2,0,L|254:299,1,80,8|0,0:0|0:0,0:0:0:0:
184,359,258205,5,4,0:0:0:0:
108,299,258396,1,0,0:0:0:0:
34,360,258587,1,8,0:0:0:0:
7,267,258778,2,0,L|38:238,1,40,0|2,0:0|0:2,0:0:0:0:
87,158,259065,1,2,0:2:0:0:
175,195,259256,2,0,L|222:187,1,40,0|8,0:0|0:0,0:0:0:0:
306,161,259542,1,0,0:0:0:0:
372,229,259733,6,0,L|363:272,4,40,4|8|4|8|4,0:0|0:0|0:0|0:0|0:0,0:0:0:0:
465,203,260307,1,0,0:0:0:0:
465,203,260402,2,0,P|465:160|451:124,2,80,2|2|0,0:2|0:2|0:0,0:0:0:0:
477,249,260880,2,0,L|468:306,1,40,8|0,0:0|0:0,0:0:0:0:
442,327,261071,2,0,L|405:368,1,40,0|0,0:0|0:0,0:0:0:0:
367,365,261262,6,0,P|316:369|280:357,2,80,4|0|8,0:0|0:0|0:0,0:0:0:0:
274,275,261835,1,0,0:0:0:0:
274,275,261931,2,0,L|179:275,1,80,2|2,0:2|0:2,0:0:0:0:
106,313,262313,1,0,0:0:0:0:
106,313,262409,2,0,P|47:314|16:306,1,80,8|0,0:0|0:0,0:0:0:0:
71,224,262791,6,0,L|51:142,2,80,4|0|8,0:0|0:0|0:0,0:0:0:0:
152,174,263364,1,0,0:0:0:0:
152,174,263460,2,0,L|240:170,1,80,2|2,0:2|0:2,0:0:0:0:
314,122,263842,2,0,L|363:132,1,40,0|8,0:0|0:0,0:0:0:0:
445,102,264128,1,0,0:0:0:0:
495,183,264319,6,0,L|478:274,1,80,4|0,0:0|0:0,0:0:0:0:
455,354,264702,1,8,0:0:0:0:
366,316,264893,1,0,0:0:0:0:
366,316,264988,2,0,L|262:309,1,80,2|2,0:2|0:2,0:0:0:0:
202,358,265370,1,0,0:0:0:0:
202,358,265466,2,0,L|151:359,1,40,8|0,0:0|0:0,0:0:0:0:
118,338,265657,2,0,L|70:328,1,40,0|0,0:0|0:0,0:0:0:0:
30,331,265848,6,0,P|22:276|28:241,1,80,4|0,0:0|0:0,0:0:0:0:
83,175,266230,2,0,L|168:174,1,80,4|0,0:0|0:0,0:0:0:0:
257,192,266612,2,0,P|270:146|271:110,1,80,4|0,0:0|0:0,0:0:0:0:
349,57,266995,2,0,L|433:57,1,80,4|0,0:0|0:0,0:0:0:0:
489,131,267377,6,0,P|496:193|468:296,1,160,4|8,0:0|0:0,0:0:0:0:
394,342,267950,2,0,L|226:344,1,160,0|0,0:0|0:0,0:0:0:0:
186,353,268428,1,0,0:0:0:0:
186,353,268523,2,0,L|136:332,1,40,8|0,0:0|0:0,0:0:0:0:
101,343,268714,2,0,L|78:303,1,40,0|0,0:0|0:0,0:0:0:0:
35,291,268905,6,0,P|22:237|40:128,1,160,4|8,0:0|0:0,0:0:0:0:
101,62,269479,1,0,0:0:0:0:
191,93,269670,2,0,B|292:88|291:88,1,80,0|0,0:0|0:0,0:0:0:0:
363,62,270052,2,0,P|372:112|368:155,1,80,8|0,0:0|0:0,0:0:0:0:
332,229,270434,6,0,P|383:241|496:235,1,160,4|8,0:0|0:0,0:0:0:0:
468,142,271007,1,0,0:0:0:0:
468,142,271103,1,0,0:0:0:0:
468,142,271198,2,0,L|454:303,1,160,4|8,0:0|0:0,0:0:0:0:
273,366,271963,5,0,0:0:0:0:
186,324,272154,1,8,0:0:0:0:
273,285,272345,1,8,0:0:0:0:
186,242,272536,1,8,0:0:0:0:
273,203,272727,2,0,L|315:181,3,40,0|0|0|0,0:0|0:0|0:0|0:0,0:0:0:0:
356,190,273109,2,0,L|398:168,3,40,8|0|0|0,0:0|0:0|0:0|0:0,0:0:0:0:
433,148,273491,6,0,P|429:99|413:68,2,80,4|0|0,0:0|0:0|0:0,0:0:0:0:
499,217,274065,2,0,L|491:258,1,40,0|2,0:0|0:2,0:0:0:0:
469,349,274351,1,2,0:2:0:0:
379,314,274542,1,0,0:0:0:0:
379,314,274638,2,0,L|292:315,1,80,4|4,0:0|0:0,0:0:0:0:
