osu file format v14

[General]
AudioFilename: BiBi - Love Novels.mp3
AudioLeadIn: 0
PreviewTime: 53579
Countdown: 0
SampleSet: Soft
StackLeniency: 0.7
Mode: 0
LetterboxInBreaks: 0
WidescreenStoryboard: 0

[Editor]
DistanceSpacing: 0.9
BeatDivisor: 4
GridSize: 4
TimelineZoom: 1

[Metadata]
Title:Love Novels
TitleUnicode:ラブノベルス
Artist:BiBi
ArtistUnicode:BiBi
Creator:Inyuschan
Version:Hard
Source:ラブライブ! School idol project
Tags:Love Live Nishikino Maki 西木野 真姫 Pile Ayase Eli 絢瀬 絵里 Yoshino Nanjō Yazawa Nico 矢澤 にこ Sora Tokui
BeatmapID:640071
BeatmapSetID:283077

[Difficulty]
HPDrainRate:5.5
CircleSize:4
OverallDifficulty:6
ApproachRate:7
SliderMultiplier:1.6
SliderTickRate:2

[Events]
//Background and Video events
0,0,"maxresdefault.jpg",0,0
//Break Periods
2,18557,21013
//Storyboard Layer 0 (Background)
//Storyboard Layer 1 (Fail)
//Storyboard Layer 2 (Pass)
//Storyboard Layer 3 (Foreground)
//Storyboard Sound Samples

[TimingPoints]
580,444.444444444444,4,2,1,60,1,0
4135,-100,4,2,1,50,0,0
10802,-100,4,2,1,60,0,0
11246,-100,4,2,1,70,0,0
17468,-100,4,2,1,60,0,0
18357,-100,4,2,1,50,0,0
21913,-100,4,2,1,60,0,0
25468,-100,4,2,2,60,0,0
39691,-100,4,2,1,60,0,0
50357,-100,4,2,1,70,0,0
53913,-100,4,2,1,80,0,1
66135,-100,4,2,1,80,0,0
66579,-100,4,2,1,60,0,0
67246,-100,4,2,1,70,0,0
68135,-100,4,2,1,80,0,1
80357,-100,4,2,1,80,0,0
80802,-100,4,2,1,60,0,0
81872,444.444444444444,4,2,1,60,1,0
82335,444.444444444444,4,2,1,60,1,0
92334,-100,4,2,2,60,0,0
92446,-100,4,2,1,60,0,0

[Colours]
Combo1 : 156,78,78
Combo2 : 223,172,193
Combo3 : 122,204,113
Combo4 : 247,234,164

[HitObjects]
456,144,4135,6,0,P|416:168|332:92,1,160,4|0,0:0|0:0,0:0:0:0:
256,84,4802,1,0,0:0:0:0:
179,111,5024,2,0,P|128:167|56:144,1,160,2|0,0:0|0:0,0:0:0:0:
108,80,5691,6,0,L|140:256,1,160,2|0,0:0|0:0,0:0:0:0:
156,316,6357,2,0,P|192:336|240:336,1,80,2|0,0:0|0:0,0:0:0:0:
288,280,6802,2,0,P|252:260|204:260,1,80,2|0,0:0|0:0,0:0:0:0:
308,360,7246,2,0,P|344:344|368:300,1,80,2|0,0:0|0:0,0:0:0:0:
360,232,7691,6,0,L|268:64,1,160,4|2,0:0|0:0,0:0:0:0:
140,164,8357,1,0,0:0:0:0:
140,164,8579,2,0,L|216:304,1,160,2|0,0:0|0:0,0:0:0:0:
276,356,9246,6,0,P|332:356|424:296,1,160,2|0,0:0|0:0,0:0:0:0:
440,224,9913,2,0,L|384:152,1,80,2|0,0:0|0:0,0:0:0:0:
336,104,10357,1,2,0:0:0:0:
192,32,10802,1,8,0:0:0:0:
44,96,11246,6,0,P|8:168|64:236,1,160,4|8,0:0|0:0,0:0:0:0:
96,292,11913,1,0,0:0:0:0:
96,292,12135,2,0,P|132:220|76:152,1,160,2|8,0:0|0:0,0:0:0:0:
140,96,12802,6,0,P|216:96|296:180,1,160,2|0,0:0|0:0,0:0:0:0:
284,224,13468,2,0,L|232:288,1,80,8|0,0:0|0:0,0:0:0:0:
168,332,13913,2,0,B|128:332|128:332|88:304,1,80,2|0,0:0|0:0,0:0:0:0:
88,228,14357,2,0,B|128:228|128:228|160:250,1,80,8|0,0:0|0:0,0:0:0:0:
24,272,14802,6,0,L|88:108,1,160,4|8,0:0|0:0,0:0:0:0:
152,84,15468,1,0,0:0:0:0:
152,84,15691,2,0,P|232:100|312:52,1,160,4|8,0:0|0:0,0:0:0:0:
244,8,16357,6,0,L|404:80,1,160,2|0,0:0|0:0,0:0:0:0:
444,132,17024,2,0,P|452:176|440:216,1,80,8|8,0:0|0:0,0:0:0:0:
372,248,17468,2,0,P|364:204|376:164,1,80,2|0,0:0|0:0,0:0:0:0:
440,288,17913,2,0,P|448:326|439:365,1,80,2|0,0:0|0:0,0:0:0:0:
308,312,18357,5,4,0:0:0:0:
104,248,21913,6,0,P|80:196|176:180,1,160,4|8,0:0|0:0,0:0:0:0:
408,248,22802,2,0,P|432:196|336:180,1,160,4|8,0:0|0:0,0:0:0:0:
192,320,23691,6,0,B|224:320|256:276|256:276|288:320|320:320,2,160,4|8|4,0:0|0:0|0:0,0:0:0:0:
120,284,24802,2,0,P|104:304|80:312,2,40,0|8|8,0:0|0:0|0:0,0:0:0:0:
56,232,25246,1,0,0:0:0:0:
56,152,25468,5,4,0:0:0:0:
120,100,25691,2,0,P|104:80|80:72,2,40,0|0|0,0:0|0:0|0:0,0:0:0:0:
180,152,26135,1,0,0:0:0:0:
180,152,26357,2,0,B|264:152|264:152|352:100,1,160,2|0,0:0|0:0,0:0:0:0:
320,32,27024,6,0,L|420:172,1,160,2|0,0:0|0:0,0:0:0:0:
448,236,27691,1,0,0:0:0:0:
448,236,27913,2,0,P|452:280|344:300,1,160,2|0,0:0|0:0,0:0:0:0:
296,264,28579,1,2,0:0:0:0:
216,264,28802,1,0,0:0:0:0:
152,314,29024,6,0,P|78:309|64:236,2,160,2|8|2,0:0|0:0|0:0,0:0:0:0:
256,192,30357,1,8,0:0:0:0:
280,116,30579,1,0,0:0:0:0:
256,40,30802,6,0,P|208:32|124:100,1,160,2|8,0:0|0:0,0:0:0:0:
144,256,31691,1,2,0:0:0:0:
216,292,31913,2,0,P|200:316|148:340,2,80,8|8|0,0:0|0:0|0:0,0:0:0:0:
296,292,32579,6,0,P|312:316|364:340,1,80,4|0,0:0|0:0,0:0:0:0:
424,292,33024,2,0,P|460:240|424:140,1,160,0|2,0:0|0:0,0:0:0:0:
376,96,33691,1,0,0:0:0:0:
328,32,33913,2,0,P|304:64|304:120,1,80,0|0,0:0|0:0,0:0:0:0:
212,102,34357,6,0,P|207:63|184:32,2,80,2|0|0,0:0|0:0|0:0,0:0:0:0:
192,180,35024,2,0,B|224:180|256:224|256:224|288:180|320:180,1,160,2|0,0:0|0:0,0:0:0:0:
319,180,35579,1,0,0:0:0:0:
319,180,35691,1,2,0:0:0:0:
396,204,35913,1,0,0:0:0:0:
468,236,36135,6,0,P|480:284|380:340,2,160,2|8|2,0:0|0:0|0:0,0:0:0:0:
364,116,37468,1,8,0:0:0:0:
292,76,37691,1,0,0:0:0:0:
220,44,37913,6,0,P|168:44|80:132,1,160,2|8,0:0|0:0,0:0:0:0:
80,188,38579,1,8,0:0:0:0:
112,260,38802,2,0,L|184:332,1,80,2|8,0:0|0:0,0:0:0:0:
216,252,39246,2,0,L|159:195,1,80,2|0,0:0|0:0,0:0:0:0:
296,252,39691,6,0,L|352:195,1,80,4|0,0:0|0:0,0:0:0:0:
404,132,40135,1,8,0:0:0:0:
404,132,40246,2,0,P|368:76|320:64,1,80,0|0,0:0|0:0,0:0:0:0:
320,72,40579,2,0,P|288:72|244:40,1,80,0|0,0:0|0:0,0:0:0:0:
172,28,41024,2,0,L|132:104,1,80,8|0,0:0|0:0,0:0:0:0:
100,172,41468,6,0,B|60:172|60:172|28:147,1,80,0|0,0:0|0:0,0:0:0:0:
28,276,41913,2,0,B|60:252|60:252|100:252,1,80,8|0,0:0|0:0,0:0:0:0:
176,276,42357,1,0,0:0:0:0:
176,276,42468,1,0,0:0:0:0:
176,276,42579,1,0,0:0:0:0:
120,332,42802,1,8,0:0:0:0:
280,332,43246,6,0,P|316:332|368:304,1,80,4|0,0:0|0:0,0:0:0:0:
412,256,43691,1,8,0:0:0:0:
412,256,43802,2,0,L|440:176,1,80,0|0,0:0|0:0,0:0:0:0:
448,140,44135,2,0,P|452:96|428:56,1,80,0|0,0:0|0:0,0:0:0:0:
360,36,44579,2,0,P|356:80|380:120,1,80,8|0,0:0|0:0,0:0:0:0:
380,192,45024,6,0,L|284:248,1,80,0|0,0:0|0:0,0:0:0:0:
132,192,45468,2,0,L|228:248,1,80,8|0,0:0|0:0,0:0:0:0:
256,176,45913,2,0,L|256:132,2,40,0|0|0,0:0|0:0|0:0,0:0:0:0:
256,292,46357,1,8,0:0:0:0:
300,360,46579,1,0,0:0:0:0:
212,360,46802,6,0,B|144:360|144:312|56:312,2,160,4|8|0,0:0|0:0|0:0,0:0:0:0:
256,292,47913,1,0,0:0:0:0:
300,360,48135,2,0,P|336:360|376:332,1,80,8|4,0:0|0:0,0:0:0:0:
392,260,48579,6,0,P|376:208|448:128,1,160,0|8,0:0|0:0,0:0:0:0:
456,208,49246,2,0,L|272:152,1,160
224,140,49913,1,8,0:0:0:0:
116,244,50357,6,0,P|92:296|188:312,1,160,4|8,0:0|0:0,0:0:0:0:
396,244,51246,2,0,P|420:296|324:312,1,160,4|8,0:0|0:0,0:0:0:0:
193,172,52135,6,0,B|225:172|257:128|257:128|289:172|320:172,2,160,4|8|4,0:0|0:0|0:0,0:0:0:0:
176,208,53135,2,0,P|176:228|180:252,1,40
256,272,53468,2,0,L|256:328,2,40,8|0|0,0:0|0:0|0:0,0:0:0:0:
332,247,53913,6,0,P|360:200|296:96,2,160,4|8|2,0:0|0:0|0:0,0:0:0:0:
281,183,55024,2,0,P|243:115|272:44,1,160,0|4,0:0|0:0,0:0:0:0:
352,56,55691,6,0,P|388:64|440:48,1,80,0|0,0:0|0:0,0:0:0:0:
509,137,56135,2,0,P|470:128|432:136,1,80,8|0,0:0|0:0,0:0:0:0:
368,184,56579,2,0,P|344:232|404:324,1,160,2|8,0:0|0:0,0:0:0:0:
424,244,57246,6,0,L|256:280,1,160,4|0,0:0|0:0,0:0:0:0:
188,288,57913,2,0,B|148:300|148:300|104:284,1,80,8|0,0:0|0:0,0:0:0:0:
76,216,58357,2,0,B|116:204|116:204|151:217,2,80,2|0|8,0:0|0:0|0:0,0:0:0:0:
188,288,59024,6,0,P|228:244|188:144,1,160,4|0,0:0|0:0,0:0:0:0:
140,104,59691,2,0,L|200:28,1,80,8|0,0:0|0:0,0:0:0:0:
256,84,60135,1,2,0:0:0:0:
256,84,60357,1,0,0:0:0:0:
322,41,60579,2,0,L|372:104,1,80,8|0,0:0|0:0,0:0:0:0:
416,172,61024,6,0,B|416:248|416:248|352:328,2,160,4|8|2,0:0|0:0|0:0,0:0:0:0:
340,148,62135,2,0,B|287:213|287:213|287:289,1,160,0|4,0:0|0:0,0:0:0:0:
304,368,62802,6,0,L|184:248,1,160,0|8,0:0|0:0,0:0:0:0:
124,208,63468,1,0,0:0:0:0:
124,208,63691,2,0,P|96:160|148:56,1,160,2|8,0:0|0:0,0:0:0:0:
208,48,64357,6,0,B|256:48|256:48|304:84|304:84|384:84,1,160,4|0,0:0|0:0,0:0:0:0:
428,120,65024,2,0,L|392:208,1,80,8|0,0:0|0:0,0:0:0:0:
364,264,65468,2,0,P|356:296|368:344,1,80,2|0,0:0|0:0,0:0:0:0:
436,380,65913,2,0,P|444:348|432:300,1,80,0|4,0:0|0:0,0:0:0:0:
296,224,66579,6,0,L|220:176,1,80,0|4,0:0|0:0,0:0:0:0:
156,144,67024,1,0,0:0:0:0:
88,104,67246,2,0,P|80:72|96:24,1,80,4|0,0:0|0:0,0:0:0:0:
234,106,67691,2,0,P|242:138|226:186,1,80,8|0,0:0|0:0,0:0:0:0:
172,52,68135,6,0,P|224:28|320:84,1,160,4|8,0:0|0:0,0:0:0:0:
284,228,69024,1,2,0:0:0:0:
284,228,69246,2,0,P|232:252|136:196,1,160,0|4,0:0|0:0,0:0:0:0:
132,132,69913,6,0,L|188:64,1,80,0|0,0:0|0:0,0:0:0:0:
256,36,70357,1,8,0:0:0:0:
329,70,70579,2,0,L|380:132,1,80,0|2,0:0|0:0,0:0:0:0:
478,129,71024,2,0,L|428:68,1,80,0|8,0:0|0:0,0:0:0:0:
276,136,71468,6,0,L|384:268,1,160,4|0,0:0|0:0,0:0:0:0:
396,336,72135,2,0,P|364:356|308:356,1,80,8|0,0:0|0:0,0:0:0:0:
256,316,72579,1,2,0:0:0:0:
189,359,72802,2,0,P|149:356|116:336,1,80,0|8,0:0|0:0,0:0:0:0:
64,276,73246,6,0,P|20:208|80:128,1,160,4|0,0:0|0:0,0:0:0:0:
128,124,73913,2,0,P|156:124|204:92,1,80,8|0,0:0|0:0,0:0:0:0:
256,40,74357,1,4,0:0:0:0:
312,97,74579,2,0,P|344:120|384:124,1,80,0|8,0:0|0:0,0:0:0:0:
452,84,75024,1,8,0:0:0:0:
452,84,75135,1,8,0:0:0:0:
452,84,75246,6,0,L|396:244,1,160,4|8,0:0|0:0,0:0:0:0:
352,300,75913,1,0,0:0:0:0:
288,344,76135,2,0,P|252:356|196:340,1,80,2|0,0:0|0:0,0:0:0:0:
172,280,76579,2,0,P|208:268|264:284,1,80,4|2,0:0|0:0,0:0:0:0:
132,352,77024,6,0,L|64:292,1,80,0|0,0:0|0:0,0:0:0:0:
28,232,77468,1,8,0:0:0:0:
28,152,77691,1,0,0:0:0:0:
72,84,77913,2,0,P|148:108|220:64,1,160,2|8,0:0|0:0,0:0:0:0:
152,24,78579,6,0,L|304:96,1,160,4|0,0:0|0:0,0:0:0:0:
348,156,79246,2,0,B|348:196|348:196|324:236,1,80,8|0,0:0|0:0,0:0:0:0:
256,264,79691,1,2,0:0:0:0:
184,230,79913,2,0,B|164:196|164:196|164:156,2,80,0|8|4,0:0|0:0|0:0,0:0:0:0:
256,192,80802,12,8,81872,0:0:0:0:
292,84,82335,6,0,P|280:144|364:220,1,160,4|8,0:0|0:0,0:0:0:0:
360,136,83001,1,0,0:0:0:0:
360,136,83223,2,0,L|180:216,1,160,2|8,0:0|0:0,0:0:0:0:
136,224,83890,1,0,0:0:0:0:
120,64,84335,6,0,P|160:44|200:48,1,80,0|8,0:0|0:0,0:0:0:0:
256,100,84779,1,0,0:0:0:0:
317,46,85001,2,0,P|357:45|392:64,1,80,2|0,0:0|0:0,0:0:0:0:
412,140,85446,2,0,P|372:140|337:122,1,80,8|0,0:0|0:0,0:0:0:0:
468,84,85890,6,0,P|492:132|444:220,1,160,4|8,0:0|0:0,0:0:0:0:
368,224,86557,1,0,0:0:0:0:
368,224,86779,2,0,P|312:232|244:328,1,160,2|8,0:0|0:0,0:0:0:0:
320,336,87446,6,0,L|148:272,1,160,2|0,0:0|0:0,0:0:0:0:
104,232,88112,2,0,P|96:192|108:144,1,80,8|8,0:0|0:0,0:0:0:0:
176,116,88557,2,0,P|184:156|172:204,1,80,2|0,0:0|0:0,0:0:0:0:
220,260,89001,1,8,0:0:0:0:
220,260,89112,1,0,0:0:0:0:
220,260,89223,1,0,0:0:0:0:
292,292,89446,6,0,P|344:304|440:248,1,160,4|8,0:0|0:0,0:0:0:0:
464,184,90112,1,0,0:0:0:0:
464,184,90334,2,0,L|328:80,1,160,2|8,0:0|0:0,0:0:0:0:
256,72,91001,6,0,B|172:72|172:72|96:40,1,160,2|0,0:0|0:0,0:0:0:0:
40,92,91668,2,0,L|0:168,1,80,8|0,0:0|0:0,0:0:0:0:
104,228,92112,2,0,L|141:157,1,80,2|8,0:0|0:0,0:0:0:0:
216,128,92557,1,8,0:0:0:0:
296,128,92779,1,0,0:0:0:0:
370,157,93001,6,0,P|380:208|324:316,1,160,4|8,0:0|0:0,0:0:0:0:
256,304,93668,1,0,0:0:0:0:
174,304,93890,2,0,P|135:235|141:157,1,160,4|8,0:0|0:0,0:0:0:0:
220,156,94557,6,0,L|56:84,1,160,2|0,0:0|0:0,0:0:0:0:
112,20,95223,2,0,L|196:56,1,80,8|0,0:0|0:0,0:0:0:0:
256,88,95668,1,2,0:0:0:0:
326,51,95890,2,0,L|400:20,1,80,0|4,0:0|3:0,0:0:0:0:
