osu file format v14

[General]
AudioFilename: BiBi - Love Novels.mp3
AudioLeadIn: 0
PreviewTime: 53579
Countdown: 0
SampleSet: Soft
StackLeniency: 0.7
Mode: 0
LetterboxInBreaks: 0
WidescreenStoryboard: 0

[Editor]
DistanceSpacing: 1
BeatDivisor: 4
GridSize: 4
TimelineZoom: 1

[Metadata]
Title:Love Novels
TitleUnicode:ラブノベルス
Artist:BiBi
ArtistUnicode:BiBi
Creator:Inyuschan
Version:Easy
Source:ラブライブ! School idol project
Tags:Love Live Nishikino Maki 西木野 真姫 Pile Ayase Eli 絢瀬 絵里 Yoshino Nanjō Yazawa Nico 矢澤 にこ Sora Tokui
BeatmapID:640069
BeatmapSetID:283077

[Difficulty]
HPDrainRate:2
CircleSize:3
OverallDifficulty:2
ApproachRate:3
SliderMultiplier:1
SliderTickRate:2

[Events]
//Background and Video events
0,0,"maxresdefault.jpg",0,0
//Break Periods
2,18557,24028
//Storyboard Layer 0 (Background)
//Storyboard Layer 1 (Fail)
//Storyboard Layer 2 (Pass)
//Storyboard Layer 3 (Foreground)
//Storyboard Sound Samples

[TimingPoints]
580,444.444444444444,4,1,0,100,1,0
4135,-100,4,2,1,50,0,0
10802,-100,4,2,1,60,0,0
11246,-100,4,2,1,70,0,0
17468,-100,4,2,1,60,0,0
18357,-100,4,2,1,50,0,0
21913,-100,4,2,1,60,0,0
32135,-100,4,2,2,60,0,0
32579,-100,4,2,1,60,0,0
50357,-100,4,2,1,70,0,0
53913,-100,4,2,1,80,0,1
66135,-100,4,2,1,80,0,0
67246,-100,4,2,1,70,0,0
68135,-100,4,2,1,80,0,1
80357,-100,4,2,1,80,0,0
80802,-100,4,2,1,60,0,0
81872,444.444444444444,4,2,1,60,1,0
82335,444.444444444444,4,2,1,60,1,0

[Colours]
Combo1 : 156,78,78
Combo2 : 223,172,193
Combo3 : 122,204,113
Combo4 : 247,234,164

[HitObjects]
164,60,4135,6,0,B|220:60|220:60|284:100|284:100|356:100,1,200,4|2,0:0|0:0,0:0:0:0:
472,192,5691,2,0,L|384:332,1,150,2|0,0:0|0:0,0:0:0:0:
296,352,6802,2,0,L|184:352,1,100,2|0,0:0|0:0,0:0:0:0:
96,348,7691,6,0,P|52:304|88:180,1,200,4|2,0:0|0:0,0:0:0:0:
232,180,9246,2,0,P|268:180|368:104,1,150,2|0,0:0|0:0,0:0:0:0:
428,48,10357,2,0,L|508:132,1,100,2|8,0:0|0:0,0:0:0:0:
492,220,11246,6,0,P|484:268|356:288,1,200,4|2,0:0|0:0,0:0:0:0:
256,276,12579,1,8,0:0:0:0:
155,288,13024,2,0,P|63:303|20:220,1,200,2|2,0:0|0:0,0:0:0:0:
60,128,14357,1,8,0:0:0:0:
124,52,14802,6,0,B|224:52|224:52|316:132,1,200,4|2,0:0|0:0,0:0:0:0:
348,204,16135,1,8,0:0:0:0:
172,300,17024,1,8,0:0:0:0:
72,316,17468,2,0,P|48:276|56:216,1,100,2|2,0:0|0:0,0:0:0:0:
112,144,18357,5,4,0:0:0:0:
456,32,25468,6,0,P|412:32|304:140,1,200,4|2,0:0|0:0,0:0:0:0:
256,220,26802,1,0,0:0:0:0:
204,304,27246,2,0,P|160:304|52:196,1,200,2|2,0:0|0:0,0:0:0:0:
188,56,29024,6,0,B|260:56|260:56|376:136,2,200,2|2|2,0:0|0:0|0:0,0:0:0:0:
24,168,31691,2,0,P|12:208|36:276,1,100,2|8,0:0|0:0,0:0:0:0:
104,328,32579,6,0,P|152:304|180:164,1,200,4|2,0:0|0:0,0:0:0:0:
256,104,33913,1,0,0:0:0:0:
328,171,34357,2,0,P|331:268|408:328,1,200,2|2,0:0|0:0,0:0:0:0:
452,240,35691,1,0,0:0:0:0:
452,140,36135,6,0,L|244:104,1,200,2|2,0:0|0:0,0:0:0:0:
160,280,37913,2,0,L|369:311,1,200,2|2,0:0|0:0,0:0:0:0:
436,244,39246,1,2,0:0:0:0:
492,160,39691,6,0,P|480:112|344:120,1,200,4|0,0:0|0:0,0:0:0:0:
256,136,41024,1,8,0:0:0:0:
159,106,41468,2,0,P|69:81|20:160,1,200
52,256,42802,1,8,0:0:0:0:
120,328,43246,6,0,P|208:328|304:240,2,200,4|0|0,0:0|0:0|0:0,0:0:0:0:
24,272,45468,1,8,0:0:0:0:
4,164,45913,2,0,L|84:96,1,100,0|8,0:0|0:0,0:0:0:0:
172,64,46802,6,0,P|240:60|340:140,1,200,4|0,0:0|0:0,0:0:0:0:
288,332,48579,2,0,P|220:336|120:256,1,200
96,160,49913,1,8,0:0:0:0:
112,64,50357,6,0,B|176:64|256:192|256:192|336:64|400:64,2,400,4|4|4,0:0|0:0|0:0,0:0:0:0:
48,140,54357,2,0,P|36:176|48:240,1,100,8|2,0:0|0:0,0:0:0:0:
116,312,55246,1,8,0:0:0:0:
212,344,55691,1,2,0:0:0:0:
300,296,56135,1,8,0:0:0:0:
384,240,56579,2,0,P|394:191|381:143,1,100,2|8,0:0|0:0,0:0:0:0:
296,92,57468,6,0,P|283:139|293:188,1,100,2|8,0:0|0:0,0:0:0:0:
292,288,58357,2,0,L|124:288,2,150,2|4|8,0:0|0:0|0:0,0:0:0:0:
372,228,60135,1,2,0:0:0:0:
292,44,61024,6,0,P|244:44|192:80,1,100,4|8,0:0|0:0,0:0:0:0:
136,148,61913,2,0,P|128:192|176:296,2,150,2|4|8,0:0|0:0|0:0,0:0:0:0:
212,84,63691,1,2,0:0:0:0:
380,192,64579,6,0,B|380:240|380:240|344:296,1,100,2|8,0:0|0:0,0:0:0:0:
256,312,65468,2,0,L|104:312,1,150,2|4,0:0|0:0,0:0:0:0:
16,80,67246,2,0,P|48:80|112:44,1,100,4|8,0:0|0:0,0:0:0:0:
208,36,68135,6,0,L|312:96,1,100,4|8,0:0|0:0,0:0:0:0:
384,44,69024,2,0,L|488:104,1,100,2|8,0:0|0:0,0:0:0:0:
492,192,69913,2,0,P|492:240|384:336,1,200,2|2,0:0|0:0,0:0:0:0:
308,276,71246,1,8,0:0:0:0:
208,272,71691,6,0,P|168:272|116:304,1,100,2|8,0:0|0:0,0:0:0:0:
32,348,72579,2,0,L|0:180,2,150,2|4|8,0:0|0:0|0:0,0:0:0:0:
114,290,74357,2,0,L|92:180,1,100,4|8,0:0|0:0,0:0:0:0:
48,104,75246,5,4,0:0:0:0:
240,44,76135,1,2,0:0:0:0:
336,72,76579,1,8,0:0:0:0:
428,108,77024,2,0,P|428:152|396:208,2,100,2|8|2,0:0|0:0|0:0,0:0:0:0:
232,68,78802,5,2,0:0:0:0:
136,108,79246,1,8,0:0:0:0:
84,192,79691,2,0,B|84:264|84:264|140:340,2,150,2|4|4,0:0|0:0|0:0,0:0:0:0:
168,140,81468,1,0,0:0:0:0:
256,112,81872,1,8,0:0:0:0:
348,68,82335,6,0,P|397:70|441:94,1,100,4|8,0:0|0:0,0:0:0:0:
472,188,83223,2,0,L|424:296,1,100,2|8,0:0|0:0,0:0:0:0:
344,332,84112,2,0,P|292:332|188:228,1,200,2|2,0:0|0:0,0:0:0:0:
180,36,85890,6,0,P|232:36|336:140,1,200,4|2,0:0|0:0,0:0:0:0:
300,280,87446,2,0,B|248:280|248:280|208:304|208:304|136:304,1,150,2|8,0:0|0:0,0:0:0:0:
72,252,88557,2,0,P|56:208|68:156,1,100,2|8,0:0|0:0,0:0:0:0:
156,200,89446,6,0,P|167:151|151:105,2,100,4|8|2,0:0|0:0|0:0,0:0:0:0:
256,312,91001,2,0,P|304:344|408:332,1,150,2|8,0:0|0:0,0:0:0:0:
468,272,92112,2,0,L|404:180,1,100,2|8,0:0|0:0,0:0:0:0:
352,108,93001,6,0,P|292:64|252:64,1,100,4|8,0:0|0:0,0:0:0:0:
180,108,93890,1,4,0:0:0:0:
256,192,94557,12,4,96112,3:0:0:0:
