osu file format v13

[General]
AudioFilename: Fuyu ga Kureta Yokan.mp3
AudioLeadIn: 0
PreviewTime: 66589
Countdown: 0
SampleSet: Soft
StackLeniency: 0.7
Mode: 0
LetterboxInBreaks: 1
WidescreenStoryboard: 0

[Editor]
DistanceSpacing: 1
BeatDivisor: 4
GridSize: 4
TimelineZoom: 1

[Metadata]
Title:Fuyu ga Kureta Yokan
TitleUnicode:冬がくれた予感
Artist:BiBi
ArtistUnicode:BiBi
Creator:Betsuto
Version:Insane
Source:
Tags:
BeatmapID:585519
BeatmapSetID:255427

[Difficulty]
HPDrainRate:7
CircleSize:4
OverallDifficulty:7
ApproachRate:8
SliderMultiplier:2
SliderTickRate:1

[Events]
//Background and Video events
0,0,"Bibi.(Love.Live!).full.1649424.jpg",0,0
//Break Periods
//Storyboard Layer 0 (Background)
//Storyboard Layer 1 (Fail)
//Storyboard Layer 2 (Pass)
//Storyboard Layer 3 (Foreground)
//Storyboard Sound Samples

[TimingPoints]
926,612.244897959184,4,1,0,60,1,0
10721,-100,4,2,0,60,0,0
13170,-100,4,2,0,75,0,0
22966,-100,4,2,0,40,0,0
32762,-100,4,2,0,60,0,0
37354,-100,4,2,0,40,0,0
37660,-100,4,2,0,60,0,0
47150,-100,4,2,0,40,0,0
47456,-100,4,2,0,60,0,0
67048,-100,4,2,0,75,0,1
106232,-100,4,2,0,75,0,0

[HitObjects]
100,296,10721,5,0,1:0:0:0:
144,196,11028,2,0,L|132:164,3,25,0|0|0|0,1:0|1:0|1:0|1:0,0:0:0:0:
144,140,11334,2,0,L|112:40,1,100,8|0,0:0|0:0,0:0:0:0:
184,88,11793,2,0,P|216:88|240:80,1,50,0|0,1:0|1:0,0:0:0:0:
304,28,12099,1,8,0:0:0:0:
392,24,12252,2,0,L|448:32,1,50,0|0,1:0|1:0,0:0:0:0:
500,96,12558,1,12,0:0:0:0:
440,256,13170,6,0,P|388:244|336:252,1,100,6|0,1:2|0:0,0:0:0:0:
264,292,13630,1,0,0:0:0:0:
192,344,13783,2,0,L|92:328,1,100,8|0,1:2|0:0,0:0:0:0:
80,128,14395,6,0,P|72:104|72:68,2,50,0|0|0,0:0|1:0|1:0,0:0:0:0:
152,180,14854,1,0,0:0:0:0:
240,164,15007,1,10,1:2:0:0:
272,80,15160,2,0,P|336:56|368:64,1,100,0|0,1:0|0:0,0:0:0:0:
444,116,15619,6,0,L|460:220,1,100,0|0,1:0|0:0,0:0:0:0:
432,300,16079,1,0,1:0:0:0:
356,348,16232,2,0,P|304:356|256:336,1,100,8|0,1:2|0:0,0:0:0:0:
200,276,16691,1,0,0:0:0:0:
188,192,16844,1,0,0:0:0:0:
224,112,16997,1,0,1:0:0:0:
304,72,17150,2,0,L|356:64,2,50,0|0|8,1:0|1:0|1:2,0:0:0:0:
200,276,17762,5,0,0:0:0:0:
200,276,17915,1,0,0:0:0:0:
200,276,18068,2,0,P|156:304|100:304,1,100,0|0,1:0|0:0,0:0:0:0:
40,244,18528,1,0,1:0:0:0:
124,204,18681,2,0,L|156:108,1,100,8|0,1:2|0:0,0:0:0:0:
300,32,19293,5,0,0:0:0:0:
384,40,19446,1,0,1:0:0:0:
448,96,19599,1,0,1:0:0:0:
464,180,19752,1,0,0:0:0:0:
436,260,19905,1,8,1:2:0:0:
356,296,20058,2,0,P|304:296|256:272,1,100,0|0,1:0|0:0,0:0:0:0:
152,308,20517,6,0,L|172:208,1,100,0|0,1:0|0:0,0:0:0:0:
104,136,20977,1,0,1:0:0:0:
104,136,21130,2,0,P|148:112|204:112,1,100,8|0,1:2|0:0,0:0:0:0:
280,160,21589,1,0,0:0:0:0:
280,160,21742,2,0,L|332:172,1,50,0|0,0:0|1:0,0:0:0:0:
356,296,22048,2,0,L|412:292,1,50,0|0,1:0|1:0,0:0:0:0:
480,200,22354,1,8,1:2:0:0:
272,44,22966,6,0,P|256:80|256:100,1,50,2|0,0:0|0:0,0:0:0:0:
280,160,23272,1,2,0:0:0:0:
264,232,23426,2,0,B|208:280|164:220|116:272,1,150,2|2,0:0|0:0,0:0:0:0:
256,88,24497,5,0,0:0:0:0:
404,148,24803,1,0,0:0:0:0:
276,256,25109,1,2,0:0:0:0:
56,176,25415,6,0,P|88:164|128:164,1,50,2|0,0:0|0:0,0:0:0:0:
184,176,25721,1,2,0:0:0:0:
264,156,25874,2,0,L|432:136,1,150,2|2,0:0|0:0,0:0:0:0:
480,332,26946,1,0,0:0:0:0:
388,260,27252,2,0,P|332:260|288:276,1,100,2|2,0:0|0:0,0:0:0:0:
136,152,27864,5,2,0:0:0:0:
136,152,28017,1,0,0:0:0:0:
136,152,28170,1,2,0:0:0:0:
136,152,28323,1,2,0:0:0:0:
136,152,28783,1,2,0:0:0:0:
136,152,29395,1,0,0:0:0:0:
136,152,29701,1,0,0:0:0:0:
136,152,30007,1,2,0:0:0:0:
216,172,30313,5,2,0:0:0:0:
216,172,30466,1,0,0:0:0:0:
216,172,30619,1,2,0:0:0:0:
216,172,30772,1,2,0:0:0:0:
216,172,31232,1,0,0:0:0:0:
216,172,31844,1,0,0:0:0:0:
216,172,32150,1,4,0:0:0:0:
300,116,32762,5,0,1:0:0:0:
300,116,33068,1,0,0:0:0:0:
300,116,33221,1,0,1:0:0:0:
300,116,33374,1,8,1:2:0:0:
300,116,33681,1,0,1:0:0:0:
300,116,33834,1,0,0:0:0:0:
300,116,34140,1,0,0:0:0:0:
300,116,34293,1,0,1:0:0:0:
300,116,34599,1,8,1:2:0:0:
300,116,34752,1,0,0:0:0:0:
300,116,34905,1,0,0:0:0:0:
248,184,35211,5,0,1:0:0:0:
248,184,35517,1,0,0:0:0:0:
248,184,35670,1,0,1:0:0:0:
248,184,35823,1,8,1:2:0:0:
248,184,36130,1,0,1:0:0:0:
248,184,36436,1,0,0:0:0:0:
248,184,36589,1,0,1:0:0:0:
248,184,36742,1,0,1:0:0:0:
248,184,37048,1,8,1:2:0:0:
304,128,37354,1,4,0:0:0:0:
324,216,37660,5,0,1:0:0:0:
324,216,37966,1,0,0:0:0:0:
324,216,38119,1,0,1:0:0:0:
324,216,38272,1,8,1:2:0:0:
324,216,38579,1,0,1:0:0:0:
324,216,38885,1,0,0:0:0:0:
324,216,39038,1,0,0:0:0:0:
324,216,39191,1,0,1:0:0:0:
324,216,39497,1,8,1:2:0:0:
324,216,39650,1,0,0:0:0:0:
324,216,39803,1,0,0:0:0:0:
260,256,40109,5,0,1:0:0:0:
260,256,40415,1,0,0:0:0:0:
260,256,40568,1,0,1:0:0:0:
260,256,40721,1,8,1:2:0:0:
260,256,41028,1,0,1:0:0:0:
260,256,41334,1,0,0:0:0:0:
260,256,41487,1,0,0:0:0:0:
260,256,41640,1,0,1:0:0:0:
260,256,41946,1,8,1:2:0:0:
260,256,42252,1,0,0:0:0:0:
336,220,42558,5,4,1:0:0:0:
336,220,43017,1,0,0:0:0:0:
336,220,43170,1,8,1:2:0:0:
216,144,43783,1,0,0:0:0:0:
216,144,43936,1,0,1:0:0:0:
216,144,44089,1,0,1:0:0:0:
216,144,44395,1,8,1:2:0:0:
216,144,44548,1,0,1:0:0:0:
280,196,45007,5,0,1:0:0:0:
280,196,45466,1,0,1:0:0:0:
280,196,45619,1,8,1:2:0:0:
280,196,46232,1,0,0:0:0:0:
280,196,46385,1,0,1:0:0:0:
280,196,46538,1,0,1:0:0:0:
280,196,46844,1,8,1:2:0:0:
280,196,47150,1,4,0:0:0:0:
212,248,47456,5,0,1:0:0:0:
212,248,47915,1,0,0:0:0:0:
212,248,48068,1,8,1:2:0:0:
212,248,48681,1,0,0:0:0:0:
212,248,48834,1,0,1:0:0:0:
212,248,48987,1,0,1:0:0:0:
212,248,49293,1,8,1:2:0:0:
212,248,49446,1,0,1:0:0:0:
152,196,49905,5,2,0:0:0:0:
152,196,50211,1,0,0:0:0:0:
152,196,50364,1,0,1:0:0:0:
152,196,50517,1,10,1:2:0:0:
152,196,50823,1,0,0:0:0:0:
152,196,51130,1,2,0:0:0:0:
152,196,51283,1,0,1:0:0:0:
152,196,51436,1,0,1:0:0:0:
152,196,51742,1,10,1:2:0:0:
152,196,52048,1,0,0:0:0:0:
220,152,52354,5,6,1:2:0:0:
220,152,52813,1,0,1:0:0:0:
220,152,52966,1,8,1:2:0:0:
220,152,53272,1,0,0:0:0:0:
220,152,53579,1,0,0:0:0:0:
220,152,53732,1,0,1:0:0:0:
220,152,53885,1,0,1:0:0:0:
220,152,54191,1,8,1:2:0:0:
220,152,54497,1,0,0:0:0:0:
296,184,54803,5,0,1:0:0:0:
296,184,55109,1,0,0:0:0:0:
296,184,55262,1,0,1:0:0:0:
296,184,55415,1,8,1:2:0:0:
296,184,55721,1,0,0:0:0:0:
296,184,56028,1,0,0:0:0:0:
296,184,56181,1,0,1:0:0:0:
296,184,56334,1,0,1:0:0:0:
296,184,56640,1,8,1:2:0:0:
296,184,56946,1,0,0:0:0:0:
264,264,57252,5,4,1:2:0:0:
264,264,57558,1,0,0:0:0:0:
264,264,57711,1,0,1:0:0:0:
264,264,57864,1,8,1:2:0:0:
264,264,58170,1,0,0:0:0:0:
264,264,58477,1,2,0:0:0:0:
264,264,58630,1,0,1:0:0:0:
264,264,58783,1,2,1:2:0:0:
264,264,58936,1,2,0:0:0:0:
264,264,59089,1,8,1:2:0:0:
264,264,59242,1,2,0:0:0:0:
264,264,59395,1,0,0:0:0:0:
264,264,59548,1,2,0:0:0:0:
336,236,59701,5,4,1:2:0:0:
336,236,60007,1,0,0:0:0:0:
336,236,60160,1,0,1:0:0:0:
336,236,60313,1,8,1:2:0:0:
336,236,60619,1,0,0:0:0:0:
336,236,60926,1,0,0:0:0:0:
336,236,61079,1,0,1:0:0:0:
336,236,61232,1,0,1:0:0:0:
336,236,61538,1,8,1:2:0:0:
336,236,61844,1,0,0:0:0:0:
312,312,62150,5,0,1:0:0:0:
312,312,62456,1,0,0:0:0:0:
312,312,62609,1,0,1:0:0:0:
312,312,62762,1,8,1:2:0:0:
312,312,63068,1,0,0:0:0:0:
312,312,63374,1,0,0:0:0:0:
312,312,63528,1,0,1:0:0:0:
312,312,63681,1,0,1:0:0:0:
312,312,63987,1,8,1:2:0:0:
312,312,64293,1,0,0:0:0:0:
384,256,64599,5,0,1:0:0:0:
384,256,65211,1,0,1:0:0:0:
384,256,65823,1,0,1:0:0:0:
408,144,66436,1,2,0:3:0:0:
296,180,67048,5,4,1:2:0:0:
