osu file format v14

[General]
AudioFilename: diamond aji no yuutsu.mp3
AudioLeadIn: 0
PreviewTime: 45388
Countdown: 0
SampleSet: Soft
StackLeniency: 0.7
Mode: 0
LetterboxInBreaks: 1
WidescreenStoryboard: 0

[Editor]
Bookmarks: 15548,30666,60860
DistanceSpacing: 1.5
BeatDivisor: 4
GridSize: 4
TimelineZoom: 1

[Metadata]
Title:Diamond Princess no Yuuutsu
TitleUnicode:ダイヤモンドプリンセスの憂鬱
Artist:BiBi
ArtistUnicode:BiBi
Creator:Xinely
Version:Hard
Source:ラブライブ! School idol project
Tags:Hinsvar Melancholy Lovelive! love live festival 矢澤にこ Yazawa Niko Nico 絢瀬絵里 Ayase Eri Eli 西木野真姫 Nishikino Maki 徳井青空 Tokui Sora 南條愛乃 Nanjou Yoshino 堀絵梨子 Hori Eriko Pile
BeatmapID:783397
BeatmapSetID:355070

[Difficulty]
HPDrainRate:6
CircleSize:4
OverallDifficulty:6
ApproachRate:7.5
SliderMultiplier:1.48
SliderTickRate:1

[Events]
//Background and Video events
0,0,"jiang.jpg",0,0
//Break Periods
//Storyboard Layer 0 (Background)
//Storyboard Layer 1 (Fail)
//Storyboard Layer 2 (Pass)
//Storyboard Layer 3 (Foreground)
//Storyboard Sound Samples

[TimingPoints]
388,472.44094488189,4,2,1,50,1,0
7947,-100,4,2,1,70,0,0
15506,-117.647058823529,4,2,1,60,0,0
22828,-117.647058823529,4,2,1,50,0,0
23065,-100,4,2,1,70,0,0
30624,-100,4,2,1,60,0,0
37002,-100,4,2,1,70,0,0
41254,-100,4,2,1,80,0,0
45742,-100,4,2,1,90,0,1
58143,-100,4,2,1,65,0,1
58262,-100,4,2,1,90,0,1
79758,-100,4,2,1,70,0,0
88734,-100,4,2,1,20,0,0
89679,-100,4,2,1,5,0,0

[Colours]
Combo1 : 128,128,192
Combo2 : 255,128,128
Combo3 : 255,255,85
Combo4 : 79,79,79

[HitObjects]
132,248,388,6,0,P|188:252|224:240,1,74,2|2,0:1|0:0,0:0:0:0:
292,180,860,2,0,L|344:184,2,37,2|2|2,0:0|0:0|0:0,0:0:0:0:
200,116,1332,2,0,P|200:76|216:28,1,74,2|2,0:0|0:0,0:0:0:0:
308,92,1805,1,8,0:0:0:0:
132,248,2277,6,0,L|140:356,1,74,2|0,0:1|0:0,0:0:0:0:
248,328,2750,2,0,L|248:365,2,37,2|0|0,0:0|0:0|0:0,0:0:0:0:
360,324,3222,1,2,0:0:0:0:
468,340,3458,1,2,0:0:0:0:
380,240,3695,2,0,P|376:196|380:152,1,74,8|2,0:0|0:0,0:0:0:0:
400,52,4167,6,0,P|364:76|312:84,1,74,2|0,0:1|0:0,0:0:0:0:
228,48,4639,2,0,L|164:52,2,37,2|2|2,0:0|0:0|0:0,0:0:0:0:
256,156,5112,2,0,L|160:164,1,74,2|2,0:1|0:0,0:0:0:0:
76,292,5584,2,0,P|108:296|156:292,1,74,8|2,0:0|0:0,0:0:0:0:
272,320,6057,6,0,P|260:280|268:220,1,74,2|0,0:1|0:0,0:0:0:0:
344,172,6529,2,0,L|380:168,2,37,2|2|2,0:1|0:0|0:0,0:0:0:0:
244,124,7002,1,2,0:1:0:0:
244,124,7120,1,2,0:1:0:0:
244,124,7238,1,2,0:1:0:0:
152,188,7474,2,0,L|92:176,3,37,2|0|0|0,0:0|0:0|0:0|0:0,0:0:0:0:
60,168,7947,6,0,P|64:120|76:72,1,74,4|0,0:0|0:0,0:0:0:0:
156,28,8419,1,0,1:0:0:0:
156,28,8537,2,0,P|208:40|284:20,1,111,4|2,0:3|0:1,0:0:0:0:
376,40,9128,1,2,0:1:0:0:
316,132,9364,2,0,L|308:224,1,74,0|2,1:0|0:0,0:0:0:0:
208,252,9836,5,2,0:1:0:0:
296,316,10073,1,2,0:0:0:0:
296,316,10191,1,0,0:0:0:0:
296,316,10309,2,0,L|396:328,1,74,4|2,0:3|0:0,0:0:0:0:
460,260,10781,1,4,0:3:0:0:
424,152,11017,1,2,0:0:0:0:
424,152,11136,1,2,0:0:0:0:
424,152,11254,2,0,P|388:160|344:152,1,74,0|0,1:0|0:0,0:0:0:0:
252,108,11726,5,2,0:1:0:0:
176,188,11962,1,2,0:0:0:0:
176,188,12080,1,2,0:0:0:0:
176,188,12199,2,0,L|148:288,1,74,4|0,0:3|0:0,0:0:0:0:
56,308,12671,1,2,0:1:0:0:
52,196,12907,1,2,0:0:0:0:
144,112,13143,2,0,P|180:104|228:120,1,74,0|0,1:0|0:0,0:0:0:0:
324,184,13616,6,0,P|316:244|328:272,1,74,4|2,0:3|0:0,0:0:0:0:
356,300,13970,1,2,0:1:0:0:
356,300,14088,2,0,L|268:324,1,74,0|4,1:0|0:3,0:0:0:0:
36,144,15033,2,0,P|84:156|160:136,1,111,4|0,0:3|0:0,0:0:0:0:
176,112,15506,6,0,P|240:96|308:132,1,125.800002399445,4|0,0:0|0:0,0:0:0:0:
368,176,16214,2,0,P|348:244|360:312,1,125.800002399445,2|0,0:1|0:0,0:0:0:0:
424,364,16923,1,8,0:0:0:0:
332,384,17159,1,0,0:0:0:0:
248,336,17395,6,0,P|240:304|244:248,2,62.9000011997223,2|0|0,0:1|0:0|0:0,0:0:0:0:
164,376,18104,2,0,P|108:360|32:376,1,125.800002399445,2|0,0:1|0:0,0:0:0:0:
8,284,18813,2,0,L|12:200,1,62.9000011997223,8|0,0:0|0:0,0:0:0:0:
24,128,19285,6,0,P|84:144|156:120,1,125.800002399445,2|0,0:1|0:0,0:0:0:0:
228,84,19994,1,2,0:1:0:0:
228,84,20112,1,2,0:0:0:0:
228,84,20230,2,0,L|236:164,1,62.9000011997223,2|0,0:0|0:0,0:0:0:0:
312,200,20702,2,0,L|320:280,1,62.9000011997223,8|0,0:0|0:0,0:0:0:0:
368,344,21175,6,0,P|432:324|500:348,1,125.800002399445,2|8,0:1|0:0,0:0:0:0:
508,248,21884,2,0,B|516:200|516:200|480:120,1,125.800002399445,2|0,0:1|0:0,0:0:0:0:
428,52,22592,2,0,P|396:64|348:68,1,62.9000011997223,8|0,0:0|1:0,0:0:0:0:
268,24,23065,6,0,P|208:20|168:28,1,74,4|0,0:0|0:0,0:0:0:0:
84,24,23537,1,0,1:0:0:0:
8,104,23773,1,0,0:0:0:0:
72,196,24010,2,0,L|176:200,1,74,2|0,0:1|0:0,0:0:0:0:
292,108,24482,2,0,L|208:104,1,74,0|0,1:0|0:0,0:0:0:0:
164,100,24836,1,0,0:0:0:0:
164,100,24954,5,2,0:1:0:0:
80,172,25191,1,0,0:0:0:0:
160,248,25427,1,0,1:0:0:0:
268,252,25663,2,0,L|376:252,1,74,0|4,0:0|0:3,0:0:0:0:
452,260,26136,1,0,0:0:0:0:
496,156,26372,2,0,L|504:100,2,37,0|0|0,1:0|0:0|0:0,0:0:0:0:
360,172,26844,6,0,P|308:168|252:176,1,74,2|0,0:1|0:0,0:0:0:0:
176,192,27317,2,0,P|136:196|80:220,1,74,0|0,1:0|0:0,0:0:0:0:
60,244,27671,1,0,0:0:0:0:
60,244,27789,2,0,L|88:336,1,74,2|2,0:1|0:1,0:0:0:0:
180,368,28262,1,2,0:1:0:0:
248,256,28498,6,0,P|332:232|412:264,1,148,4|2,0:3|0:1,0:0:0:0:
492,288,29206,1,2,0:1:0:0:
420,172,29443,2,0,P|397:102|416:31,1,148,4|2,0:3|0:1,0:0:0:0:
304,40,30151,2,0,L|224:40,1,74,0|0,1:0|0:0,0:0:0:0:
112,112,30624,6,0,P|100:188|116:276,1,148,4|0,0:0|1:0,0:0:0:0:
168,352,31332,1,0,0:0:0:0:
252,280,31569,1,2,0:1:0:0:
344,340,31805,1,2,0:0:0:0:
344,340,31923,1,2,0:0:0:0:
344,340,32041,1,0,1:0:0:0:
428,268,32277,1,0,0:0:0:0:
424,156,32513,6,0,P|376:100|276:88,1,148,2|0,0:1|1:0,0:0:0:0:
200,120,33222,2,0,P|188:164|196:220,2,74,0|2|0,0:0|0:1|0:0,0:0:0:0:
140,28,33931,2,0,L|68:52,1,74,0|0,1:0|0:0,0:0:0:0:
20,160,34403,6,0,L|64:304,1,148,2|0,0:1|1:0,0:0:0:0:
156,364,35112,1,0,0:0:0:0:
240,292,35348,1,2,0:1:0:0:
332,352,35584,1,2,0:0:0:0:
332,352,35702,1,2,0:0:0:0:
332,352,35821,1,0,1:0:0:0:
368,248,36057,1,0,0:0:0:0:
320,148,36293,6,0,P|248:136|156:156,1,148,2|0,0:1|1:0,0:0:0:0:
72,188,37002,2,0,P|16:156|4:68,1,148,2|2,0:1|0:1,0:0:0:0:
8,52,37592,1,0,3:0:0:0:
28,28,37710,1,0,1:0:0:0:
140,44,37947,1,2,0:1:0:0:
140,44,38065,1,0,0:0:0:0:
140,44,38183,6,0,P|216:28|296:48,1,148,4|0,0:0|1:0,0:0:0:0:
372,108,38891,1,0,0:0:0:0:
360,220,39128,1,2,0:1:0:0:
264,164,39364,1,2,0:0:0:0:
264,164,39482,1,2,0:0:0:0:
264,164,39600,2,0,L|188:176,1,74,0|0,1:0|0:0,0:0:0:0:
88,216,40073,5,2,0:1:0:0:
176,284,40309,1,2,0:0:0:0:
176,284,40427,1,2,0:0:0:0:
176,284,40545,2,0,L|264:288,1,74,0|0,1:0|0:0,0:0:0:0:
352,328,41017,1,2,0:1:0:0:
392,224,41254,5,4,0:3:0:0:
376,116,41490,1,0,1:0:0:0:
296,40,41726,1,4,0:3:0:0:
112,164,42199,5,4,0:3:0:0:
128,272,42435,1,0,1:0:0:0:
208,348,42671,1,4,0:3:0:0:
428,324,43143,5,0,1:0:0:0:
468,220,43380,1,0,1:0:0:0:
424,92,43616,6,0,P|363:131|291:121,1,148,0|0,1:0|3:0,0:0:0:0:
276,116,44206,1,0,3:0:0:0:
260,112,44325,2,0,P|161:87|65:159,1,222,4|0,0:0|0:0,0:0:0:0:
12,248,45269,2,0,L|29:280,1,37,0|0,1:0|1:0,0:0:0:0:
192,332,45742,6,0,L|292:332,1,74,4|0,0:0|0:0,0:0:0:0:
360,276,46214,1,0,1:0:0:0:
452,336,46450,1,0,0:0:0:0:
504,236,46687,2,0,L|508:196,2,37,2|0|0,0:1|0:0|0:0,0:0:0:0:
400,196,47159,2,0,P|388:156|388:100,1,74,0|0,1:0|0:0,0:0:0:0:
392,96,47513,1,0,0:0:0:0:
408,72,47632,6,0,L|317:72,1,74,2|0,0:1|0:0,0:0:0:0:
228,108,48104,2,0,L|232:196,1,74,0|0,1:0|0:0,0:0:0:0:
136,240,48576,2,0,L|140:328,1,74,2|0,0:1|0:0,0:0:0:0:
244,352,49049,1,0,1:0:0:0:
244,352,49167,1,0,0:0:0:0:
244,352,49285,1,0,0:0:0:0:
348,312,49521,6,0,L|444:304,1,74,2|0,0:1|0:0,0:0:0:0:
504,208,49994,2,0,P|504:136|468:64,1,148,4|2,0:0|0:1,0:0:0:0:
372,16,50702,1,0,0:0:0:0:
280,76,50939,2,0,L|212:68,2,37,0|0|0,1:0|0:0|0:0,0:0:0:0:
344,168,51411,6,0,P|336:208|336:264,1,74,2|0,0:1|0:0,0:0:0:0:
368,348,51884,1,0,1:0:0:0:
448,272,52120,1,0,0:0:0:0:
334,241,52356,1,2,0:1:0:0:
334,241,52474,1,0,0:0:0:0:
334,241,52592,1,0,0:0:0:0:
248,312,52828,2,0,L|148:308,1,74,0|0,1:0|0:0,0:0:0:0:
40,248,53301,6,0,P|32:212|32:176,1,74,4|0,0:0|0:0,0:0:0:0:
40,148,53655,1,0,0:0:0:0:
52,120,53773,1,0,1:0:0:0:
136,44,54010,1,0,0:0:0:0:
164,152,54246,1,2,0:1:0:0:
252,84,54482,2,0,L|348:76,1,74,0|0,0:0|1:0,0:0:0:0:
428,124,54954,1,0,0:0:0:0:
356,208,55191,6,0,P|308:224|268:224,1,74,2|0,0:1|0:0,0:0:0:0:
252,216,55545,1,0,0:0:0:0:
220,204,55663,2,0,L|220:308,1,74,0|0,1:0|0:0,0:0:0:0:
128,344,56136,2,0,L|52:328,1,74,2|0,0:1|0:0,0:0:0:0:
0,232,56608,1,0,1:0:0:0:
8,120,56844,1,0,0:0:0:0:
80,36,57080,6,0,P|140:32|184:48,1,74,2|0,0:1|0:0,0:0:0:0:
252,84,57553,2,0,P|312:88|356:72,1,74,0|0,1:0|0:0,0:0:0:0:
424,36,58025,1,2,0:1:0:0:
424,36,58143,1,0,1:0:0:0:
424,36,58262,1,4,0:0:0:0:
496,120,58498,1,0,0:0:0:0:
472,228,58734,6,0,L|460:304,1,74,4|0,0:0|0:0,0:0:0:0:
344,364,59206,2,0,L|336:280,1,74,2|0,0:1|0:0,0:0:0:0:
240,152,59679,2,0,L|232:260,1,74,2|0,0:1|3:0,0:0:0:0:
232,252,60033,1,0,3:0:0:0:
228,276,60151,2,0,L|72:268,1,148,4|0,0:0|0:0,0:0:0:0:
172,352,60860,6,0,P|204:360|272:352,1,74,4|0,0:0|0:0,0:0:0:0:
336,296,61332,1,0,1:0:0:0:
356,188,61568,1,0,0:0:0:0:
296,92,61805,2,0,L|244:100,2,37,2|0|0,0:1|0:0|0:0,0:0:0:0:
388,32,62277,2,0,P|404:68|404:103,1,74,0|0,1:0|0:0,0:0:0:0:
400,128,62631,1,0,0:0:0:0:
388,152,62750,6,0,L|462:152,1,74,2|0,0:1|0:0,0:0:0:0:
504,256,63222,2,0,L|430:256,1,74,0|0,1:0|0:0,0:0:0:0:
320,248,63694,2,0,P|296:288|293:316,1,74,2|0,0:1|0:0,0:0:0:0:
392,364,64167,1,0,1:0:0:0:
392,364,64285,1,0,0:0:0:0:
392,364,64403,1,0,0:0:0:0:
293,314,64639,6,0,L|209:302,1,74,2|0,0:1|0:0,0:0:0:0:
88,284,65112,2,0,P|116:232|96:132,1,148,4|2,0:0|0:1,0:0:0:0:
24,72,65820,1,0,0:0:0:0:
128,32,66057,2,0,L|164:36,2,37,0|0|0,1:0|0:0|0:0,0:0:0:0:
192,124,66529,6,0,P|228:120|292:136,1,74,2|0,0:1|0:0,0:0:0:0:
340,208,67002,1,0,1:0:0:0:
428,140,67238,1,0,0:0:0:0:
344,68,67474,1,2,0:1:0:0:
344,68,67592,1,0,0:0:0:0:
344,68,67710,1,0,0:0:0:0:
428,140,67946,2,0,L|416:236,1,74,0|0,1:0|0:0,0:0:0:0:
272,304,68419,6,0,L|261:230,1,74,4|0,0:0|0:0,0:0:0:0:
256,205,68773,1,0,0:0:0:0:
252,180,68891,1,0,1:0:0:0:
148,144,69128,1,0,0:0:0:0:
148,256,69364,1,2,0:1:0:0:
272,304,69600,2,0,L|360:292,1,74,0|0,0:0|1:0,0:0:0:0:
496,188,70073,6,0,P|420:168|332:200,1,148,4|0,0:3|0:0,0:0:0:0:
252,228,70781,2,0,P|244:192|248:152,1,74,0|0,1:0|0:0,0:0:0:0:
148,104,71254,2,0,P|167:72|198:47,1,74,2|0,0:1|0:0,0:0:0:0:
308,52,71726,1,0,1:0:0:0:
200,168,71962,6,0,P|168:184|108:176,1,74,4|0,0:3|0:0,0:0:0:0:
8,256,72435,2,0,P|40:272|100:264,1,74,4|0,0:3|0:0,0:0:0:0:
236,324,72907,2,0,P|204:340|144:332,1,74,4|0,0:3|0:0,0:0:0:0:
77,272,73380,1,2,0:3:0:0:
20,176,73616,1,0,1:0:0:0:
140,180,73852,6,0,L|288:168,1,148,4|0,0:3|0:0,0:0:0:0:
408,116,74561,2,0,P|372:187|400:255,1,148,4|0,0:0|0:0,0:0:0:0:
393,247,75151,1,2,0:0:0:0:
393,247,75269,1,2,0:0:0:0:
456,340,75506,1,8,0:0:0:0:
304,312,75742,1,0,0:0:0:0:
304,312,75860,1,0,0:0:0:0:
304,312,75978,6,0,L|144:292,1,148,4|0,0:0|1:0,0:0:0:0:
56,244,76687,1,0,0:0:0:0:
144,176,76923,2,0,L|157:103,1,74,2|0,0:1|0:0,0:0:0:0:
252,160,77395,2,0,L|265:87,1,74,0|0,1:0|0:0,0:0:0:0:
372,52,77868,6,0,P|443:36|484:104,1,148,2|0,0:1|1:0,0:0:0:0:
512,196,78576,1,0,0:0:0:0:
448,288,78813,2,0,L|396:300,3,37,2|2|2|2,0:1|0:1|0:1|0:1,0:0:0:0:
356,300,79285,2,0,L|304:288,3,37,0|2|2|2,1:0|0:0|0:0|0:0,0:0:0:0:
268,276,79758,6,0,P|272:228|284:180,1,74,4|0,0:0|0:0,0:0:0:0:
340,96,80230,1,0,1:0:0:0:
340,96,80348,2,0,P|288:108|212:88,1,111,4|2,0:3|0:1,0:0:0:0:
140,36,80939,1,2,0:1:0:0:
112,144,81175,2,0,L|104:236,1,74,0|0,1:0|0:0,0:0:0:0:
168,308,81647,5,2,0:1:0:0:
60,332,81884,1,0,0:0:0:0:
236,360,82120,2,0,L|332:344,1,74,0|0,1:0|0:0,0:0:0:0:
333,341,82474,1,2,0:1:0:0:
358,334,82592,1,2,0:0:0:0:
416,232,82828,1,2,0:1:0:0:
384,124,83065,2,0,L|304:124,1,74,0|0,1:0|0:0,0:0:0:0:
168,152,83537,5,2,0:1:0:0:
80,220,83773,1,0,0:0:0:0:
80,220,83891,1,2,0:1:0:0:
80,220,84010,2,0,L|84:320,1,74,0|0,1:0|0:0,0:0:0:0:
164,368,84482,1,2,0:1:0:0:
256,304,84718,1,2,0:1:0:0:
356,352,84954,2,0,L|440:352,1,74,0|0,1:0|0:0,0:0:0:0:
488,256,85427,6,0,P|474:202|480:160,1,74,4|2,0:3|0:0,0:0:0:0:
500,136,85781,1,2,0:1:0:0:
500,136,85899,2,0,L|408:148,1,74,0|4,1:0|0:3,0:0:0:0:
316,128,86372,2,2,L|264:136,3,37
224,136,86844,2,0,L|188:120,1,37,2|2,0:1|0:1,0:0:0:0:
140,96,87080,5,4,0:0:0:0:
256,192,87199,12,0,89679,0:0:0:0:
