osu file format v13

[General]
AudioFilename: Cutie Panther - Love Live! - English Lyrics - Maki Niko & Eri.mp3
AudioLeadIn: 0
PreviewTime: 67584
Countdown: 0
SampleSet: None
StackLeniency: 0.7
Mode: 0
LetterboxInBreaks: 1
WidescreenStoryboard: 1

[Editor]
DistanceSpacing: 0.5
BeatDivisor: 4
GridSize: 4
TimelineZoom: 4.119998

[Metadata]
Title:Cutie Panther
TitleUnicode:Cutie Panther
Artist:BiBi
ArtistUnicode:BiBi
Creator:kakuru
Version:EX
Source:Love Live! School Idol project
Tags:love live μ's u's yazawa niko nisikino maki ayase eri 矢澤にこ 西木野真姫 絢瀬絵里
BeatmapID:532191
BeatmapSetID:181807

[Difficulty]
HPDrainRate:7
CircleSize:4
OverallDifficulty:7
ApproachRate:9
SliderMultiplier:2
SliderTickRate:1

[Events]
//Background and Video events
0,0,"BG.jpg",0,0
//Break Periods
2,167666,191219
2,211783,213807
//Storyboard Layer 0 (Background)
//Storyboard Layer 1 (Fail)
//Storyboard Layer 2 (Pass)
//Storyboard Layer 3 (Foreground)
//Storyboard Sound Samples

[TimingPoints]
4055,352.941176470588,4,1,0,85,1,0
49231,-90.9090909090909,4,1,0,85,0,0
54878,-100,4,1,0,85,0,0
92996,-100,4,1,0,85,0,1
92996,-100,4,1,0,85,0,0
125466,-100,4,1,0,85,0,0
128290,-100,4,1,0,85,0,0
138878,-90.9090909090909,4,1,0,85,0,0
142407,-100,4,1,0,80,0,1
167466,-100,4,1,0,80,0,0
194643,-100,4,1,0,80,0,0
197466,-90.9090909090909,4,1,0,80,0,0
198878,-100,4,1,0,80,0,0
204525,-100,4,1,0,80,0,0
207349,-90.9090909090909,4,1,0,80,0,0
211584,-100,4,1,0,80,0,0
217231,-100,4,1,0,80,0,1
236996,-100,4,1,0,80,0,0

[HitObjects]
368,88,4054,5,0,0:0:0:0:
128,336,4407,1,0,0:0:0:0:
416,332,4760,1,0,0:0:0:0:
96,76,5113,1,0,0:0:0:0:
324,232,5466,2,0,L|424:232,1,100
96,76,5819,1,0,0:0:0:0:
96,76,5907,1,0,0:0:0:0:
96,76,5996,1,0,0:0:0:0:
144,328,6172,6,0,P|192:292|204:256,1,100
264,156,6525,2,0,P|312:192|324:228,1,100
324,228,6878,1,0,0:0:0:0:
360,132,7054,1,0,0:0:0:0:
172,184,7231,2,0,L|172:240,2,50
220,332,7584,1,0,0:0:0:0:
220,332,7672,1,0,0:0:0:0:
220,332,7760,2,0,P|320:296|376:224,1,200
360,132,8290,1,0,0:0:0:0:
360,132,8378,1,0,0:0:0:0:
360,132,8466,1,0,0:0:0:0:
200,88,8643,6,0,L|96:88,1,100
192,200,8996,1,0,0:0:0:0:
320,240,9172,2,4,L|320:344,2,100
408,96,9702,5,0,0:0:0:0:
421,117,9790,1,0,0:0:0:0:
431,139,9878,1,0,0:0:0:0:
437,164,9966,1,0,0:0:0:0:
440,188,10054,1,0,0:0:0:0:
438,213,10143,1,0,0:0:0:0:
433,238,10231,1,0,0:0:0:0:
308,296,10407,5,0,0:0:0:0:
308,296,10496,1,0,0:0:0:0:
308,296,10584,2,0,P|208:260|152:188,1,200
200,88,11113,2,0,L|96:88,1,100
192,200,11466,1,0,0:0:0:0:
320,344,11643,2,0,L|320:240,1,100
270,169,11996,2,4,P|314:147|360:164,1,100
408,280,12349,5,0,0:0:0:0:
220,324,12525,2,0,L|180:292,2,50
240,68,12878,1,0,0:0:0:0:
240,68,12966,1,0,0:0:0:0:
240,68,13054,2,0,P|340:104|396:176,1,200
144,328,13584,2,0,P|192:292|204:256,1,100
312,224,13937,2,0,P|276:176|240:164,2,100
144,328,14466,1,0,0:0:0:0:
280,136,14643,6,0,L|380:136,1,100
272,324,14996,1,0,0:0:0:0:
252,308,15084,1,0,0:0:0:0:
232,296,15172,2,0,L|152:232,1,100
144,160,15525,5,0,0:0:0:0:
144,160,15613,1,0,0:0:0:0:
144,160,15702,2,0,L|244:160,1,100
408,296,16054,1,0,0:0:0:0:
264,304,16231,2,0,P|222:277|204:232,1,100
248,120,16584,2,0,P|293:138|320:180,1,100
224,304,16937,5,0,0:0:0:0:
224,304,17025,1,0,0:0:0:0:
224,304,17113,2,0,L|224:204,1,100
360,160,17466,1,0,0:0:0:0:
360,160,17554,1,0,0:0:0:0:
360,160,17643,1,0,0:0:0:0:
148,308,17819,2,0,L|48:308,1,100
144,172,18172,1,0,0:0:0:0:
332,244,18349,6,0,B|353:279|377:262|404:304,1,100
220,344,18702,1,0,0:0:0:0:
148,308,18878,1,0,0:0:0:0:
88,260,19054,1,0,0:0:0:0:
144,160,19231,2,0,L|244:160,1,100
416,220,19584,5,0,0:0:0:0:
396,232,19672,1,0,0:0:0:0:
376,248,19760,1,0,0:0:0:0:
356,260,19849,1,0,0:0:0:0:
336,276,19937,2,0,L|252:336,1,100
224,76,20290,1,0,0:0:0:0:
260,232,20466,1,0,0:0:0:0:
352,128,20643,1,0,0:0:0:0:
136,176,20819,1,0,0:0:0:0:
236,336,20996,5,0,0:0:0:0:
236,336,21084,1,0,0:0:0:0:
236,336,21172,2,0,L|336:336,1,100
420,188,21525,1,0,0:0:0:0:
136,176,21702,2,0,P|88:212|76:248,2,100
284,256,22231,6,0,L|384:256,1,100
312,80,22584,1,0,0:0:0:0:
136,176,22760,2,0,L|236:176,1,100
264,304,23113,1,0,0:0:0:0:
264,304,23202,1,0,0:0:0:0:
264,304,23290,2,0,P|228:248|200:224,2,100
312,232,23819,2,0,L|412:232,1,100
384,96,24172,1,0,0:0:0:0:
352,116,24349,1,0,0:0:0:0:
308,140,24525,1,0,0:0:0:0:
268,172,24702,1,0,0:0:0:0:
208,243,24878,6,0,P|162:262|136:304,1,100
292,312,25231,2,0,L|392:312,1,100
448,160,25584,2,0,L|348:160,1,100
128,128,25937,1,0,0:0:0:0:
128,152,26025,1,0,0:0:0:0:
128,176,26113,1,0,0:0:0:0:
128,200,26202,1,0,0:0:0:0:
128,224,26290,1,0,0:0:0:0:
224,292,26466,6,0,P|250:250|296:232,1,100
408,140,26819,2,0,L|308:140,1,100
295,232,27172,2,0,P|314:277|356:304,1,100
408,144,27525,1,0,0:0:0:0:
120,228,27702,2,0,B|155:207|138:183|180:156,1,100
395,240,28054,6,0,P|437:266|456:312,1,100
300,316,28407,2,0,L|200:316,1,100
40,216,28760,1,0,0:0:0:0:
180,96,28937,1,0,0:0:0:0:
184,328,29113,1,0,0:0:0:0:
292,224,29290,1,0,0:0:0:0:
40,216,29466,1,0,0:0:0:0:
236,336,29643,5,0,0:0:0:0:
236,336,29731,1,0,0:0:0:0:
236,336,29819,2,0,L|336:336,1,100
312,132,30172,2,0,P|357:150|383:192,1,100
220,247,30525,2,0,P|178:221|160:176,1,100
155,80,30878,2,0,P|256:63|356:75,1,200
372,188,31407,5,0,0:0:0:0:
372,212,31496,1,0,0:0:0:0:
372,236,31584,2,0,L|372:336,1,100
212,328,31937,1,0,0:0:0:0:
212,328,32113,2,0,P|186:285|140:267,1,100
136,96,32466,5,0,0:0:0:0:
76,324,32643,1,0,0:0:0:0:
320,324,32819,1,0,0:0:0:0:
392,96,32996,1,0,0:0:0:0:
264,188,33172,1,0,0:0:0:0:
264,188,33260,1,0,0:0:0:0:
264,188,33349,2,0,L|264:88,1,100
355,252,33702,6,0,P|251:275|165:243,1,200
345,151,34231,2,0,B|366:116|390:133|420:88,1,100
420,88,34584,1,0,0:0:0:0:
416,312,34760,1,0,0:0:0:0:
192,344,34937,6,2,P|166:301|120:283,1,100
188,44,35290,2,2,P|162:86|116:104,1,100
364,192,35643,2,2,L|464:192,1,100
244,104,35996,2,2,L|144:104,1,100
144,104,36349,1,0,0:0:0:0:
36,176,36525,5,0,0:0:0:0:
44,200,36613,1,0,0:0:0:0:
52,224,36702,1,0,0:0:0:0:
64,244,36790,1,0,0:0:0:0:
76,268,36878,1,0,0:0:0:0:
92,288,36966,1,0,0:0:0:0:
116,300,37054,1,0,0:0:0:0:
140,308,37143,1,0,0:0:0:0:
164,312,37231,1,0,0:0:0:0:
188,312,37319,1,0,0:0:0:0:
212,304,37407,1,0,0:0:0:0:
364,212,37584,6,0,P|338:169|292:151,1,100
132,208,37937,2,2,P|168:108|240:52,1,200
400,296,38643,1,0,0:0:0:0:
400,296,38731,1,0,0:0:0:0:
400,296,38819,1,0,0:0:0:0:
144,104,38996,2,0,L|244:104,1,100
408,140,39349,5,0,0:0:0:0:
408,164,39437,1,0,0:0:0:0:
400,188,39525,1,0,0:0:0:0:
392,212,39613,1,0,0:0:0:0:
380,236,39702,1,0,0:0:0:0:
368,260,39790,1,0,0:0:0:0:
352,280,39878,1,0,0:0:0:0:
332,292,39966,1,0,0:0:0:0:
308,304,40054,1,0,0:0:0:0:
92,88,40231,2,0,L|192:88,1,100
156,248,40584,2,0,B|194:277|206:269|232:312,1,100
248,192,40937,6,0,P|296:156|308:120,2,100
428,284,41466,1,0,0:0:0:0:
396,80,41643,1,0,0:0:0:0:
248,196,41819,1,0,0:0:0:0:
88,68,41996,2,0,L|188:68,1,100
116,268,42349,5,0,0:0:0:0:
116,268,42437,1,0,0:0:0:0:
116,268,42525,2,0,L|204:320,1,100
256,48,42878,1,0,0:0:0:0:
256,304,43054,1,0,0:0:0:0:
380,176,43231,1,0,0:0:0:0:
120,184,43407,1,0,0:0:0:0:
380,176,43584,6,2,P|344:276|272:332,1,200
64,72,44290,1,0,0:0:0:0:
64,72,44378,1,0,0:0:0:0:
64,72,44466,1,0,0:0:0:0:
304,112,44643,2,0,B|341:140|353:132|379:175,1,100
144,244,44996,5,0,0:0:0:0:
156,268,45084,1,0,0:0:0:0:
168,288,45172,1,0,0:0:0:0:
188,304,45260,1,0,0:0:0:0:
212,316,45349,1,0,0:0:0:0:
236,328,45437,1,0,0:0:0:0:
260,336,45525,1,0,0:0:0:0:
284,344,45613,1,0,0:0:0:0:
308,344,45702,1,0,0:0:0:0:
352,232,45878,6,0,B|380:194|372:182|415:156,1,100
136,72,46231,2,0,L|236:72,1,100
352,232,46584,1,0,0:0:0:0:
172,340,46760,1,0,0:0:0:0:
188,136,46937,1,0,0:0:0:0:
392,48,47113,1,0,0:0:0:0:
236,244,47290,2,0,L|136:244,2,100
88,84,47819,5,0,0:0:0:0:
88,84,47907,1,0,0:0:0:0:
88,84,47996,1,0,0:0:0:0:
312,307,48172,2,0,B|286:264|274:272|236:244,1,100
391,48,48525,2,0,B|348:74|356:86|328:124,1,100
96,280,48878,1,0,0:0:0:0:
96,280,48966,1,0,0:0:0:0:
96,280,49054,1,0,0:0:0:0:
312,312,49231,5,0,0:0:0:0:
352,292,49319,1,0,0:0:0:0:
392,272,49407,1,0,0:0:0:0:
152,208,49584,2,0,L|248:264,1,110.000003356934
200,72,49937,1,0,0:0:0:0:
160,92,50025,1,0,0:0:0:0:
120,112,50113,1,0,0:0:0:0:
396,116,50290,2,0,L|296:60,1,110.000003356934
80,100,50643,5,2,0:0:0:0:
204,332,50996,1,2,0:0:0:0:
376,100,51349,1,2,0:0:0:0:
456,328,51702,1,2,0:0:0:0:
136,248,52054,5,0,0:0:0:0:
156,288,52143,1,0,0:0:0:0:
176,328,52231,1,0,0:0:0:0:
332,272,52407,2,0,L|420:204,1,110.000003356934
376,136,52760,1,0,0:0:0:0:
356,96,52849,1,0,0:0:0:0:
336,56,52937,1,0,0:0:0:0:
152,92,53113,2,0,L|76:172,1,110.000003356934
256,76,53466,5,2,0:0:0:0:
112,284,53819,1,2,0:0:0:0:
404,324,54172,1,2,0:0:0:0:
480,108,54525,1,2,0:0:0:0:
204,312,54878,5,0,0:0:0:0:
204,312,55054,1,0,0:0:0:0:
204,312,55231,2,0,L|104:312,1,100
276,164,55584,2,0,B|250:121|238:129|200:100,1,100
320,284,55937,2,0,P|366:265|392:223,1,100
208,220,56290,2,0,L|108:220,1,100
288,68,56643,2,0,L|388:68,1,100
420,244,56996,5,0,0:0:0:0:
420,244,57084,1,0,0:0:0:0:
420,244,57172,2,0,P|393:285|348:304,1,100
48,296,57525,1,0,0:0:0:0:
180,80,57702,1,0,0:0:0:0:
292,304,57878,1,0,0:0:0:0:
360,88,58054,1,0,0:0:0:0:
20,88,58231,1,0,0:0:0:0:
164,296,58407,2,0,B|199:275|182:251|224:224,1,100
360,88,58760,1,0,0:0:0:0:
356,303,58937,6,0,P|255:320|155:308,1,200
248,168,59466,2,0,L|352:168,2,100
456,184,59996,1,0,0:0:0:0:
456,184,60084,1,0,0:0:0:0:
456,184,60172,2,0,L|456:84,1,100
260,44,60525,5,0,0:0:0:0:
96,200,60702,1,0,0:0:0:0:
252,336,60878,1,0,0:0:0:0:
412,192,61054,1,0,0:0:0:0:
260,44,61231,1,0,0:0:0:0:
96,200,61407,1,0,0:0:0:0:
252,336,61584,2,0,L|356:336,1,100
260,44,61937,5,0,0:0:0:0:
412,192,62113,1,0,0:0:0:0:
252,336,62290,1,0,0:0:0:0:
96,200,62466,1,0,0:0:0:0:
260,44,62643,1,0,0:0:0:0:
412,192,62819,1,0,0:0:0:0:
252,336,62996,2,0,L|252:236,1,100
440,164,63349,5,0,0:0:0:0:
440,164,63437,1,0,0:0:0:0:
440,164,63525,2,0,L|372:236,1,100
252,324,63878,2,0,L|356:324,2,100
168,128,64407,2,0,P|209:155|228:200,1,100
0,248,64760,5,0,0:0:0:0:
20,233,64849,1,0,0:0:0:0:
38,216,64937,1,0,0:0:0:0:
56,198,65025,1,0,0:0:0:0:
74,181,65113,1,0,0:0:0:0:
91,163,65202,1,0,0:0:0:0:
110,146,65290,1,0,0:0:0:0:
129,130,65378,1,0,0:0:0:0:
150,116,65466,1,0,0:0:0:0:
172,106,65554,1,0,0:0:0:0:
197,99,65643,5,0,0:0:0:0:
221,98,65731,1,0,0:0:0:0:
246,104,65819,1,0,0:0:0:0:
268,116,65907,1,0,0:0:0:0:
286,133,65996,1,0,0:0:0:0:
300,153,66084,1,0,0:0:0:0:
312,175,66172,1,0,0:0:0:0:
321,198,66260,1,0,0:0:0:0:
330,222,66349,1,0,0:0:0:0:
339,245,66437,1,0,0:0:0:0:
349,268,66525,5,0,0:0:0:0:
363,289,66613,1,0,0:0:0:0:
382,305,66702,1,0,0:0:0:0:
405,315,66790,1,0,0:0:0:0:
429,317,66878,1,0,0:0:0:0:
452,308,66966,1,0,0:0:0:0:
464,288,67054,1,0,0:0:0:0:
476,268,67143,1,0,0:0:0:0:
488,248,67231,2,0,L|504:200,2,50
288,320,67584,6,2,P|188:340|88:316,1,200
164,116,68113,1,0,0:0:0:0:
164,116,68202,1,0,0:0:0:0:
164,116,68290,2,0,L|92:48,1,100
192,244,68643,2,0,P|165:285|120:304,1,100
119,304,68996,1,0,0:0:0:0:
164,116,69172,2,0,P|191:75|236:56,1,100
324,224,69525,2,2,L|424:224,2,100
240,88,70054,1,0,0:0:0:0:
240,88,70143,1,0,0:0:0:0:
240,88,70231,1,4,0:0:0:0:
91,221,70407,6,0,B|46:251|63:275|28:296,1,100
240,88,70760,2,4,L|340:88,1,100
472,144,71113,2,4,P|445:185|400:204,1,100
256,164,71466,2,4,L|256:264,1,100
352,316,71819,6,0,P|252:336|152:312,1,200
157,314,72349,1,0,0:0:0:0:
157,314,72437,1,0,0:0:0:0:
157,314,72525,1,0,0:0:0:0:
384,172,72702,2,4,P|357:213|312:232,2,100
164,116,73231,6,2,B|92:200|128:216|56:296,1,200
272,316,73760,1,0,0:0:0:0:
272,316,73849,1,0,0:0:0:0:
272,316,73937,1,0,0:0:0:0:
52,84,74113,1,8,0:0:0:0:
436,80,74290,1,8,0:0:0:0:
276,136,74643,6,2,B|360:208|376:172|456:244,1,200
204,320,75172,1,0,0:0:0:0:
204,320,75260,1,0,0:0:0:0:
204,320,75349,1,0,0:0:0:0:
416,320,75525,1,8,0:0:0:0:
52,324,75702,1,8,0:0:0:0:
240,88,75878,2,4,L|340:88,1,100
160,228,76231,2,2,P|133:269|88:288,1,100
268,248,76584,2,2,P|309:275|328:320,1,100
328,320,76937,1,0,0:0:0:0:
172,144,77113,2,2,L|72:144,1,100
72,144,77466,1,0,0:0:0:0:
364,216,77643,6,0,B|394:261|418:244|439:279,2,100
84,276,78172,1,0,0:0:0:0:
84,276,78260,1,0,0:0:0:0:
84,276,78349,2,0,P|184:292|284:281,1,200
124,80,78878,6,2,P|224:60|324:84,1,200
348,268,79407,1,0,0:0:0:0:
348,268,79496,1,0,0:0:0:0:
348,268,79584,2,0,L|420:336,1,100
144,228,79937,2,2,P|117:269|72:288,1,100,0|2,0:0|0:0,0:0:0:0:
116,144,80290,2,4,L|216:144,1,100
216,144,80643,1,0,0:0:0:0:
392,188,80819,2,2,P|433:215|452:260,2,100
116,144,81349,1,0,0:0:0:0:
116,144,81437,1,0,0:0:0:0:
116,144,81525,1,0,0:0:0:0:
312,228,81702,6,4,L|312:328,1,100
216,144,82054,2,4,L|116:144,1,100
104,268,82407,2,0,B|134:313|158:296|179:331,1,100
364,128,82760,1,0,0:0:0:0:
400,316,82937,5,0,0:0:0:0:
400,316,83025,1,0,0:0:0:0:
400,316,83113,2,0,L|332:244,1,100
216,144,83466,2,4,L|116:144,1,100
192,320,83819,1,0,0:0:0:0:
192,320,83907,1,0,0:0:0:0:
192,320,83996,1,0,0:0:0:0:
424,200,84172,2,2,P|383:173|364:128,1,100,0|2,0:0|0:0,0:0:0:0:
164,116,84525,6,2,B|92:200|128:216|56:296,1,200
272,316,85054,1,0,0:0:0:0:
272,316,85143,1,0,0:0:0:0:
272,316,85231,1,0,0:0:0:0:
52,84,85407,1,8,0:0:0:0:
436,80,85584,1,8,0:0:0:0:
100,228,85937,6,2,B|184:156|200:192|280:120,1,200
352,220,86466,1,0,0:0:0:0:
352,220,86554,1,0,0:0:0:0:
352,220,86643,1,0,0:0:0:0:
120,72,86819,1,8,0:0:0:0:
248,320,86996,2,8,L|348:320,1,100
208,120,87349,6,0,P|167:147|148:192,1,100
304,264,87702,2,0,P|345:237|364:192,1,100
208,120,88054,2,0,P|167:147|148:192,1,100
304,264,88407,2,0,P|345:237|364:192,1,100
224,88,88760,5,0,0:0:0:0:
208,100,88849,1,0,0:0:0:0:
188,116,88937,1,0,0:0:0:0:
172,136,89025,1,0,0:0:0:0:
160,156,89113,1,0,0:0:0:0:
148,176,89202,1,0,0:0:0:0:
136,200,89290,1,0,0:0:0:0:
232,256,89466,2,0,P|250:301|292:328,1,100
352,184,89819,2,0,L|452:184,1,100
360,72,90172,5,0,0:0:0:0:
340,65,90260,1,0,0:0:0:0:
320,61,90349,1,0,0:0:0:0:
299,59,90437,1,0,0:0:0:0:
279,59,90525,1,0,0:0:0:0:
259,63,90613,1,0,0:0:0:0:
239,69,90702,1,0,0:0:0:0:
116,152,90878,2,0,L|216:152,1,100
256,272,91231,1,0,0:0:0:0:
256,272,91319,1,0,0:0:0:0:
256,272,91407,1,0,0:0:0:0:
304,152,91584,5,0,0:0:0:0:
376,256,91760,1,0,0:0:0:0:
424,124,91937,1,0,0:0:0:0:
488,232,92113,1,0,0:0:0:0:
176,192,92290,2,0,P|108:256|164:324,1,200
488,232,92819,5,0,0:0:0:0:
488,232,92907,1,0,0:0:0:0:
488,232,92996,1,0,0:0:0:0:
336,156,93172,2,0,P|295:183|276:228,2,100
200,312,93702,1,0,0:0:0:0:
180,296,93790,1,0,0:0:0:0:
160,284,93878,1,0,0:0:0:0:
140,272,93966,1,0,0:0:0:0:
120,256,94054,1,0,0:0:0:0:
104,236,94143,1,0,0:0:0:0:
92,212,94231,1,0,0:0:0:0:
436,152,94407,6,0,L|336:152,1,100
296,216,94760,1,0,0:0:0:0:
296,216,94849,1,0,0:0:0:0:
296,216,94937,1,0,0:0:0:0:
424,284,95113,2,0,P|492:220|436:152,1,200
304,300,95819,1,0,0:0:0:0:
285,283,95907,1,0,0:0:0:0:
262,272,95996,1,0,0:0:0:0:
238,267,96084,1,0,0:0:0:0:
213,268,96172,1,0,0:0:0:0:
188,271,96260,1,0,0:0:0:0:
163,274,96349,1,0,0:0:0:0:
139,271,96437,1,0,0:0:0:0:
116,268,96525,2,0,L|68:248,2,50
184,88,96878,5,0,0:0:0:0:
244,200,97054,1,0,0:0:0:0:
340,84,97231,1,0,0:0:0:0:
184,88,97407,1,0,0:0:0:0:
352,244,97584,2,0,P|379:285|424:304,1,100
184,88,97937,1,0,0:0:0:0:
184,88,98025,1,0,0:0:0:0:
184,88,98113,1,0,0:0:0:0:
184,88,98202,1,0,0:0:0:0:
184,88,98290,2,0,L|84:88,1,100
56,280,98643,5,0,0:0:0:0:
56,280,98731,1,0,0:0:0:0:
56,280,98819,1,0,0:0:0:0:
328,300,98996,1,0,0:0:0:0:
328,300,99084,1,0,0:0:0:0:
328,300,99172,2,0,B|298:254|274:271|253:236,1,100
168,268,99525,5,0,0:0:0:0:
152,248,99613,1,0,0:0:0:0:
140,224,99702,1,0,0:0:0:0:
128,200,99790,1,0,0:0:0:0:
124,176,99878,1,0,0:0:0:0:
260,188,100054,2,0,L|360:188,1,100
248,108,100407,2,0,P|184:40|116:96,2,200
144,220,101643,6,0,L|44:220,1,100
144,76,101996,1,0,0:0:0:0:
280,140,102172,1,0,0:0:0:0:
144,220,102349,1,0,0:0:0:0:
144,76,102525,1,0,0:0:0:0:
280,140,102702,2,0,L|380:140,1,100
220,261,103054,6,0,B|174:291|191:315|156:336,2,100
420,336,103584,1,0,0:0:0:0:
324,305,103760,1,0,0:0:0:0:
420,174,103937,1,0,0:0:0:0:
478,255,104113,1,0,0:0:0:0:
324,205,104290,2,0,P|304:156|320:112,1,100
188,179,104643,2,0,P|208:228|192:272,1,100
276,92,104996,2,0,L|376:92,1,100
324,208,105349,2,0,B|354:254|378:237|399:272,1,100
130,280,105702,5,0,0:0:0:0:
146,299,105790,1,0,0:0:0:0:
163,317,105878,1,0,0:0:0:0:
184,332,105966,1,0,0:0:0:0:
208,340,106054,2,0,B|228:312|264:312|292:288,1,100
188,176,106407,2,0,L|88:176,1,100
280,240,106760,2,0,P|313:275|362:279,1,100
396,156,107113,1,0,0:0:0:0:
188,176,107290,5,0,0:0:0:0:
324,312,107466,1,0,0:0:0:0:
288,116,107643,2,0,L|216:48,1,100
88,176,107996,2,0,L|188:176,1,100
324,312,108349,1,0,0:0:0:0:
324,312,108437,1,0,0:0:0:0:
324,312,108525,2,0,P|236:352|147:312,1,200
240,268,109054,2,0,L|240:168,1,100
384,132,109407,1,0,0:0:0:0:
240,244,109584,1,0,0:0:0:0:
368,260,109760,1,0,0:0:0:0:
256,120,109937,5,0,0:0:0:0:
256,120,110025,1,0,0:0:0:0:
256,120,110113,2,0,L|188:192,1,100
332,328,110466,1,0,0:0:0:0:
444,240,110643,1,0,0:0:0:0:
332,152,110819,1,0,0:0:0:0:
236,248,110996,2,0,L|136:248,1,100
52,144,111349,5,0,0:0:0:0:
70,127,111437,1,0,0:0:0:0:
92,116,111525,1,0,0:0:0:0:
117,117,111613,1,0,0:0:0:0:
138,130,111702,1,0,0:0:0:0:
155,149,111790,1,0,0:0:0:0:
169,170,111878,1,0,0:0:0:0:
180,192,111966,1,0,0:0:0:0:
190,215,112054,1,0,0:0:0:0:
199,238,112143,1,0,0:0:0:0:
210,260,112231,1,0,0:0:0:0:
225,281,112319,1,0,0:0:0:0:
244,300,112407,2,0,P|308:336|352:336,1,100
420,192,112760,6,2,L|320:192,1,100
320,192,113113,1,12,0:0:0:0:
256,28,113466,2,2,L|256:128,1,100
256,128,113819,1,12,0:0:0:0:
420,192,114172,5,0,0:0:0:0:
399,205,114260,1,0,0:0:0:0:
377,218,114349,1,0,0:0:0:0:
354,228,114437,1,0,0:0:0:0:
331,236,114525,1,0,0:0:0:0:
306,240,114613,1,0,0:0:0:0:
281,240,114702,1,0,0:0:0:0:
256,237,114790,1,0,0:0:0:0:
231,233,114878,5,0,0:0:0:0:
206,232,114966,1,0,0:0:0:0:
182,235,115054,1,0,0:0:0:0:
157,241,115143,1,0,0:0:0:0:
135,251,115231,1,0,0:0:0:0:
113,263,115319,1,0,0:0:0:0:
92,278,115407,1,0,0:0:0:0:
73,293,115496,1,0,0:0:0:0:
54,310,115584,1,0,0:0:0:0:
192,324,115760,6,0,L|292:324,2,100
340,228,116290,2,0,B|375:207|358:183|400:156,1,100
228,60,116643,1,0,0:0:0:0:
228,60,116731,1,0,0:0:0:0:
228,60,116819,2,0,L|228:164,1,100
324,312,117172,1,0,0:0:0:0:
324,312,117260,1,0,0:0:0:0:
324,312,117349,2,0,P|236:352|147:312,1,200
256,244,117878,2,0,L|336:184,1,100
336,184,118231,1,0,0:0:0:0:
192,192,118407,6,2,L|92:192,1,100
92,192,118760,1,12,0:0:0:0:
256,256,119113,2,2,L|256:356,1,100
256,356,119466,1,12,0:0:0:0:
420,232,119819,5,0,0:0:0:0:
400,216,119907,1,0,0:0:0:0:
379,202,119996,1,0,0:0:0:0:
356,192,120084,1,0,0:0:0:0:
333,183,120172,1,0,0:0:0:0:
309,176,120260,1,0,0:0:0:0:
285,169,120349,1,0,0:0:0:0:
261,162,120437,5,0,0:0:0:0:
238,153,120525,1,0,0:0:0:0:
215,142,120613,1,0,0:0:0:0:
194,128,120702,1,0,0:0:0:0:
176,111,120790,1,0,0:0:0:0:
161,92,120878,1,0,0:0:0:0:
160,224,121054,2,0,B|125:245|142:269|96:299,1,100
264,320,121407,5,0,0:0:0:0:
240,152,121584,1,0,0:0:0:0:
416,228,121760,1,0,0:0:0:0:
368,96,121937,1,0,0:0:0:0:
264,320,122113,2,0,L|364:320,1,100
240,152,122466,6,0,P|192:172|176:216,1,100
176,240,122731,1,0,0:0:0:0:
168,264,122819,1,0,0:0:0:0:
156,288,122907,1,0,0:0:0:0:
144,308,122996,1,0,0:0:0:0:
48,216,123172,2,0,L|48:116,1,100
240,152,123525,1,0,0:0:0:0:
240,152,123613,1,0,0:0:0:0:
240,152,123702,2,0,P|289:172|333:156,1,100
200,72,124054,5,0,0:0:0:0:
160,92,124143,1,0,0:0:0:0:
120,112,124231,1,0,0:0:0:0:
304,124,124407,5,0,0:0:0:0:
344,144,124496,1,0,0:0:0:0:
384,164,124584,1,0,0:0:0:0:
224,212,124760,2,0,L|124:212,1,100
252,284,125113,2,0,L|352:284,1,100
80,100,125466,5,2,0:0:0:0:
204,332,125819,1,2,0:0:0:0:
376,100,126172,1,2,0:0:0:0:
456,304,126525,1,2,0:0:0:0:
176,192,126878,5,0,0:0:0:0:
136,212,126966,1,0,0:0:0:0:
96,232,127054,1,0,0:0:0:0:
280,244,127231,5,0,0:0:0:0:
320,264,127319,1,0,0:0:0:0:
360,284,127407,1,0,0:0:0:0:
184,128,127584,2,0,L|184:228,1,100
272,192,127937,2,0,L|272:92,1,100
432,100,128290,5,2,0:0:0:0:
308,332,128643,1,2,0:0:0:0:
136,100,128996,1,2,0:0:0:0:
56,328,129349,1,2,0:0:0:0:
240,272,129702,6,0,L|140:272,1,100
320,192,130054,2,0,L|420:192,1,100
220,120,130407,2,0,P|174:138|147:180,1,100
8,144,130760,1,0,0:0:0:0:
40,312,130937,1,0,0:0:0:0:
152,196,131113,1,0,0:0:0:0:
324,208,131290,2,0,B|354:254|378:237|399:272,1,100
248,344,131643,1,0,0:0:0:0:
152,196,131819,1,0,0:0:0:0:
40,312,131996,1,0,0:0:0:0:
40,312,132084,1,0,0:0:0:0:
40,312,132172,2,0,L|144:312,1,100
240,88,132525,5,0,0:0:0:0:
360,252,132702,1,0,0:0:0:0:
168,284,132878,1,0,0:0:0:0:
360,252,133054,1,0,0:0:0:0:
188,176,133231,2,0,P|142:157|115:115,1,100
444,108,133584,2,0,L|344:108,1,100
256,292,133937,1,0,0:0:0:0:
116,108,134113,1,0,0:0:0:0:
60,312,134290,1,0,0:0:0:0:
268,124,134466,1,0,0:0:0:0:
268,124,134643,2,0,L|368:124,2,100,0|0|0,0:0|0:0|0:0,0:0:0:0:
400,300,135349,5,0,0:0:0:0:
148,72,135525,1,0,0:0:0:0:
108,292,135702,1,0,0:0:0:0:
380,92,135878,1,0,0:0:0:0:
400,300,136054,1,0,0:0:0:0:
148,72,136231,1,0,0:0:0:0:
108,292,136407,2,0,L|208:292,1,100
380,92,136760,5,0,0:0:0:0:
108,292,136937,1,0,0:0:0:0:
400,300,137113,1,0,0:0:0:0:
148,72,137290,1,0,0:0:0:0:
108,292,137466,1,0,0:0:0:0:
380,92,137643,1,0,0:0:0:0:
400,300,137819,2,0,L|304:264,1,100
256,140,138172,2,0,L|256:84,1,50
316,192,138349,2,0,L|368:192,1,50
256,244,138525,2,0,L|256:296,1,50
200,192,138702,1,0,0:0:0:0:
348,56,138878,1,0,0:0:0:0:
352,56,138966,1,0,0:0:0:0:
353,59,139054,2,0,L|452:108,2,110.000003356934,0|0|0,0:0|0:0|0:0,0:0:0:0:
512,136,139584,5,0,0:0:0:0:
492,151,139672,1,0,0:0:0:0:
474,168,139760,1,0,0:0:0:0:
456,186,139849,1,0,0:0:0:0:
438,203,139937,1,0,0:0:0:0:
421,221,140025,1,0,0:0:0:0:
402,238,140113,1,0,0:0:0:0:
383,254,140202,1,0,0:0:0:0:
362,268,140290,1,0,0:0:0:0:
340,278,140378,1,0,0:0:0:0:
315,285,140466,5,0,0:0:0:0:
291,286,140554,1,0,0:0:0:0:
266,280,140643,1,0,0:0:0:0:
244,268,140731,1,0,0:0:0:0:
226,251,140819,1,0,0:0:0:0:
212,231,140907,1,0,0:0:0:0:
200,209,140996,1,0,0:0:0:0:
191,186,141084,1,0,0:0:0:0:
182,162,141172,1,0,0:0:0:0:
173,139,141260,1,0,0:0:0:0:
163,116,141349,5,0,0:0:0:0:
149,95,141437,1,0,0:0:0:0:
130,79,141525,1,0,0:0:0:0:
107,69,141613,1,0,0:0:0:0:
83,67,141702,1,0,0:0:0:0:
60,76,141790,1,0,0:0:0:0:
48,96,141878,1,0,0:0:0:0:
36,116,141966,1,0,0:0:0:0:
288,320,142407,6,2,P|188:340|88:316,1,200
164,116,142937,1,0,0:0:0:0:
164,116,143025,1,0,0:0:0:0:
164,116,143113,2,0,L|92:48,1,100
192,244,143466,2,0,P|165:285|120:304,1,100
119,304,143819,1,0,0:0:0:0:
164,116,143996,2,0,P|191:75|236:56,1,100
324,224,144349,2,2,L|424:224,2,100
240,88,144878,1,0,0:0:0:0:
240,88,144966,1,0,0:0:0:0:
240,88,145054,1,4,0:0:0:0:
91,221,145231,6,0,B|46:251|63:275|28:296,1,100
240,88,145584,2,4,L|340:88,1,100
472,144,145937,2,4,P|445:185|400:204,1,100
256,164,146290,2,4,L|256:264,1,100
352,316,146643,6,0,P|252:336|152:312,1,200
157,314,147172,1,0,0:0:0:0:
157,314,147260,1,0,0:0:0:0:
157,314,147349,1,0,0:0:0:0:
384,172,147525,2,4,P|357:213|312:232,2,100
164,116,148054,6,2,B|92:200|128:216|56:296,1,200
272,316,148584,1,0,0:0:0:0:
272,316,148672,1,0,0:0:0:0:
272,316,148760,1,0,0:0:0:0:
52,84,148937,1,8,0:0:0:0:
436,80,149113,1,8,0:0:0:0:
204,316,149290,1,0,0:0:0:0:
276,136,149466,6,2,B|360:208|376:172|447:236,1,200
308,320,149996,1,0,0:0:0:0:
308,320,150084,1,0,0:0:0:0:
308,320,150172,1,0,0:0:0:0:
96,320,150349,1,8,0:0:0:0:
460,324,150525,1,8,0:0:0:0:
272,88,150702,2,4,L|172:88,1,100
352,228,151054,2,2,P|379:269|424:288,1,100
244,248,151407,2,2,P|203:275|184:320,1,100
184,320,151760,1,0,0:0:0:0:
340,144,151937,2,2,L|440:144,1,100
148,216,152290,6,0,B|118:261|94:244|73:279,2,100
148,216,152819,1,0,0:0:0:0:
384,300,152996,1,0,0:0:0:0:
384,300,153084,1,0,0:0:0:0:
384,300,153172,2,0,P|283:316|183:305,1,200
388,80,153702,6,2,P|288:60|188:84,1,200
164,268,154231,1,0,0:0:0:0:
164,268,154319,1,0,0:0:0:0:
164,268,154407,2,0,L|92:336,1,100
368,228,154760,2,2,P|395:269|440:288,1,100,0|2,0:0|0:0,0:0:0:0:
396,144,155113,2,4,L|296:144,1,100
296,144,155466,1,0,0:0:0:0:
120,188,155643,2,0,P|79:215|60:260,2,100
396,144,156172,1,0,0:0:0:0:
396,144,156260,1,0,0:0:0:0:
396,144,156349,1,0,0:0:0:0:
200,228,156525,6,0,L|200:328,1,100,0|0,0:0|0:0,0:0:0:0:
296,144,156878,2,0,L|396:144,1,100,0|0,0:0|0:0,0:0:0:0:
476,240,157231,2,0,P|449:281|404:300,1,100
403,300,157584,1,0,0:0:0:0:
296,144,157760,1,0,0:0:0:0:
296,144,157849,1,0,0:0:0:0:
296,144,157937,2,0,P|264:240|208:320,1,200
88,188,158466,2,0,P|133:209|182:218,2,100,0|0|0,0:0|0:0|0:0,0:0:0:0:
296,144,158996,1,0,0:0:0:0:
296,144,159084,1,0,0:0:0:0:
296,144,159172,1,0,0:0:0:0:
416,328,159349,6,2,B|308:300|329:266|224:242,1,200
84,336,159878,1,0,0:0:0:0:
84,336,159966,1,0,0:0:0:0:
84,336,160054,1,0,0:0:0:0:
192,116,160231,1,8,0:0:0:0:
300,328,160407,1,8,0:0:0:0:
400,124,160584,1,0,0:0:0:0:
192,117,160760,6,2,B|98:138|119:172|12:200,1,200
232,324,161290,1,0,0:0:0:0:
232,324,161378,1,0,0:0:0:0:
232,324,161466,1,0,0:0:0:0:
448,200,161643,1,8,0:0:0:0:
192,64,161819,1,8,0:0:0:0:
364,191,162172,6,0,P|345:236|304:264,1,100
147,192,162525,2,0,P|166:147|208:120,1,100
364,191,162878,2,0,P|345:236|304:264,1,100
147,192,163231,2,0,P|166:147|208:120,1,100
196,312,163584,5,0,0:0:0:0:
220,312,163672,1,0,0:0:0:0:
245,309,163760,1,0,0:0:0:0:
270,305,163849,1,0,0:0:0:0:
294,297,163937,1,0,0:0:0:0:
316,286,164025,1,0,0:0:0:0:
337,273,164113,1,0,0:0:0:0:
357,258,164202,1,0,0:0:0:0:
248,224,164290,2,4,L|148:224,1,100
284,116,164643,2,4,B|330:112|336:152|345:114|354:115|356:156|384:116,1,100
256,192,164996,12,0,167466,0:0:0:0:
88,264,191819,5,0,0:0:0:0:
100,276,191907,1,0,0:0:0:0:
112,288,191996,1,0,0:0:0:0:
124,296,192084,1,0,0:0:0:0:
136,304,192172,2,0,L|184:328,1,50
424,264,192525,1,0,0:0:0:0:
412,276,192613,1,0,0:0:0:0:
400,288,192702,1,0,0:0:0:0:
388,296,192790,1,0,0:0:0:0:
376,304,192878,2,0,L|331:326,1,50
252,216,193231,5,0,0:0:0:0:
280,204,193319,1,0,0:0:0:0:
308,192,193407,1,0,0:0:0:0:
296,84,193584,1,0,0:0:0:0:
272,100,193672,1,0,0:0:0:0:
248,116,193760,1,0,0:0:0:0:
160,168,193937,2,0,L|56:168,1,100
112,240,194290,2,0,L|212:240,1,100
80,100,194643,5,2,0:0:0:0:
204,332,194996,1,2,0:0:0:0:
376,100,195349,1,2,0:0:0:0:
456,328,195702,1,2,0:0:0:0:
176,192,196054,5,0,0:0:0:0:
136,212,196143,1,0,0:0:0:0:
96,232,196231,1,0,0:0:0:0:
280,244,196407,1,0,0:0:0:0:
320,264,196496,1,0,0:0:0:0:
360,284,196584,1,0,0:0:0:0:
184,128,196760,2,0,L|184:232,1,100
272,192,197113,2,0,L|272:92,1,100
432,100,197466,5,2,0:0:0:0:
324,320,197819,1,2,0:0:0:0:
136,100,198172,1,2,0:0:0:0:
56,328,198525,1,2,0:0:0:0:
252,308,198878,6,0,L|332:244,1,100
246,208,199231,2,0,L|144:208,1,100
88,284,199584,2,0,P|20:208|72:148,1,200
132,184,200113,1,0,0:0:0:0:
376,192,200290,1,0,0:0:0:0:
136,184,200466,1,0,0:0:0:0:
252,96,200643,1,0,0:0:0:0:
252,308,200819,2,0,L|152:308,1,100
300,148,201172,2,0,P|346:166|372:208,2,100,0|0|0,0:0|0:0|0:0,0:0:0:0:
512,172,201702,5,0,0:0:0:0:
480,340,201878,1,0,0:0:0:0:
352,240,202054,2,0,B|322:286|298:269|272:300,1,100
264,192,202407,2,0,P|216:156|204:120,2,100
84,284,202937,1,0,0:0:0:0:
116,80,203113,1,0,0:0:0:0:
264,192,203290,1,0,0:0:0:0:
392,328,203466,2,0,P|434:302|452:257,1,100
364,208,203819,2,0,L|264:208,1,100
128,140,204172,2,0,L|228:140,1,100
260,44,204525,5,0,0:0:0:0:
96,200,204702,1,0,0:0:0:0:
252,336,204878,1,0,0:0:0:0:
412,192,205054,1,0,0:0:0:0:
260,44,205231,1,0,0:0:0:0:
252,336,205407,2,0,L|356:336,2,100,0|0|0,0:0|0:0|0:0,0:0:0:0:
132,92,205937,5,0,0:0:0:0:
404,292,206113,1,0,0:0:0:0:
112,300,206290,1,0,0:0:0:0:
364,72,206466,1,0,0:0:0:0:
404,292,206643,1,0,0:0:0:0:
132,92,206819,1,0,0:0:0:0:
320,292,206996,2,0,B|272:308|272:308|220:292,1,100
219,155,207349,6,0,L|180:116,1,55.0000016784668
298,149,207525,2,0,L|338:109,1,55.0000016784668
292,228,207702,2,0,L|332:268,1,55.0000016784668
216,231,207878,1,0,0:0:0:0:
116,148,208054,1,0,0:0:0:0:
116,148,208143,1,0,0:0:0:0:
116,148,208231,2,0,P|143:189|200:212,2,110.000003356934,0|0|0,0:0|0:0|0:0,0:0:0:0:
376,64,208760,5,0,0:0:0:0:
387,89,208849,1,0,0:0:0:0:
392,115,208937,1,0,0:0:0:0:
387,142,209025,1,0,0:0:0:0:
369,163,209113,1,0,0:0:0:0:
345,176,209202,1,0,0:0:0:0:
320,188,209290,1,0,0:0:0:0:
298,204,209378,1,0,0:0:0:0:
280,224,209466,1,0,0:0:0:0:
262,245,209554,5,0,0:0:0:0:
241,263,209643,1,0,0:0:0:0:
217,276,209731,1,0,0:0:0:0:
190,283,209819,1,0,0:0:0:0:
163,285,209907,1,0,0:0:0:0:
135,285,209996,1,0,0:0:0:0:
108,287,210084,1,0,0:0:0:0:
84,299,210172,1,0,0:0:0:0:
67,318,210260,1,0,0:0:0:0:
65,291,210349,5,0,0:0:0:0:
57,264,210437,1,0,0:0:0:0:
46,239,210525,1,0,0:0:0:0:
32,216,210613,1,0,0:0:0:0:
14,194,210702,1,0,0:0:0:0:
4,168,210790,1,0,0:0:0:0:
4,140,210878,1,0,0:0:0:0:
19,117,210966,1,0,0:0:0:0:
42,103,211054,1,0,0:0:0:0:
68,94,211143,5,0,0:0:0:0:
96,88,211231,1,0,0:0:0:0:
124,80,211319,1,0,0:0:0:0:
152,76,211407,2,0,L|192:116,2,55.0000016784668
256,192,214407,5,0,0:0:0:0:
256,192,215113,1,0,0:0:0:0:
256,192,215643,1,0,0:0:0:0:
256,192,215731,1,0,0:0:0:0:
256,192,215819,1,0,0:0:0:0:
256,192,215907,1,0,0:0:0:0:
256,192,215996,2,0,L|256:292,1,100
327,328,216349,2,4,P|372:309|400:268,1,100
256,192,216702,5,0,0:0:0:0:
232,192,216790,1,0,0:0:0:0:
208,192,216878,1,0,0:0:0:0:
184,192,216966,1,0,0:0:0:0:
160,192,217054,1,0,0:0:0:0:
248,340,217231,6,2,B|177:276|161:312|77:240,1,200
204,104,217760,1,0,0:0:0:0:
204,104,217849,1,0,0:0:0:0:
204,104,217937,1,0,0:0:0:0:
112,332,218113,1,8,0:0:0:0:
432,168,218290,1,8,0:0:0:0:
200,336,218643,6,2,B|271:272|287:308|371:236,1,200
152,208,219172,1,0,0:0:0:0:
152,208,219260,1,0,0:0:0:0:
152,208,219349,1,0,0:0:0:0:
304,68,219525,1,8,0:0:0:0:
384,288,219702,1,8,0:0:0:0:
152,208,219878,6,2,P|125:249|80:268,1,100,0|2,0:0|0:0,0:0:0:0:
80,124,220231,2,2,L|180:124,1,100
303,67,220584,2,2,P|348:86|376:128,1,100,0|2,0:0|0:0,0:0:0:0:
344,232,220937,2,2,P|298:213|271:171,1,100,0|2,0:0|0:0,0:0:0:0:
248,272,221290,2,2,L|148:272,2,100,2|2|2,0:0|0:0|0:0,0:0:0:0:
88,176,221819,5,0,0:0:0:0:
88,176,221907,1,0,0:0:0:0:
88,176,221996,2,0,P|128:140|172:120,1,100
200,200,222349,1,0,0:0:0:0:
224,200,222437,1,0,0:0:0:0:
248,200,222525,1,0,0:0:0:0:
272,200,222613,1,0,0:0:0:0:
296,200,222702,1,0,0:0:0:0:
388,80,222878,6,2,P|288:60|188:84,1,200
88,176,223407,1,0,0:0:0:0:
88,176,223496,1,0,0:0:0:0:
88,176,223584,2,0,L|192:176,1,100
160,292,223937,2,0,P|216:292|256:272,2,100,0|0|0,0:0|0:0|0:0,0:0:0:0:
360,212,224466,2,4,L|360:312,1,100
260,248,224819,2,4,L|260:148,1,100
116,216,225172,1,0,0:0:0:0:
116,216,225260,1,0,0:0:0:0:
116,216,225349,2,0,P|165:236|209:220,1,100
312,228,225702,6,4,L|312:328,1,100
216,144,226054,2,4,L|116:144,1,100
108,328,226407,2,0,B|129:293|153:310|183:265,1,100
400,296,226760,1,0,0:0:0:0:
148,120,226937,1,0,0:0:0:0:
148,120,227025,1,0,0:0:0:0:
148,120,227113,2,0,B|194:150|177:174|212:195,1,100
264,272,227466,2,0,L|364:272,2,100,0|0|0,0:0|0:0|0:0,0:0:0:0:
328,152,227996,1,0,0:0:0:0:
328,152,228084,1,0,0:0:0:0:
328,152,228172,2,0,L|228:152,1,100
184,312,228525,6,2,B|270:312|288:293|382:313,1,200
104,128,229054,1,0,0:0:0:0:
104,128,229143,1,0,0:0:0:0:
104,128,229231,1,0,0:0:0:0:
388,320,229407,1,8,0:0:0:0:
308,64,229584,1,8,0:0:0:0:
236,292,229937,6,2,B|142:272|124:291|37:290,1,200
216,84,230466,1,0,0:0:0:0:
216,84,230554,1,0,0:0:0:0:
216,84,230643,1,0,0:0:0:0:
44,304,230819,1,8,0:0:0:0:
388,328,230996,1,8,0:0:0:0:
152,176,231349,6,0,P|106:194|79:236,1,100
216,248,231702,2,0,P|261:229|288:187,1,100
392,256,232054,1,0,0:0:0:0:
392,256,232143,1,0,0:0:0:0:
392,256,232231,1,0,0:0:0:0:
320,180,232407,2,0,P|293:138|248:120,1,100
203,231,232760,2,0,P|222:277|264:304,1,100
288,88,233113,5,0,0:0:0:0:
304,100,233202,1,0,0:0:0:0:
324,116,233290,1,0,0:0:0:0:
340,136,233378,1,0,0:0:0:0:
352,156,233466,1,0,0:0:0:0:
364,176,233554,1,0,0:0:0:0:
376,200,233643,1,0,0:0:0:0:
200,232,233819,2,0,P|154:250|127:292,1,100
104,156,234172,2,0,L|204:156,1,100
352,232,234525,6,0,B|380:194|372:182|415:156,1,100
136,72,234878,2,0,L|236:72,1,100
156,220,235231,2,0,B|194:248|206:240|232:283,1,100
296,148,235584,2,0,B|334:120|346:128|372:85,1,100
324,240,235937,2,0,L|224:240,1,100
180,160,236290,2,0,L|80:160,1,100
320,52,236643,2,0,L|320:152,1,100
412,248,236996,2,0,B|384:286|392:298|349:324,1,100
220,268,237349,2,0,L|144:200,1,100
296,128,237702,5,0,0:0:0:0:
296,128,237790,1,0,0:0:0:0:
296,128,237878,2,0,P|277:174|235:201,1,100,0|0,0:0|0:0,0:0:0:0:
184,132,238231,2,0,P|142:159|124:204,1,100,0|0,0:0|0:0,0:0:0:0:
296,276,238584,2,0,L|396:276,2,100,0|0|0,0:0|0:0|0:0,0:0:0:0:
92,336,239113,1,0,0:0:0:0:
188,305,239290,1,0,0:0:0:0:
80,228,239466,1,0,0:0:0:0:
188,205,239643,2,0,P|208:156|192:112,1,100
288,304,239996,5,0,0:0:0:0:
288,304,240084,1,0,0:0:0:0:
288,304,240172,2,0,L|288:204,1,100
152,160,240525,1,0,0:0:0:0:
152,160,240613,1,0,0:0:0:0:
152,160,240702,1,0,0:0:0:0:
292,136,240878,2,4,L|392:136,2,100,4|4|4,0:0|0:0|0:0,0:0:0:0:
288,304,241407,5,0,0:0:0:0:
152,160,241584,1,0,0:0:0:0:
392,124,241760,1,0,0:0:0:0:
216,96,241937,2,0,B|246:142|270:125|291:160,2,100,0|0|0,0:0|0:0|0:0,0:0:0:0:
104,192,242466,1,0,0:0:0:0:
104,192,242554,1,0,0:0:0:0:
104,192,242643,1,0,0:0:0:0:
312,184,242819,5,0,0:0:0:0:
344,220,242996,1,0,0:0:0:0:
376,260,243172,1,0,0:0:0:0:
160,312,243349,2,4,L|260:312,1,100,4|4,0:0|0:0,0:0:0:0:
24,252,243702,2,0,P|58:216|101:191,1,100,0|0,0:0|0:0,0:0:0:0:
272,216,244054,2,0,P|313:243|332:288,2,100,0|0|0,0:0|0:0|0:0,0:0:0:0:
420,336,244760,5,0,0:0:0:0:
208,252,244937,1,0,0:0:0:0:
432,148,245113,1,0,0:0:0:0:
304,176,245290,2,0,P|284:127|300:83,1,100,0|0,0:0|0:0,0:0:0:0:
208,252,245643,2,0,L|108:252,2,100,0|0|0,0:0|0:0|0:0,0:0:0:0:
348,268,246172,1,0,0:0:0:0:
348,268,246260,1,0,0:0:0:0:
348,268,246349,2,0,L|420:336,2,100,0|0|0,0:0|0:0|0:0,0:0:0:0:
336,80,246878,5,0,0:0:0:0:
52,124,247054,1,0,0:0:0:0:
180,296,247231,1,0,0:0:0:0:
264,60,247407,1,0,0:0:0:0:
52,124,247584,1,0,0:0:0:0:
360,184,247760,1,0,0:0:0:0:
360,184,247849,1,0,0:0:0:0:
360,184,247937,2,0,L|464:184,2,100,0|0|0,0:0|0:0|0:0,0:0:0:0:
172,88,248466,5,0,0:0:0:0:
84,308,248643,1,0,0:0:0:0:
336,300,248819,1,0,0:0:0:0:
172,88,248996,1,0,0:0:0:0:
84,308,249172,2,0,L|184:308,2,100,0|0|0,0:0|0:0|0:0,0:0:0:0:
264,160,249702,1,0,0:0:0:0:
264,160,249790,1,0,0:0:0:0:
264,160,249878,2,0,P|312:184|344:220,2,100,0|0|0,0:0|0:0|0:0,0:0:0:0:
144,76,250407,5,0,0:0:0:0:
280,140,250584,1,0,0:0:0:0:
144,220,250760,1,0,0:0:0:0:
144,76,250937,2,0,L|244:76,1,100
220,292,251290,5,0,0:0:0:0:
220,292,251378,1,0,0:0:0:0:
220,292,251466,2,0,L|320:292,1,100,0|0,0:0|0:0,0:0:0:0:
300,80,251819,2,0,L|384:144,1,100
324,212,252172,2,0,L|240:152,1,100
144,244,252525,5,0,0:0:0:0:
144,244,252613,1,0,0:0:0:0:
144,244,252702,2,0,P|96:268|64:304,2,100,0|0|0,0:0|0:0|0:0,0:0:0:0:
232,296,253231,2,0,L|336:296,1,100
288,220,253584,2,0,L|188:220,1,100
264,124,253937,5,0,0:0:0:0:
264,124,254025,1,0,0:0:0:0:
264,124,254113,2,0,L|368:124,2,100,0|0|0,0:0|0:0|0:0,0:0:0:0:
200,184,254643,1,0,0:0:0:0:
168,220,254819,1,0,0:0:0:0:
136,260,254996,1,0,0:0:0:0:
252,312,255172,2,4,L|352:312,1,100,4|4,0:0|0:0,0:0:0:0:
488,252,255525,2,0,P|454:216|411:191,2,100,0|0|0,0:0|0:0|0:0,0:0:0:0:
227,82,256054,5,0,0:0:0:0:
150,147,256231,1,0,0:0:0:0:
279,178,256407,1,0,0:0:0:0:
188,240,256584,2,0,P|187:292|219:327,1,100
336,236,256937,2,0,L|436:236,2,100,0|0|0,0:0|0:0|0:0,0:0:0:0:
184,240,257466,1,0,0:0:0:0:
184,240,257554,1,0,0:0:0:0:
184,240,257643,2,0,L|116:312,2,100,0|0|0,0:0|0:0|0:0,0:0:0:0:
400,312,258172,5,0,0:0:0:0:
336,72,258349,1,0,0:0:0:0:
140,268,258525,1,0,0:0:0:0:
388,172,258702,1,0,0:0:0:0:
136,80,258878,1,0,0:0:0:0:
212,348,259054,1,0,0:0:0:0:
212,348,259143,1,0,0:0:0:0:
212,348,259231,2,0,L|312:348,2,100,0|0|0,0:0|0:0|0:0,0:0:0:0:
200,108,259760,5,0,0:0:0:0:
388,172,259937,1,0,0:0:0:0:
196,296,260113,1,0,0:0:0:0:
200,108,260290,1,0,0:0:0:0:
316,292,260466,2,0,L|416:292,2,100,0|0|0,0:0|0:0|0:0,0:0:0:0:
174,230,260996,1,0,0:0:0:0:
174,230,261084,1,0,0:0:0:0:
174,230,261172,2,0,P|137:263|116:308,2,100,0|0|0,0:0|0:0|0:0,0:0:0:0:
296,240,261702,5,0,0:0:0:0:
308,228,261790,1,0,0:0:0:0:
320,216,261878,1,0,0:0:0:0:
328,204,261966,1,0,0:0:0:0:
336,192,262054,2,0,L|360:144,1,50
240,104,262407,5,0,0:0:0:0:
228,116,262496,1,0,0:0:0:0:
216,128,262584,1,0,0:0:0:0:
208,140,262672,1,0,0:0:0:0:
200,152,262760,2,0,L|176:200,1,50
211,316,263113,5,0,0:0:0:0:
228,320,263202,1,0,0:0:0:0:
244,323,263290,1,0,0:0:0:0:
259,323,263378,1,0,0:0:0:0:
273,323,263466,2,0,L|326:316,1,50
