osu file format v13

[General]
AudioFilename: Cutie Panther.mp3
AudioLeadIn: 0
PreviewTime: 67209
Countdown: 0
SampleSet: Normal
StackLeniency: 0.7
Mode: 0
LetterboxInBreaks: 0
EpilepsyWarning: 1
WidescreenStoryboard: 1

[Editor]
Bookmarks: 26268
DistanceSpacing: 0.7
BeatDivisor: 6
GridSize: 4
TimelineZoom: 2.7

[Metadata]
Title:Cutie Panther
TitleUnicode:Cutie Panther
Artist:BiBi
ArtistUnicode:BiBi
Creator:happy623
Version:Insane
Source:Love Live! School idol project
Tags:Xinely Fycho Oracle ayase eli nishikino maki yazawa nico μ's u's Summer Do Not End Natsu owaranai de 絢瀬絵里 矢澤にこ 西木野真姫 ラブライブ muse
BeatmapID:374574
BeatmapSetID:152112

[Difficulty]
HPDrainRate:6.5
CircleSize:4
OverallDifficulty:8
ApproachRate:9
SliderMultiplier:2
SliderTickRate:1

[Events]
//Background and Video events
0,0,"bg3.jpg",0,0
//Break Periods
2,170268,180962
//Storyboard Layer 0 (Background)
//Storyboard Layer 1 (Fail)
//Storyboard Layer 2 (Pass)
//Storyboard Layer 3 (Foreground)
//Storyboard Sound Samples
//Background Colour Transformations
3,100,163,162,255

[TimingPoints]
3680,352.941176470588,4,1,0,45,1,0
6679,-100,4,1,0,30,0,0
9327,-100,4,1,0,25,0,0
12150,-100,4,1,1,60,0,0
12856,-100,4,1,1,30,0,0
13209,-100,4,2,0,65,0,0
13562,-100,4,1,1,50,0,0
14091,-100,4,1,1,60,0,0
14621,-100,4,1,1,70,0,0
14974,-100,4,1,1,80,0,1
15062,-100,4,1,1,80,0,0
36503,-133.333333333333,4,1,1,80,0,0
36856,-100,4,1,1,80,0,0
37209,-83.3333333333333,4,1,1,80,0,0
37474,-100,4,1,1,80,0,0
37562,-133.333333333333,4,1,1,50,0,0
37915,-133.333333333333,4,1,4,50,0,0
38003,-133.333333333333,4,1,1,50,0,0
38179,-133.333333333333,4,1,1,10,0,0
38268,-133.333333333333,4,1,1,50,0,0
38621,-133.333333333333,4,1,4,50,0,0
38709,-133.333333333333,4,1,1,50,0,0
38885,-133.333333333333,4,1,1,10,0,0
38974,-133.333333333333,4,1,1,50,0,0
39327,-133.333333333333,4,1,4,50,0,0
39415,-133.333333333333,4,1,1,50,0,0
39679,-100,4,1,1,60,0,0
43209,-133.333333333333,4,1,1,60,0,0
43562,-133.333333333333,4,1,4,60,0,0
43650,-133.333333333333,4,1,1,60,0,0
43827,-133.333333333333,4,1,1,10,0,0
43915,-133.333333333333,4,1,1,60,0,0
44268,-133.333333333333,4,1,4,60,0,0
44356,-133.333333333333,4,1,1,60,0,0
44532,-133.333333333333,4,1,1,10,0,0
44621,-133.333333333333,4,1,1,60,0,0
44974,-133.333333333333,4,1,4,60,0,0
45062,-133.333333333333,4,1,1,60,0,0
45503,-100,4,1,1,60,0,0
48856,-133.333333333333,4,1,1,60,0,0
49209,-100,4,1,1,60,0,0
49562,-133.333333333333,4,1,1,60,0,0
49915,-100,4,1,1,60,0,0
51679,-133.333333333333,4,1,1,60,0,0
52032,-100,4,1,1,60,0,0
52385,-133.333333333333,4,1,1,60,0,0
52738,-100,4,1,1,60,0,0
60150,-100,4,1,1,70,0,0
64385,-133.333333333333,4,1,1,70,0,0
65797,-133.333333333333,4,1,1,50,0,0
66503,-100,4,1,1,70,0,0
66856,-83.3333333333333,4,1,1,80,0,0
67209,-100,4,1,1,80,0,1
72856,-133.333333333333,4,1,1,80,0,1
73738,-83.3333333333333,4,1,1,80,0,1
74268,-133.333333333333,4,1,1,80,0,1
75150,-83.3333333333333,4,1,1,80,0,1
75591,-100,4,1,1,80,0,0
75679,-83.3333333333333,4,1,1,80,0,1
76032,-100,4,1,1,80,0,1
84150,-133.333333333333,4,1,1,80,0,1
85032,-83.3333333333333,4,1,1,80,0,1
85562,-133.333333333333,4,1,1,80,0,1
86444,-83.3333333333333,4,1,1,80,0,1
86974,-100,4,1,1,80,0,1
89797,-100,4,1,1,50,0,0
101091,-100,4,1,1,40,0,0
112032,-100,4,2,0,40,0,0
112385,-133.333333333333,4,1,1,60,0,0
112738,-133.333333333333,4,1,4,60,0,0
112827,-133.333333333333,4,1,1,60,0,0
113003,-133.333333333333,4,1,1,20,0,0
113091,-133.333333333333,4,1,1,60,0,0
113444,-133.333333333333,4,1,4,60,0,0
113532,-133.333333333333,4,1,1,60,0,0
113709,-133.333333333333,4,1,1,20,0,0
113797,-133.333333333333,4,1,1,60,0,0
114150,-133.333333333333,4,1,4,60,0,0
114238,-133.333333333333,4,1,1,60,0,0
114503,-100,4,1,1,60,0,0
118032,-133.333333333333,4,1,1,60,0,0
118385,-133.333333333333,4,1,4,60,0,0
118474,-133.333333333333,4,1,1,60,0,0
118650,-133.333333333333,4,1,1,10,0,0
118738,-133.333333333333,4,1,1,60,0,0
119091,-133.333333333333,4,1,4,60,0,0
119179,-133.333333333333,4,1,1,60,0,0
119356,-133.333333333333,4,1,1,10,0,0
119444,-133.333333333333,4,1,1,60,0,0
119797,-133.333333333333,4,1,4,60,0,0
119885,-133.333333333333,4,1,1,60,0,0
120150,-100,4,1,1,60,0,0
123327,-83.3333333333333,4,1,1,60,0,0
123679,-133.333333333333,4,1,1,60,0,0
124032,-100,4,1,1,60,0,0
124385,-133.333333333333,4,1,1,60,0,0
124738,-100,4,1,1,60,0,0
126503,-133.333333333333,4,1,1,60,0,0
126856,-100,4,1,1,60,0,0
127209,-133.333333333333,4,1,1,60,0,0
127562,-100,4,1,1,60,0,0
134621,-83.3333333333333,4,1,1,60,0,0
134974,-100,4,1,1,60,0,0
137797,-100,4,1,1,70,0,0
139209,-200,4,2,1,70,0,0
140621,-200,4,2,1,50,0,0
141327,-133.333333333333,4,2,1,70,0,0
141679,-83.3333333333333,4,2,1,80,0,0
142032,-100,4,1,1,80,0,1
147679,-133.333333333333,4,1,1,80,0,1
148562,-83.3333333333333,4,1,1,80,0,1
149091,-133.333333333333,4,1,1,80,0,1
149974,-83.3333333333333,4,1,1,80,0,1
150415,-100,4,1,1,80,0,0
150503,-83.3333333333333,4,1,1,90,0,1
150856,-100,4,1,1,80,0,1
158974,-133.333333333333,4,1,1,80,0,1
159856,-83.3333333333333,4,1,1,80,0,1
160385,-133.333333333333,4,1,1,80,0,1
161268,-83.3333333333333,4,1,1,80,0,1
161797,-100,4,1,1,80,0,1
163915,-133.333333333333,4,1,1,80,0,1
164621,-200,4,2,1,20,0,0
181562,-100,4,1,1,50,0,0
192856,-133.333333333333,4,1,1,50,0,0
193209,-100,4,1,1,50,0,0
193562,-133.333333333333,4,1,1,50,0,0
193915,-100,4,1,1,50,0,0
195679,-133.333333333333,4,1,1,50,0,0
196032,-100,4,1,1,50,0,0
196385,-133.333333333333,4,1,1,50,0,0
196738,-100,4,1,1,50,0,0
203797,-83.3333333333333,4,1,1,80,0,0
204150,-100,4,1,1,50,0,0
208385,-200,4,1,1,50,0,0
209797,-133.333333333333,4,1,1,50,0,0
210562,-133.333333333333,4,2,1,50,0,0
210856,-100,4,2,1,50,0,0
211209,-100,4,1,1,80,0,1
211385,-133.333333333333,4,1,1,80,0,0
215974,-133.333333333333,4,2,1,80,0,0
216327,-133.333333333333,4,1,1,20,0,0
216415,-133.333333333333,4,1,1,50,0,0
216503,-100,4,1,1,80,0,0
216856,-100,4,1,1,80,0,1
218268,-133.333333333333,4,1,1,80,0,1
219150,-83.3333333333333,4,1,1,80,0,1
219591,-100,4,1,1,80,0,0
219679,-83.3333333333333,4,1,1,90,0,1
220032,-100,4,1,1,80,0,1
228150,-133.333333333333,4,1,1,80,0,1
229032,-83.3333333333333,4,1,1,80,0,1
229562,-133.333333333333,4,1,1,80,0,1
230444,-83.3333333333333,4,1,1,80,0,1
230974,-100,4,1,1,80,0,1
233797,-100,4,1,1,50,0,0
262385,-83.3333333333333,4,1,1,50,0,0
262738,-100,4,1,1,50,0,0
263091,-66.6666666666667,4,1,1,50,0,0

[Colours]
Combo1 : 233,150,220
Combo2 : 117,209,240
Combo3 : 223,68,84

[HitObjects]
168,236,3680,5,0,0:0:0:0:
168,236,4032,1,0,0:0:0:0:
168,236,4385,1,0,0:0:0:0:
168,236,4738,1,0,0:0:0:0:
123,143,5091,5,0,0:0:0:0:
304,64,5444,1,0,0:0:0:0:
388,240,5797,1,0,0:0:0:0:
208,317,6150,1,0,0:0:0:0:
147,101,6503,5,0,0:0:0:0:
236,148,6679,1,0,0:0:0:0:
336,128,6856,2,0,P|384:136|412:208,1,100,8|0,3:0|0:0,0:0:0:0:
368,320,7209,6,0,P|344:340|340:372,3,50,0|0|0|0,0:0|0:0|0:0|0:0,0:0:0:0:
368,320,7562,2,0,P|336:317|311:336,3,50,8|0|0|0,3:0|0:0|0:0|0:0,0:0:0:0:
444,348,7915,5,0,0:0:0:0:
424,252,8091,2,0,P|416:232|452:200,2,50,0|0|8,0:0|0:0|3:0,0:0:0:0:
452,132,8444,1,0,0:0:0:0:
372,72,8621,6,0,P|336:140|260:128,1,150
296,64,8974,2,0,B|252:192|252:192|228:208,1,150,8|0,3:0|0:0,0:0:0:0:
196,220,9327,6,0,L|144:216,1,50,2|0,0:0|0:0,0:0:0:0:
188,304,9503,2,0,L|152:338,1,50,0|0,0:0|0:0,0:0:0:0:
260,272,9679,2,0,P|312:248|328:204,1,100,8|0,3:0|0:0,0:0:0:0:
372,72,10032,2,0,P|364:48|408:8,2,50
452,132,10385,2,0,P|460:108|416:68,2,50,8|0|0,3:0|0:0|0:0,0:0:0:0:
412,328,10738,6,0,P|384:284|328:272,1,100
340,344,11003,2,0,L|444:200,1,150
256,352,11444,2,0,P|240:336|196:332,2,50,0|0|0,0:0|0:0|0:0,0:0:0:0:
140,304,11797,2,0,L|88:312,2,50,8|0|0,3:0|0:0|0:0,0:0:0:0:
152,204,12150,6,0,P|192:168|184:108,1,100
92,132,12503,1,8,0:0:0:0:
52,224,12679,1,0,0:0:0:0:
140,304,12856,6,0,P|160:288|188:288,2,50
92,132,13209,6,0,P|80:116|32:104,3,50,4|0|0|0,3:0|0:0|0:0|0:0,0:0:0:0:
52,224,13562,5,4,3:0:0:0:
256,128,13738,1,0,0:0:0:0:
281,114,13827,1,0,0:0:0:0:
309,108,13915,1,8,0:0:0:0:
337,115,14003,1,0,0:0:0:0:
359,133,14091,5,0,0:0:0:0:
376,170,14179,1,0,0:0:0:0:
373,210,14268,1,8,0:0:0:0:
354,245,14356,1,0,0:0:0:0:
320,262,14444,1,8,0:0:0:0:
280,262,14532,1,0,0:0:0:0:
246,239,14621,5,8,0:0:0:0:
217,200,14709,1,0,0:0:0:0:
180,165,14797,1,8,0:0:0:0:
134,145,14885,1,0,0:0:0:0:
81,144,14974,5,4,3:2:0:0:
104,272,15150,1,0,0:0:0:0:
164,192,15327,1,8,0:0:0:0:
104,272,15503,1,0,0:0:0:0:
168,348,15679,2,0,P|216:340|264:356,1,100
68,360,16032,1,8,0:0:0:0:
68,360,16385,5,0,0:0:0:0:
236,276,16562,1,0,0:0:0:0:
168,348,16738,1,8,0:0:0:0:
184,192,16915,1,0,0:0:0:0:
346,199,17091,2,0,P|304:192|272:148,1,100
256,48,17444,1,8,0:0:0:0:
256,48,17797,5,0,0:0:0:0:
156,28,17974,2,0,P|156:80|184:120,1,100,0|8,0:0|0:0,0:0:0:0:
276,156,18327,1,0,0:0:0:0:
376,160,18503,2,0,P|432:164|476:200,1,100
340,356,18856,2,0,L|396:256,1,100,8|0,0:0|0:0,0:0:0:0:
216,332,19209,5,0,0:0:0:0:
308,160,19385,1,0,0:0:0:0:
108,164,19562,1,8,0:0:0:0:
212,284,19738,5,0,0:0:0:0:
184,240,19827,1,0,0:0:0:0:
196,192,19915,1,0,0:0:0:0:
228,96,20091,1,0,0:0:0:0:
404,165,20268,2,0,P|356:152|308:160,1,100,8|0,0:0|0:0,0:0:0:0:
308,296,20621,5,0,0:0:0:0:
216,332,20797,1,0,0:0:0:0:
392,352,20974,2,0,P|416:296|400:252,1,100,8|0,0:0|0:0,0:0:0:0:
328,196,21327,1,0,0:0:0:0:
348,100,21503,1,0,0:0:0:0:
308,296,21679,1,8,0:0:0:0:
308,296,22032,5,0,0:0:0:0:
228,236,22209,2,0,P|208:192|144:168,1,100,0|8,0:0|0:0,0:0:0:0:
76,216,22562,2,0,P|96:260|160:284,1,100
236,236,22915,6,0,P|232:187|180:143,1,100,0|8,0:0|0:0,0:0:0:0:
68,216,23268,2,0,P|71:264|105:301,1,100,0|0,0:0|0:0,0:0:0:0:
88,116,23621,1,0,0:0:0:0:
248,236,23797,5,8,0:0:0:0:
60,216,23974,1,0,0:0:0:0:
256,236,24150,5,0,0:0:0:0:
396,180,24327,1,0,0:0:0:0:
328,312,24503,1,8,0:0:0:0:
476,324,24679,1,0,0:0:0:0:
480,328,24856,5,0,0:0:0:0:
256,236,25032,1,0,0:0:0:0:
340,56,25209,1,8,0:0:0:0:
256,236,25385,5,0,0:0:0:0:
208,216,25474,1,0,0:0:0:0:
160,224,25562,1,0,0:0:0:0:
124,260,25650,1,0,0:0:0:0:
120,308,25738,1,0,0:0:0:0:
84,340,25827,5,0,0:0:0:0:
40,320,25915,1,8,0:0:0:0:
24,268,26003,1,0,0:0:0:0:
44,224,26091,1,0,0:0:0:0:
20,48,26268,5,4,3:2:0:0:
108,92,26444,1,0,0:0:0:0:
204,64,26621,1,8,0:0:0:0:
272,136,26797,1,0,0:0:0:0:
352,76,26974,2,0,P|396:48|460:56,1,100
420,148,27327,2,0,L|388:260,1,100,8|0,0:0|0:0,0:0:0:0:
444,328,27679,6,0,P|392:344|344:328,1,100
260,284,28032,2,0,P|208:268|165:280,1,100,8|0,0:0|0:0,0:0:0:0:
76,324,28385,1,0,0:0:0:0:
208,364,28562,1,0,0:0:0:0:
144,188,28738,1,8,0:0:0:0:
216,368,28915,5,0,0:0:0:0:
76,324,29091,1,0,0:0:0:0:
224,372,29268,5,0,0:0:0:0:
144,188,29444,1,8,0:0:0:0:
228,240,29621,1,0,0:0:0:0:
112,104,29797,2,0,P|72:72|56:24,1,100
204,68,30150,1,8,0:0:0:0:
244,160,30327,1,0,0:0:0:0:
144,187,30503,6,0,P|104:248|144:316,1,150
99,343,30856,2,0,P|50:340|4:358,1,100,8|0,0:0|0:0,0:0:0:0:
196,368,31209,1,0,0:0:0:0:
196,368,31385,1,0,0:0:0:0:
268,300,31562,2,0,P|308:260|368:264,1,100,8|0,0:0|0:0,0:0:0:0:
468,352,31915,5,0,0:0:0:0:
452,252,32091,1,0,0:0:0:0:
368,368,32268,2,0,B|324:352|324:352|304:372|268:376,1,100,8|0,0:0|0:0,0:0:0:0:
436,152,32621,2,0,P|392:124|392:56,1,100
484,72,32974,1,8,0:0:0:0:
452,252,33150,1,0,0:0:0:0:
276,374,33327,6,0,P|240:304|156:288,1,150
128,292,33679,1,8,0:0:0:0:
60,220,33856,1,0,0:0:0:0:
100,128,34032,2,0,B|124:100|124:100|160:96|180:56,1,100
168,208,34385,1,8,0:0:0:0:
112,28,34562,1,0,0:0:0:0:
168,208,34738,6,2,B|184:180|184:180|252:216,1,100,0|0,0:0|0:0,0:0:0:0:
336,268,35091,1,8,0:0:0:0:
384,356,35268,1,0,0:0:0:0:
428,212,35444,1,0,0:0:0:0:
332,96,35621,1,0,0:0:0:0:
240,300,35797,5,8,0:0:0:0:
336,268,35974,1,0,0:0:0:0:
144,280,36150,2,2,B|128:308|128:308|60:272,1,100,0|0,0:0|0:0,0:0:0:0:
24,60,36503,6,0,L|48:130,1,75.0000028610231,8|0,0:0|0:0,0:0:0:0:
128,68,36856,6,0,L|158:163,1,100
232,80,37209,6,0,L|276:216,1,119.999996337891,8|0,0:0|0:0,0:0:0:0:
268,194,37474,1,0,0:0:0:0:
268,194,37562,6,0,P|344:144|412:268,1,262.500010013581,4|0,1:2|2:0,0:0:0:0:
414,263,38268,6,0,B|356:268|320:248|320:248|276:284|220:256|220:256|188:280|132:260,1,262.500010013581,4|0,2:1|2:0,0:0:0:0:
164,268,38974,6,0,P|168:148|72:160,1,225.000008583069,4|0,1:2|0:0,0:0:0:0:
64,240,39679,5,0,0:0:0:0:
140,176,39856,1,0,0:0:0:0:
64,240,40032,5,8,0:0:0:0:
252,304,40209,1,0,0:0:0:0:
64,240,40385,5,0,0:0:0:0:
140,176,40562,2,0,P|184:144|188:76,1,100,0|8,0:0|0:0,0:0:0:0:
160,8,40915,2,0,L|264:40,1,100
444,108,41268,1,0,0:0:0:0:
284,240,41444,1,8,0:0:0:0:
352,72,41621,1,0,0:0:0:0:
364,168,41797,1,0,0:0:0:0:
100,280,41974,6,0,P|140:260|200:280,1,100,0|8,0:0|0:0,0:0:0:0:
252,352,42327,1,0,0:0:0:0:
340,308,42503,1,0,0:0:0:0:
252,352,42679,5,0,0:0:0:0:
280,156,42856,1,8,0:0:0:0:
440,276,43032,1,0,0:0:0:0:
264,256,43209,6,0,P|176:176|240:60,1,262.500010013581,4|0,1:2|2:0,0:0:0:0:
231,63,43915,6,0,B|280:156|280:156|368:168|380:260,1,262.500010013581,4|0,2:1|2:0,0:0:0:0:
380,260,44621,6,0,B|396:344|396:344|484:232|384:132,1,300.000011444092,4|0,1:2|0:0,0:0:0:0:
336,68,45503,5,0,0:0:0:0:
284,144,45679,1,8,0:0:0:0:
336,68,45856,5,0,0:0:0:0:
136,76,46032,1,0,0:0:0:0:
284,144,46209,6,0,P|264:200|304:236,1,100,0|8,0:0|0:0,0:0:0:0:
385,320,46562,2,0,P|407:277|384:236,1,100
184,316,46915,2,0,L|284:316,1,100,0|8,0:0|0:0,0:0:0:0:
480,320,47268,1,0,0:0:0:0:
464,220,47444,6,0,P|424:192|416:116,1,100
428,48,47797,1,8,0:0:0:0:
340,216,47974,1,0,0:0:0:0:
288,132,48150,1,0,0:0:0:0:
240,116,48238,1,0,0:0:0:0:
192,124,48327,1,0,0:0:0:0:
160,164,48415,1,0,0:0:0:0:
164,212,48503,5,8,0:0:0:0:
448,128,48679,1,0,0:0:0:0:
336,295,48856,6,0,P|384:272|428:302,1,112.500004291535,4|0,3:0|0:0,0:0:0:0:
184,300,49209,6,0,L|72:300,1,100,4|0,1:2|0:0,0:0:0:0:
336,296,49562,6,0,P|386:313|397:365,1,112.500004291535,4|0,3:0|0:0,0:0:0:0:
200,216,49915,6,0,L|103:160,1,100,4|0,1:2|0:0,0:0:0:0:
336,296,50268,6,2,B|328:268|328:268|328:252|304:252|304:252|324:232|328:208,1,100,0|0,0:0|0:0,0:0:0:0:
176,88,50621,2,2,B|184:116|184:116|184:132|208:132|208:132|188:152|187:163,1,100,0|0,0:0|0:0,0:0:0:0:
300,148,50974,6,2,B|336:128|336:128|336:160|380:156,1,100,0|0,0:0|0:0,0:0:0:0:
212,236,51327,2,2,B|176:256|176:256|176:224|132:228,1,100,0|0,0:0|0:0,0:0:0:0:
176,88,51679,6,0,P|192:56|256:80,1,112.500004291535,4|0,3:0|0:0,0:0:0:0:
212,236,52032,6,0,L|180:344,1,100,4|0,1:2|0:0,0:0:0:0:
176,88,52385,6,0,P|161:55|216:20,1,112.500004291535,4|0,3:0|0:0,0:0:0:0:
212,236,52738,6,0,L|232:336,1,100,4|0,1:2|0:0,0:0:0:0:
300,148,53091,6,2,B|320:128|312:96|312:96|320:120|392:88,1,100,0|0,0:0|0:0,0:0:0:0:
212,236,53444,2,2,B|192:256|200:288|200:288|192:264|120:296,1,100,0|0,0:0|0:0,0:0:0:0:
424,88,53797,6,2,B|436:144|396:188,1,100,0|0,0:0|0:0,0:0:0:0:
132,236,54150,1,8,0:0:0:0:
152,236,54238,1,0,0:0:0:0:
172,236,54327,1,0,0:0:0:0:
192,236,54415,1,0,0:0:0:0:
212,236,54503,6,0,P|224:192|184:148,1,100,4|0,0:0|0:0,0:0:0:0:
72,64,54856,2,0,L|60:168,1,100,8|0,0:0|0:0,0:0:0:0:
40,364,55209,1,0,0:0:0:0:
52,264,55385,1,0,0:0:0:0:
236,336,55562,1,8,0:0:0:0:
136,320,55738,1,0,0:0:0:0:
324,284,55915,6,0,P|356:248|432:236,1,100
476,364,56268,2,0,L|476:260,1,100,8|0,0:0|0:0,0:0:0:0:
476,64,56621,1,0,0:0:0:0:
476,164,56797,1,0,0:0:0:0:
328,192,56974,1,8,0:0:0:0:
244,136,57150,1,0,0:0:0:0:
196,124,57238,1,0,0:0:0:0:
148,144,57327,6,0,L|108:244,1,100
72,328,57679,1,8,0:0:0:0:
168,304,57856,2,0,P|216:280|284:292,1,100
344,340,58209,1,0,0:0:0:0:
344,340,58385,2,0,L|384:236,1,100,8|0,0:0|0:0,0:0:0:0:
452,60,58738,6,0,P|408:100|352:76,1,100
60,60,59091,2,0,P|104:100|160:76,1,100,8|0,0:0|0:0,0:0:0:0:
256,112,59444,2,2,B|235:166|235:166|252:176|256:212,1,100,0|0,0:0|0:0,0:0:0:0:
148,248,59797,2,2,B|148:280|136:288|136:288|160:304|160:304|152:344,1,100,8|0,0:0|0:0,0:0:0:0:
388,344,60150,5,0,0:0:0:0:
408,144,60327,1,0,0:0:0:0:
224,224,60503,2,0,P|284:224|328:268,1,100,8|0,0:0|2:0,0:0:0:0:
388,344,60856,5,0,0:0:0:0:
396,244,61032,1,0,0:0:0:0:
308,292,61209,2,0,P|300:240|332:188,1,100,8|0,0:0|2:0,0:0:0:0:
440,44,61562,5,0,0:0:0:0:
396,244,61738,1,0,0:0:0:0:
252,104,61915,2,0,P|288:140|344:144,1,100,8|0,0:0|2:0,0:0:0:0:
440,44,62268,5,0,0:0:0:0:
420,140,62444,1,0,0:0:0:0:
348,72,62621,2,0,P|328:44|264:28,1,100,8|0,0:0|2:0,0:0:0:0:
172,312,62974,5,0,0:0:0:0:
132,116,63150,1,0,0:0:0:0:
172,312,63327,5,8,0:0:0:0:
368,276,63503,1,0,0:0:0:0:
172,312,63679,6,0,P|124:292|116:240,1,100
181,226,64032,2,0,P|155:266|172:312,1,100,8|0,0:0|0:0,0:0:0:0:
172,312,64385,6,0,P|200:268|336:324,2,225.000008583069,4|2|8,0:0|2:0|0:0,2:0:0:0:
436,164,65797,6,0,P|420:148|420:120,1,37.5000014305115,0|0,0:0|0:0,0:0:0:0:
416,176,65974,2,0,P|400:160|400:132,1,37.5000014305115,0|0,0:0|0:0,0:0:0:0:
396,188,66150,2,0,P|380:172|380:144,1,37.5000014305115,8|0,0:0|0:0,0:0:0:0:
376,204,66327,2,0,P|360:188|360:160,1,37.5000014305115,8|0,0:0|0:0,0:0:0:0:
368,288,66503,6,0,L|400:328,5,33.3333333333333,2|2|2|2|2|2,2:0|2:0|2:0|2:0|2:0|2:0,0:0:0:0:
272,316,66856,6,0,L|264:344,3,29.9999990844727,2|2|2|2,2:0|2:0|2:0|2:0,0:0:0:0:
240,280,67032,2,0,L|208:288,3,29.9999990844727,2|2|2|2,2:0|2:0|2:0|2:0,0:0:0:0:
256,244,67209,5,6,0:0:0:0:
292,84,67385,1,0,0:0:0:0:
208,136,67562,2,0,P|156:128|108:88,1,100,10|0,0:0|0:0,0:0:0:0:
28,28,67915,2,0,L|12:128,1,100,2|0,0:0|0:0,0:0:0:0:
40,288,68268,1,8,0:0:0:0:
246,350,68444,6,0,P|199:338|168:300,1,100,2|0,0:0|0:0,0:0:0:0:
170,188,68797,2,0,L|208:96,1,100,2|8,0:0|0:0,0:0:0:0:
280,24,69150,1,2,0:0:0:0:
376,60,69327,1,0,0:0:0:0:
180,20,69503,1,0,0:0:0:0:
468,92,69679,5,8,0:0:0:0:
468,92,69768,2,0,P|456:68|488:52,2,50,2|2|2,2:0|2:0|2:0,0:0:0:0:
480,140,70032,6,0,P|488:192|448:240,1,100,2|0,0:0|0:0,0:0:0:0:
376,276,70385,2,0,L|264:296,1,100,10|0,0:0|0:0,0:0:0:0:
80,320,70738,1,2,0:0:0:0:
176,348,70915,1,0,0:0:0:0:
160,248,71091,1,8,0:0:0:0:
80,320,71268,6,0,P|52:288|56:220,1,100,2|0,0:0|0:0,0:0:0:0:
168,252,71621,1,2,0:0:0:0:
180,352,71797,1,8,0:0:0:0:
88,324,71974,6,0,P|60:292|128:164,1,200,2|0,0:0|0:0,0:0:0:0:
304,184,72503,1,8,0:0:0:0:
148,80,72679,1,0,0:0:0:0:
208,160,72856,6,2,P|248:96|328:88,1,150.000005722046,2|8,0:0|0:0,0:0:0:0:
408,316,73385,5,0,0:0:0:0:
304,184,73562,1,2,0:0:0:0:
408,316,73738,6,0,B|365:311|356:272|304:296|340:340,1,119.999996337891,0|10,0:0|0:0,0:0:0:0:
304,184,74091,1,0,0:0:0:0:
408,316,74268,6,2,P|456:244|420:184,1,150.000005722046,2|8,0:0|0:0,0:0:0:0:
228,52,74797,5,0,0:0:0:0:
372,248,74974,1,2,0:0:0:0:
228,52,75150,6,0,B|192:76|159:51|135:103|191:114,1,119.999996337891,0|10,0:0|0:0,0:0:0:0:
372,248,75503,1,0,0:0:0:0:
72,276,75679,6,2,L|200:260,1,119.999996337891,6|0,0:0|0:0,0:0:0:0:
372,248,76032,5,8,0:0:0:0:
228,168,76209,1,0,0:0:0:0:
328,160,76385,1,0,0:0:0:0:
172,72,76562,1,0,0:0:0:0:
292,44,76738,2,0,L|404:44,1,100,8|0,0:0|0:0,0:0:0:0:
228,168,77091,6,0,B|204:176|204:176|192:160|192:160|172:176|139:170,1,100
284,252,77444,2,0,B|308:244|308:244|320:260|320:260|340:244|372:249,1,100,8|0,0:0|0:0,0:0:0:0:
184,252,77974,5,0,0:0:0:0:
144,72,78150,1,8,0:0:0:0:
200,300,78327,1,0,0:0:0:0:
240,328,78415,1,0,0:0:0:0:
288,336,78503,6,0,L|416:336,1,100,6|0,0:0|0:0,0:0:0:0:
484,236,78856,2,0,L|384:236,1,100,10|0,0:0|0:0,0:0:0:0:
204,176,79209,2,0,L|304:176,1,100,2|0,0:0|0:0,0:0:0:0:
472,100,79562,1,8,0:0:0:0:
276,256,79738,5,2,0:0:0:0:
204,176,79915,1,0,0:0:0:0:
180,68,80091,2,0,P|140:44|76:48,1,100,2|8,0:0|0:0,0:0:0:0:
36,128,80444,2,0,L|56:240,1,100,2|0,0:0|0:0,0:0:0:0:
132,288,80797,1,0,0:0:0:0:
264,324,80974,5,8,0:0:0:0:
264,324,81062,2,0,P|240:320|212:336,2,50,2|2|2,2:0|2:0|2:0,0:0:0:0:
312,332,81327,6,0,L|300:216,1,100,2|0,0:0|0:0,0:0:0:0:
288,132,81679,2,0,P|312:80|368:88,1,100,10|0,0:0|0:0,0:0:0:0:
468,172,82032,2,0,L|440:268,1,100,2|0,0:0|0:0,0:0:0:0:
408,364,82385,1,8,0:0:0:0:
300,232,82562,5,2,0:0:0:0:
312,332,82738,1,0,0:0:0:0:
216,180,82915,1,2,0:0:0:0:
216,280,83091,1,8,0:0:0:0:
144,108,83268,1,2,0:0:0:0:
92,280,83444,6,2,B|110:265|110:265|112:248|96:238|96:238|124:204,1,100,0|0,0:0|0:0,0:0:0:0:
388,204,83797,2,2,B|416:238|416:238|400:248|402:265|402:265|419:280,1,100,0|0,0:0|0:0,0:0:0:0:
124,204,84150,6,2,P|60:168|52:88,1,150.000005722046,2|8,0:0|0:0,0:0:0:0:
216,280,84679,1,0,0:0:0:0:
144,108,84856,1,2,0:0:0:0:
216,280,85032,6,0,B|304:276|328:304|240:328,1,119.999996337891,0|10,0:0|0:0,0:0:0:0:
144,108,85385,1,0,0:0:0:0:
216,280,85562,6,2,P|264:232|348:248,1,150.000005722046,2|0,0:0|0:0,0:0:0:0:
144,108,86091,1,0,0:0:0:0:
292,312,86268,1,10,0:0:0:0:
144,108,86444,6,0,B|56:104|32:132|120:156,1,119.999996337891,0|10,0:0|0:0,0:0:0:0:
292,312,86797,1,0,0:0:0:0:
144,108,86974,5,2,0:0:0:0:
148,128,87327,1,10,0:0:0:0:
152,148,87679,1,2,0:0:0:0:
156,168,88032,1,10,0:0:0:0:
160,188,88385,5,2,0:0:0:0:
164,208,88562,1,0,0:0:0:0:
168,228,88738,1,10,0:0:0:0:
172,248,88915,1,0,0:0:0:0:
176,268,89091,5,10,0:0:0:0:
180,288,89179,1,0,0:0:0:0:
184,308,89268,1,8,0:0:0:0:
188,328,89356,1,0,0:0:0:0:
200,344,89444,1,10,0:0:0:0:
220,352,89532,1,0,0:0:0:0:
236,344,89621,1,8,0:0:0:0:
244,328,89709,1,0,0:0:0:0:
248,308,89797,6,0,P|276:292|292:308,2,50,2|0|2,0:0|0:0|0:0,0:0:0:0:
411,235,90150,2,0,P|389:227|372:244,2,50,8|0|2,0:0|0:0|0:0,0:0:0:0:
276,168,90503,6,0,L|232:160,6,25,2|2|2|2|2|2|2,0:0|2:0|2:0|2:0|0:0|2:0|2:0,0:0:0:0:
175,95,90856,2,0,L|200:100,6,25,10|2|2|2|2|2|2,0:0|2:0|2:0|2:0|2:0|2:0|2:0,0:0:0:0:
136,188,91209,6,0,P|144:232|96:280,1,100,0|2,0:0|0:0,0:0:0:0:
68,216,91474,2,0,L|220:256,1,150,0|2,0:0|0:0,0:0:0:0:
368,284,91915,2,0,L|347:238,2,50,2|0|2,0:0|0:0|0:0,0:0:0:0:
390,66,92268,2,0,B|380:88|400:104|400:104|384:112|384:112|380:128|376:120|376:120|368:144,1,100,10|0,0:0|0:0,0:0:0:0:
308,332,92621,5,4,2:3:0:0:
140,264,92797,1,2,0:0:0:0:
208,340,92974,1,8,0:0:0:0:
256,132,93150,1,2,0:0:0:0:
220,216,93327,6,0,L|260:216,6,25,2|2|2|2|2|2|2,0:0|2:0|2:0|2:0|2:0|2:0|2:0,0:0:0:0:
64,120,93679,2,0,L|39:120,6,25,2|2|2|2|2|2|2,0:0|2:0|2:0|2:0|2:0|2:0|2:0,0:0:0:0:
136,100,94032,6,0,P|96:140|104:196,1,100,0|2,0:0|0:0,0:0:0:0:
164,164,94297,2,0,P|101:225|24:216,1,150,0|2,0:0|0:0,0:0:0:0:
28,24,94738,6,0,B|50:38|50:38|60:32|60:32|68:24|68:24|80:32|80:32|80:48|88:36|152:32,1,100,2|2,0:0|0:0,0:0:0:0:
164,164,95091,2,10,L|284:168,1,100
424,288,95444,6,0,P|428:320|452:332,1,50
444,280,95621,2,0,P|440:248|416:236,1,50,2|0,0:0|0:0,0:0:0:0:
328,224,95797,6,0,P|332:256|356:268,1,50
348,216,95974,2,0,P|344:184|320:172,1,50,2|0,0:0|0:0,0:0:0:0:
224,260,96150,6,0,P|224:236|228:220,6,25,2|2|2|2|2|2|2,2:0|2:0|2:0|2:0|2:0|2:0|2:0,0:0:0:0:
120,336,96503,2,0,L|80:340,6,25,10|2|2|2|2|2|2,0:0|2:0|2:0|2:0|2:0|2:0|2:0,0:0:0:0:
164,360,96856,6,0,L|104:248,1,100,0|2,0:0|0:0,0:0:0:0:
44,268,97121,2,0,P|100:256|140:176,1,150,0|2,0:0|0:0,0:0:0:0:
144,80,97562,2,0,B|153:75|161:99|161:99|161:83|181:75|181:75|181:99|205:99,1,100,2|2,0:0|0:0,0:0:0:0:
423,203,97915,2,0,P|388:160|336:168,1,100,10|0,0:0|0:0,0:0:0:0:
224,320,98268,6,0,L|116:280,1,100,4|2,2:3|0:0,0:0:0:0:
36,252,98621,2,0,P|24:200|60:140,1,100,8|2,0:0|0:0,0:0:0:0:
144,80,98974,6,0,L|168:52,6,25,2|2|2|2|2|2|2,0:0|2:0|2:0|2:0|2:0|2:0|2:0,0:0:0:0:
131,198,99327,2,0,L|148:180,6,25,10|2|2|2|2|2|2,0:0|2:0|2:0|2:0|2:0|2:0|2:0,0:0:0:0:
104,240,99679,6,0,L|208:224,1,100,0|2,0:0|0:0,0:0:0:0:
236,160,99944,2,0,P|200:236|228:300,1,150,0|2,0:0|0:0,0:0:0:0:
312,340,100385,2,0,P|337:337|368:344,1,50,2|0,0:0|0:0,0:0:0:0:
412,352,100562,2,0,L|352:252,1,100,2|10,0:0|0:0,0:0:0:0:
204,332,100915,5,0,0:0:0:0:
180,328,101003,1,0,0:0:0:0:
156,324,101091,1,4,0:0:0:0:
56,336,101268,5,0,0:0:0:0:
56,336,101444,1,8,0:0:0:0:
84,252,101621,1,0,0:0:0:0:
84,252,101797,2,0,P|112:200|80:136,1,100,0|0,0:0|0:0,0:0:0:0:
28,96,102150,2,0,P|48:40|88:36,1,100,8|0,0:0|0:0,0:0:0:0:
232,168,102679,6,0,B|280:160|280:160|332:200,1,100,0|8,0:0|0:0,0:0:0:0:
332,288,103032,2,0,B|372:320|372:320|424:304,1,100,0|0,0:0|0:0,0:0:0:0:
448,112,103385,2,0,P|476:152|472:216,1,100,0|8,0:0|0:0,0:0:0:0:
332,288,103738,2,0,L|224:276,1,100,0|0,0:0|0:0,0:0:0:0:
332,164,104091,6,0,P|368:120|352:80,1,100,0|8,0:0|0:0,0:0:0:0:
163,27,104444,2,0,P|129:61|140:108,1,100,0|0,0:0|0:0,0:0:0:0:
236,136,104797,1,0,0:0:0:0:
76,188,104974,2,0,P|40:153|34:105,1,100,8|0,0:0|0:0,0:0:0:0:
168,228,105327,6,0,B|200:216|200:216|244:228|284:208|284:208|264:252|296:296,1,200,0|8,0:0|0:0,0:0:0:0:
360,356,105856,2,0,B|352:328|352:328|380:284|352:240|352:240|376:196|332:136,1,200,0|0,0:0|0:0,0:0:0:0:
312,72,106385,2,0,P|268:96|256:148,1,100,8|0,0:0|0:0,0:0:0:0:
76,72,106738,5,4,0:0:0:0:
32,160,106915,1,0,0:0:0:0:
76,247,107091,2,0,P|119:222|168:228,1,100,8|0,0:0|0:0,0:0:0:0:
392,336,107621,5,0,0:0:0:0:
324,264,107797,2,0,B|340:240|368:240|368:240|440:240,1,100,8|0,0:0|0:0,0:0:0:0:
220,316,108150,6,0,B|200:268|200:268|220:248|220:220,1,100,0|8,0:0|0:0,0:0:0:0:
208,124,108503,1,4,0:0:0:0:
304,56,108679,2,0,B|333:84|341:96|341:96|325:128|313:144|313:172|313:172|353:168|385:192,1,200
324,264,109209,1,8,0:0:0:0:
424,276,109385,1,0,0:0:0:0:
232,304,109562,5,4,0:0:0:0:
76,176,109738,1,0,0:0:0:0:
76,176,110091,5,0,0:0:0:0:
220,72,110268,1,4,0:0:0:0:
296,136,110444,6,0,P|356:140|404:96,1,100,0|8,0:0|0:0,0:0:0:0:
452,40,110797,1,0,0:0:0:0:
220,72,110974,5,4,0:0:0:0:
372,328,111327,1,8,0:0:0:0:
72,296,111679,1,4,3:0:0:0:
168,316,111856,1,0,0:0:0:0:
172,216,112032,6,0,L|112:240,5,33.3333333333333,0|2|0|2|0|2,1:0|2:0|0:0|2:0|0:0|2:0,0:0:0:0:
172,216,112385,6,0,B|136:168|136:168|236:184|176:104|176:104|216:128|272:104,1,262.500010013581,4|0,1:2|2:0,0:0:0:0:
250,111,113091,6,0,B|304:112|332:44|332:44|256:32|216:44|216:44|176:28,1,262.500010013581,4|0,2:1|2:0,0:0:0:0:
185,31,113797,6,0,B|128:16|128:16|124:104|184:128|140:172,1,225.000008583069,4|0,1:2|0:0,0:0:0:0:
256,252,114503,5,0,0:0:0:0:
228,120,114679,1,0,0:0:0:0:
360,312,114856,1,8,0:0:0:0:
336,168,115032,1,0,0:0:0:0:
480,352,115209,5,0,0:0:0:0:
500,256,115385,1,0,0:0:0:0:
456,164,115562,2,0,P|436:116|384:88,1,100,8|0,0:0|0:0,0:0:0:0:
308,48,115915,2,0,L|200:48,1,100
112,72,116268,2,0,P|104:128|128:168,1,100,8|0,0:0|0:0,0:0:0:0:
224,164,116621,1,0,0:0:0:0:
335,316,116797,6,0,P|329:267|296:232,1,100,0|8,0:0|0:0,0:0:0:0:
200,252,117150,1,0,0:0:0:0:
112,300,117327,2,0,P|60:268|48:216,1,100
48,62,117679,2,0,L|100:148,1,100,8|0,0:0|0:0,0:0:0:0:
256,344,118032,6,0,P|336:236|416:328,1,262.500010013581,4|0,1:2|2:0,0:0:0:0:
413,296,118738,6,0,B|332:336|332:336|304:200|352:144,1,262.500010013581,4|0,2:1|2:0,0:0:0:0:
337,167,119444,6,0,P|256:192|276:72,1,225.000008583069,4|0,1:2|0:0,0:0:0:0:
344,56,120150,5,0,0:0:0:0:
420,120,120327,1,0,0:0:0:0:
436,220,120503,1,8,0:0:0:0:
412,316,120679,1,0,0:0:0:0:
312,328,120856,6,0,P|264:304|192:316,1,100
24,348,121209,1,8,0:0:0:0:
76,264,121385,1,0,0:0:0:0:
71,155,121562,6,0,P|64:107|90:66,1,100
188,240,121915,1,8,0:0:0:0:
288,224,122091,1,0,0:0:0:0:
460,324,122268,6,0,L|448:224,1,100
432,124,122621,2,0,P|392:76|336:80,1,100,8|0,0:0|0:0,0:0:0:0:
168,136,122974,5,0,0:0:0:0:
156,152,123062,1,0,0:0:0:0:
144,168,123150,1,0,0:0:0:0:
132,184,123238,1,0,0:0:0:0:
120,200,123327,6,0,P|109:131|120:64,1,119.999996337891,12|0,0:0|0:0,0:0:0:0:
132,332,123679,6,0,P|140:288|208:288,1,112.500004291535,4|0,3:0|0:0,0:0:0:0:
372,344,124032,6,0,L|272:352,1,100,4|0,1:2|0:0,0:0:0:0:
132,332,124385,6,0,P|124:287|188:264,1,112.500004291535,4|0,3:0|0:0,0:0:0:0:
376,320,124738,6,0,L|276:328,1,100,4|0,1:2|0:0,0:0:0:0:
96,240,125091,6,2,B|100:200|72:184|72:184|120:132,1,100,0|0,0:0|0:0,0:0:0:0:
195,58,125444,2,2,B|172:84|172:84|200:100|196:140,1,100,8|0,0:0|0:0,0:0:0:0:
72,256,125797,2,2,B|76:216|48:200|48:200|96:148,1,100,0|0,0:0|0:0,0:0:0:0:
219,38,126150,2,2,B|196:64|196:64|224:80|220:120,1,100,8|0,0:0|0:0,0:0:0:0:
244,320,126503,6,0,P|296:328|304:256,1,112.500004291535,4|0,3:0|0:0,0:0:0:0:
284,136,126856,6,0,L|296:32,1,100,4|0,1:2|0:0,0:0:0:0:
244,320,127209,6,0,P|290:345|322:280,1,112.500004291535,4|0,3:0|0:0,0:0:0:0:
292,148,127562,6,0,L|304:44,1,100,4|0,1:2|0:0,0:0:0:0:
448,312,127915,6,2,L|344:312,1,100,0|0,0:0|0:0,0:0:0:0:
312,288,128268,2,2,L|412:288,1,100,8|0,0:0|0:0,0:0:0:0:
388,272,128621,2,2,L|284:272,1,100,0|0,0:0|0:0,0:0:0:0:
264,252,128974,5,8,0:0:0:0:
312,244,129062,1,0,0:0:0:0:
340,204,129150,1,0,0:0:0:0:
324,156,129238,1,0,0:0:0:0:
280,128,129327,5,4,0:0:0:0:
188,164,129503,1,0,0:0:0:0:
188,60,129679,1,8,0:0:0:0:
92,92,129856,1,0,0:0:0:0:
71,277,130032,2,0,P|103:240|104:191,1,100
92,92,130385,1,8,0:0:0:0:
8,200,130562,1,0,0:0:0:0:
8,200,130915,5,0,0:0:0:0:
71,277,131091,2,0,L|184:268,1,100,8|0,0:0|0:0,0:0:0:0:
268,240,131444,2,0,P|319:235|316:284,1,100
312,372,131797,2,0,P|352:376|404:320,1,100,8|0,0:0|0:0,0:0:0:0:
376,140,132150,5,0,0:0:0:0:
304,68,132327,1,0,0:0:0:0:
232,136,132503,1,8,0:0:0:0:
312,76,132679,1,0,0:0:0:0:
120,37,132856,2,0,P|169:28|216:44,1,100
376,140,133209,1,8,0:0:0:0:
376,140,133385,6,0,P|408:180|408:240,2,100
212,328,133915,1,12,2:1:0:0:
212,328,134268,2,2,P|164:324|128:268,1,100,6|0,2:1|0:0,0:0:0:0:
131,286,134621,6,2,L|112:148,1,119.999996337891,6|0,2:1|0:0,0:0:0:0:
360,336,134974,5,4,0:0:0:0:
420,144,135150,1,0,0:0:0:0:
432,244,135327,1,8,0:0:0:0:
356,308,135679,5,0,0:0:0:0:
396,164,135855,1,0,0:0:0:0:
432,244,136032,1,8,0:0:0:0:
236,204,136385,5,0,0:0:0:0:
56,292,136562,1,0,0:0:0:0:
144,248,136738,1,8,0:0:0:0:
144,252,137091,5,0,0:0:0:0:
56,284,137267,1,0,0:0:0:0:
240,212,137444,1,8,0:0:0:0:
248,208,137797,5,4,0:0:0:0:
48,288,137974,1,0,0:0:0:0:
260,204,138150,5,12,0:0:0:0:
40,292,138327,1,0,0:0:0:0:
40,292,139209,6,0,B|72:232|20:204|20:204|72:180|72:128|72:128|64:184|100:240,1,300,4|8,1:1|1:0,0:0:0:0:
0,128,140621,6,0,L|-8:88,1,25
8,120,140797,2,0,L|8:76,1,25
16,112,140974,2,0,L|24:68,1,25
24,104,141150,2,0,L|44:68,1,25
96,44,141327,6,0,L|128:24,5,25.0000009536744,2|2|2|2|2|2,2:0|2:0|2:0|2:0|2:0|2:0,0:0:0:0:
116,144,141679,6,0,L|132:184,7,29.9999990844727,2|2|2|2|2|2|0|0,2:0|2:0|2:0|2:0|2:0|2:0|0:0|0:0,0:0:0:0:
120,132,142032,6,0,P|156:96|220:100,1,100,6|0,0:0|0:0,0:0:0:0:
391,252,142385,2,0,P|357:287|309:291,1,100,10|0,0:0|0:0,0:0:0:0:
112,252,142738,2,0,L|220:216,1,100,2|0,0:0|0:0,0:0:0:0:
372,152,143091,1,8,0:0:0:0:
240,136,143268,6,0,P|188:108|140:116,1,100,2|0,0:0|0:0,0:0:0:0:
148,271,143621,2,0,P|198:274|240:248,1,100,2|8,0:0|0:0,0:0:0:0:
324,192,143974,1,2,0:0:0:0:
56,192,144150,1,0,0:0:0:0:
156,192,144327,1,0,0:0:0:0:
312,320,144503,5,8,0:0:0:0:
312,320,144591,2,0,P|324:304|368:304,2,50,2|2|2,2:0|2:0|2:0,0:0:0:0:
312,320,144856,6,0,L|208:328,1,100,2|0,0:0|0:0,0:0:0:0:
24,260,145209,2,0,L|136:248,1,100,10|0,0:0|0:0,0:0:0:0:
316,212,145562,1,2,0:0:0:0:
224,252,145739,1,0,0:0:0:0:
408,248,145915,1,8,0:0:0:0:
424,148,146091,6,0,P|420:96|352:60,1,100,2|0,0:0|0:0,0:0:0:0:
188,64,146444,2,0,L|89:44,1,100,2|8,0:0|0:0,0:0:0:0:
256,140,146797,1,2,0:0:0:0:
93,196,146974,6,2,B|104:188|140:192|140:192|128:176|128:176|160:168,1,100,0|0,0:0|0:0,0:0:0:0:
418,196,147327,2,2,B|408:188|372:192|372:192|384:176|384:176|352:168,1,100,0|0,0:0|0:0,0:0:0:0:
199,336,147679,6,2,P|264:302|280:232,1,150.000005722046,2|8,0:0|0:0,0:0:0:0:
224,64,148209,1,0,0:0:0:0:
184,244,148385,1,2,0:0:0:0:
236,32,148562,6,0,B|197:42|158:29|158:29|180:41|180:41|159:61,1,119.999996337891,0|10,0:0|0:0,0:0:0:0:
184,244,148915,1,0,0:0:0:0:
236,32,149091,6,2,P|284:104|368:88,1,150.000005722046,2|8,0:0|0:0,0:0:0:0:
464,188,149621,1,0,0:0:0:0:
316,28,149797,1,2,0:0:0:0:
484,212,149974,6,0,B|460:252|464:291|464:291|452:268|452:268|428:260,1,119.999996337891,0|10,0:0|0:0,0:0:0:0:
96,178,150327,1,0,0:0:0:0:
336,200,150503,6,2,P|276:192|216:190,1,119.999996337891,6|0,0:0|0:0,0:0:0:0:
24,248,150856,5,8,0:0:0:0:
96,316,151032,1,0,0:0:0:0:
196,296,151209,2,0,P|248:284|296:288,1,100
486,315,151562,2,0,P|437:327|388:324,1,100,8|0,0:0|0:0,0:0:0:0:
339,145,151915,6,2,B|328:160|364:180|364:180|340:200|364:228,1,100,0|0,0:0|0:0,0:0:0:0:
150,225,152268,2,2,B|172:200|148:180|148:180|184:160|172:145,1,100,8|0,0:0|0:0,0:0:0:0:
348,52,152797,5,0,0:0:0:0:
252,80,152974,1,8,0:0:0:0:
212,48,153062,1,0,0:0:0:0:
164,44,153150,1,0,0:0:0:0:
116,56,153238,1,0,0:0:0:0:
84,96,153327,6,0,L|48:208,1,100,6|0,0:0|0:0,0:0:0:0:
200,328,153679,2,0,P|240:288|296:284,1,100,10|0,0:0|0:0,0:0:0:0:
480,276,154032,2,0,L|384:204,1,100,2|0,0:0|0:0,0:0:0:0:
260,104,154385,1,8,0:0:0:0:
300,196,154562,5,2,0:0:0:0:
204,220,154738,1,0,0:0:0:0:
24,280,154915,2,0,P|72:252|136:256,1,100,2|8,0:0|0:0,0:0:0:0:
96,352,155268,1,2,0:0:0:0:
40,180,155444,1,0,0:0:0:0:
184,132,155621,1,0,0:0:0:0:
92,96,155797,5,8,0:0:0:0:
92,96,155885,2,0,L|24:104,2,50,2|2|2,2:0|2:0|2:0,0:0:0:0:
128,60,156150,6,0,L|236:44,1,100,2|0,0:0|0:0,0:0:0:0:
264,192,156503,2,0,L|363:191,1,100,10|0,0:0|0:0,0:0:0:0:
72,224,156856,1,2,0:0:0:0:
248,236,157032,1,0,0:0:0:0:
160,284,157209,1,8,0:0:0:0:
350,319,157385,6,0,P|301:328|252:320,1,100,2|0,0:0|0:0,0:0:0:0:
73,260,157738,2,0,P|122:251|172:260,1,100,2|8,0:0|0:0,0:0:0:0:
44,184,158091,1,2,0:0:0:0:
128,128,158268,6,2,B|144:112|128:88|128:88|152:84|152:84|160:44,1,100,0|0,0:0|0:0,0:0:0:0:
353,52,158621,2,2,B|360:84|360:84|384:88|384:88|368:112|384:128,1,100,0|0,0:0|0:0,0:0:0:0:
216,308,158974,6,2,P|148:244|96:256,1,150.000005722046,2|8,0:0|0:0,0:0:0:0:
296,256,159503,1,0,0:0:0:0:
132,348,159679,1,2,0:0:0:0:
368,316,159856,6,0,B|408:280|452:292|452:292|440:276|440:276|444:256,1,119.999996337891,0|10,0:0|0:0,0:0:0:0:
316,120,160209,1,0,0:0:0:0:
132,348,160385,6,2,P|64:320|48:240,1,150.000005722046,2|8,0:0|0:0,0:0:0:0:
128,72,160915,1,0,0:0:0:0:
144,248,161091,1,2,0:0:0:0:
128,72,161268,6,0,B|172:88|211:53|211:53|224:68|224:68|260:48,1,119.999996337891,0|10,0:0|0:0,0:0:0:0:
144,248,161621,1,0,0:0:0:0:
388,296,161797,5,2,0:0:0:0:
380,272,162150,1,10,0:0:0:0:
372,248,162503,1,2,0:0:0:0:
364,224,162856,1,10,0:0:0:0:
356,200,163209,5,2,0:0:0:0:
340,180,163385,1,0,0:0:0:0:
316,172,163562,1,10,0:0:0:0:
292,180,163738,1,0,0:0:0:0:
276,200,163915,6,2,L|288:248,1,37.5000014305115,10|0,0:0|0:0,0:0:0:0:
252,224,164091,2,0,L|276:256,1,37.5000014305115,8|0,0:0|0:0,0:0:0:0:
236,252,164268,2,2,L|280:284,1,37.5000014305115,10|0,0:0|0:0,0:0:0:0:
232,288,164444,2,0,L|280:296,1,37.5000014305115,8|0,0:0|0:0,0:0:0:0:
240,316,164621,6,2,B|208:240|72:256|72:256|140:176|104:92|104:92|244:200|352:148|352:148|328:184|348:216,1,700,6|0,1:0|0:0,0:0:0:0:
283,79,181562,6,0,P|332:91|381:87,1,100,2|0,0:0|0:0,0:0:0:0:
196,32,181915,1,10,0:0:0:0:
172,40,182003,1,0,0:0:0:0:
152,56,182091,1,0,0:0:0:0:
140,80,182179,1,0,0:0:0:0:
132,104,182268,2,2,P|140:188|72:216,1,150,0|0,0:0|0:0,0:0:0:0:
56,216,182621,5,8,0:0:0:0:
24,204,182709,2,0,L|12:156,2,50
128,292,182974,2,0,L|184:296,1,50
144,256,183150,2,0,L|196:244,1,50
152,212,183327,2,0,P|236:156|356:180,1,200,8|2,0:0|0:0,0:0:0:0:
408,228,183856,5,0,0:0:0:0:
468,148,184032,1,10,0:0:0:0:
320,168,184209,1,0,0:0:0:0:
304,268,184385,5,2,0:0:0:0:
292,292,184474,1,0,0:0:0:0:
272,308,184562,1,0,0:0:0:0:
248,320,184650,1,0,0:0:0:0:
224,324,184738,6,0,L|116:320,1,100,10|0,0:0|0:0,0:0:0:0:
120,172,185091,2,0,L|12:168,1,100,2|0,0:0|0:0,0:0:0:0:
220,144,185444,6,0,L|260:100,2,50,8|0|0,0:0|0:0|0:0,0:0:0:0:
124,260,185797,2,0,L|60:248,2,50
276,260,186150,1,8,0:0:0:0:
280,268,186503,5,0,0:0:0:0:
300,280,186591,1,0,0:0:0:0:
324,284,186679,1,0,0:0:0:0:
348,280,186768,1,0,0:0:0:0:
368,264,186856,1,8,0:0:0:0:
408,120,187032,1,0,0:0:0:0:
260,152,187209,6,0,L|148:128,1,100,2|0,0:0|0:0,0:0:0:0:
408,120,187562,1,10,0:0:0:0:
412,144,187650,1,0,0:0:0:0:
416,168,187738,1,0,0:0:0:0:
420,192,187827,1,0,0:0:0:0:
424,216,187915,2,2,P|344:212|300:268,1,150,0|0,0:0|0:0,0:0:0:0:
296,296,188268,5,8,0:0:0:0:
312,328,188356,2,0,L|364:332,2,50
212,340,188621,2,0,L|164:316,2,50
240,268,188974,1,8,0:0:0:0:
304,80,189327,5,2,0:0:0:0:
124,104,189503,1,0,0:0:0:0:
212,124,189679,1,10,0:0:0:0:
68,28,189856,1,0,0:0:0:0:
212,124,190032,5,2,0:0:0:0:
220,148,190121,1,0,0:0:0:0:
216,172,190209,1,0,0:0:0:0:
204,196,190297,1,0,0:0:0:0:
184,212,190385,5,10,0:0:0:0:
456,340,190738,1,2,0:0:0:0:
400,44,191091,1,8,0:0:0:0:
436,240,191444,5,2,0:0:0:0:
424,216,191532,1,0,0:0:0:0:
404,200,191621,1,2,0:0:0:0:
380,192,191709,1,0,0:0:0:0:
356,192,191797,2,2,L|248:176,1,100,10|0,0:0|0:0,0:0:0:0:
88,284,192150,5,2,0:0:0:0:
108,296,192238,1,0,0:0:0:0:
132,300,192327,1,2,0:0:0:0:
156,296,192415,1,0,0:0:0:0:
180,284,192503,2,2,L|200:180,1,100,10|0,0:0|0:0,0:0:0:0:
208,364,192856,6,0,P|252:332|252:256,1,112.500004291535,4|0,3:0|0:0,0:0:0:0:
208,84,193209,6,0,L|192:212,1,100,4|0,1:2|0:0,0:0:0:0:
208,364,193562,6,0,P|238:318|212:247,1,112.500004291535,4|0,3:0|0:0,0:0:0:0:
112,100,193915,6,0,L|140:225,1,100,4|0,1:2|0:0,0:0:0:0:
208,364,194268,6,2,P|244:320|304:316,1,100,0|0,0:0|0:0,0:0:0:0:
384,324,194621,2,2,P|420:288|424:220,1,100,8|0,0:0|0:0,0:0:0:0:
212,120,194974,2,2,L|307:91,1,100,0|0,0:0|0:0,0:0:0:0:
108,248,195327,2,2,L|204:220,1,100,8|0,0:0|0:0,0:0:0:0:
36,272,195679,6,0,P|84:324|140:312,1,112.500004291535,4|0,3:0|0:0,0:0:0:0:
212,120,196032,6,0,L|200:232,1,100,4|0,1:2|0:0,0:0:0:0:
36,272,196385,6,0,P|63:337|120:345,1,112.500004291535,4|0,3:0|0:0,0:0:0:0:
253,189,196738,6,0,L|203:290,1,100,4|0,1:2|0:0,0:0:0:0:
324,112,197091,6,2,L|436:120,1,100,0|0,0:0|0:0,0:0:0:0:
188,112,197444,2,2,L|76:120,1,100,8|0,0:0|0:0,0:0:0:0:
296,200,197797,2,2,L|352:292,1,100,0|0,0:0|0:0,0:0:0:0:
216,200,198150,2,2,L|160:292,1,100,8|0,0:0|0:0,0:0:0:0:
124,316,198415,1,0,0:0:0:0:
76,332,198503,5,4,0:0:0:0:
64,132,198679,1,0,0:0:0:0:
36,228,198856,2,0,P|88:236|128:196,1,100,8|0,0:0|0:0,0:0:0:0:
168,64,199209,1,0,0:0:0:0:
168,64,199562,1,8,0:0:0:0:
368,88,199738,1,0,0:0:0:0:
280,136,199915,6,0,P|228:136|168:152,1,100
81,258,200268,2,0,P|131:259|180:248,1,100,8|0,0:0|0:0,0:0:0:0:
280,136,200621,1,0,0:0:0:0:
368,316,200797,1,0,0:0:0:0:
372,176,200974,1,8,0:0:0:0:
444,108,201150,1,0,0:0:0:0:
444,108,201238,1,0,0:0:0:0:
444,108,201327,6,0,P|436:52|400:12,1,100
372,176,201679,1,0,0:0:0:0:
160,122,201856,2,0,L|260:136,1,100
40,232,202209,2,0,L|140:220,1,100
280,268,202562,1,0,0:0:0:0:
416,332,202738,6,2,P|444:272|420:224,1,100,4|0,0:0|0:0,0:0:0:0:
412,256,203091,2,2,L|440:136,1,100,12|0,0:0|0:0,0:0:0:0:
416,176,203444,2,2,L|412:68,1,100,4|0,0:0|0:0,0:0:0:0:
396,92,203797,6,2,B|380:60|360:92|344:60|344:60|308:76|292:44|264:56,1,119.999996337891,12|0,0:0|0:0,0:0:0:0:
60,192,204150,5,4,0:0:0:0:
220,312,204327,1,0,0:0:0:0:
256,116,204503,1,8,0:0:0:0:
264,116,204856,5,4,0:0:0:0:
48,192,205032,1,0,0:0:0:0:
272,116,205209,1,8,0:0:0:0:
468,344,205562,5,4,0:0:0:0:
406,203,205738,2,0,L|396:104,1,100,0|8,0:0|0:0,0:0:0:0:
468,344,206268,5,4,0:0:0:0:
390,171,206444,2,0,L|380:72,1,100,0|8,0:0|0:0,0:0:0:0:
276,336,206974,6,0,P|224:328|180:288,1,100,4|0,0:0|0:0,0:0:0:0:
236,48,207327,2,0,P|288:56|332:96,1,100,12|0,0:0|0:0,0:0:0:0:
201,326,207679,6,0,P|160:293|142:237,1,100,4|0,0:0|0:0,0:0:0:0:
310,57,208032,2,0,P|351:90|369:146,1,100,12|0,0:0|0:0,0:0:0:0:
141,281,208385,6,0,B|122:232|128:184|128:184|144:108|176:104|176:104|176:228|216:184,1,300,4|8,0:0|0:0,0:0:0:0:
268,116,209797,5,0,0:0:0:0:
264,152,209974,1,0,0:0:0:0:
280,180,210150,5,8,0:0:0:0:
284,188,210238,1,0,0:0:0:0:
288,196,210327,1,0,0:0:0:0:
292,204,210415,1,0,0:0:0:0:
292,216,210503,6,0,L|256:236,2,25.0000009536744,2|2|2,2:0|0:0|0:0,0:0:0:0:
308,304,210679,2,0,L|340:324,2,25.0000009536744,2|2|2,0:0|0:0|0:0,0:0:0:0:
220,328,210856,2,2,L|188:304,6,25,2|2|2|2|2|2|0,2:0|2:0|2:0|2:0|2:0|2:0|0:0,2:0:0:0:
108,348,211209,5,4,2:1:0:0:
424,240,214032,5,4,0:0:0:0:
132,304,214738,1,4,0:0:0:0:
456,240,215268,5,4,2:1:0:0:
80,80,215621,1,4,2:1:0:0:
256,336,215974,6,2,P|296:288|208:284,1,187.500007152558,4|0,2:1|0:0,0:0:0:0:
256,336,216503,6,0,P|272:264|236:188,1,150,12|0,1:0|0:0,0:0:0:0:
156,148,216856,5,6,0:0:0:0:
396,332,217209,1,8,0:0:0:0:
436,164,217385,1,2,0:0:0:0:
364,236,217562,1,8,0:0:0:0:
396,72,217738,5,0,0:0:0:0:
476,256,217915,1,10,0:0:0:0:
296,328,218091,1,0,0:0:0:0:
156,148,218268,6,0,B|172:192|149:244|149:244|184:244|208:192,1,150.000005722046,2|8,0:0|0:0,0:0:0:0:
276,44,218797,5,2,0:0:0:0:
68,192,218974,1,0,0:0:0:0:
304,72,219150,6,0,P|332:136|316:192,1,119.999996337891,0|10,0:0|0:0,0:0:0:0:
212,296,219503,1,0,0:0:0:0:
440,244,219679,6,0,L|320:224,1,119.999996337891,6|0,0:0|0:0,0:0:0:0:
76,312,220032,5,8,0:0:0:0:
140,236,220209,1,0,0:0:0:0:
240,220,220385,2,0,P|288:208|324:152,1,100
276,28,220738,2,0,L|374:43,1,100,8|0,0:0|0:0,0:0:0:0:
232,96,221091,6,2,B|192:92|204:76|204:76|172:84|132:76,1,100,0|0,0:0|0:0,0:0:0:0:
3,142,221444,2,2,B|43:146|31:162|31:162|63:154|88:160,1,100,8|0,0:0|0:0,0:0:0:0:
216,312,221974,5,0,0:0:0:0:
292,248,222150,1,8,0:0:0:0:
336,220,222238,1,0,0:0:0:0:
388,216,222327,1,0,0:0:0:0:
428,244,222415,1,0,0:0:0:0:
460,284,222503,6,0,L|488:180,1,100,6|0,0:0|0:0,0:0:0:0:
336,56,222856,2,0,L|308:160,1,100,10|0,0:0|0:0,0:0:0:0:
172,300,223209,2,0,P|180:244|164:192,1,100,2|0,0:0|0:0,0:0:0:0:
88,76,223562,1,8,0:0:0:0:
32,160,223738,5,2,0:0:0:0:
72,252,223915,1,0,0:0:0:0:
172,300,224091,2,0,P|216:280|272:288,1,100,2|8,0:0|0:0,0:0:0:0:
360,324,224444,2,0,L|480:304,1,100,2|0,0:0|0:0,0:0:0:0:
280,212,224797,1,0,0:0:0:0:
300,116,224974,5,8,0:0:0:0:
300,116,225062,2,0,L|352:68,2,50,2|2|2,2:0|2:0|2:0,0:0:0:0:
252,124,225327,6,0,P|208:112|152:108,1,100,2|0,0:0|0:0,0:0:0:0:
12,252,225679,2,0,P|56:264|112:268,1,100,10|0,0:0|0:0,0:0:0:0:
304,232,226032,1,2,0:0:0:0:
208,256,226209,1,0,0:0:0:0:
384,172,226385,1,8,0:0:0:0:
208,256,226562,6,0,P|176:212|172:160,1,100,2|0,0:0|0:0,0:0:0:0:
312,28,226915,2,0,P|344:72|348:124,1,100,2|8,0:0|0:0,0:0:0:0:
312,260,227268,1,2,0:0:0:0:
164,276,227444,6,2,B|96:276|96:276|72:244,1,100,0|0,0:0|0:0,0:0:0:0:
148,120,227797,2,2,B|216:120|216:120|240:152,1,100,8|0,0:0|0:0,0:0:0:0:
312,260,228150,6,0,P|368:212|460:232,1,150.000005722046,2|8,0:0|0:0,0:0:0:0:
264,340,228679,5,2,0:0:0:0:
68,320,228856,1,0,0:0:0:0:
156,356,229032,5,0,0:0:0:0:
68,320,229209,2,0,L|44:188,1,119.999996337891,10|0,0:0|0:0,0:0:0:0:
312,260,229562,6,0,P|368:212|460:232,1,150.000005722046,2|8,0:0|0:0,0:0:0:0:
264,340,230091,5,2,0:0:0:0:
68,320,230268,1,0,0:0:0:0:
156,356,230444,5,0,0:0:0:0:
68,320,230621,2,0,L|44:188,1,119.999996337891,10|0,0:0|0:0,0:0:0:0:
264,340,230974,5,2,0:0:0:0:
84,152,231327,1,10,0:0:0:0:
312,28,231679,1,2,0:0:0:0:
472,236,232032,1,10,0:0:0:0:
256,256,232385,5,2,0:0:0:0:
236,240,232562,1,0,0:0:0:0:
228,216,232738,1,10,0:0:0:0:
232,192,232915,1,0,0:0:0:0:
244,172,233091,5,2,0:0:0:0:
276,148,233179,1,0,0:0:0:0:
316,140,233268,1,8,0:0:0:0:
352,160,233356,1,0,0:0:0:0:
376,192,233444,1,10,0:0:0:0:
380,232,233532,1,0,0:0:0:0:
368,272,233621,1,8,0:0:0:0:
340,300,233709,1,0,0:0:0:0:
300,312,233797,5,6,0:0:0:0:
256,192,233974,12,0,236268,0:0:0:0:
336,128,236621,5,0,0:0:0:0:
144,164,236797,1,0,0:0:0:0:
232,96,236973,1,8,0:0:0:0:
428,252,237327,6,0,P|384:236|328:240,1,100
248,292,237679,2,0,P|201:300|155:331,1,100,8|0,0:0|0:0,0:0:0:0:
360,336,238032,2,0,L|460:356,2,100,0|0|8,0:0|0:0|0:0,0:0:0:0:
88,204,238738,6,0,P|88:152|44:96,2,100,0|0|8,0:0|0:0|0:0,0:0:0:0:
8,332,239268,1,0,0:0:0:0:
208,340,239444,1,0,0:0:0:0:
228,240,239621,5,0,0:0:0:0:
296,168,239797,2,0,P|332:136|396:136,1,100,8|0,0:0|0:0,0:0:0:0:
468,184,240150,1,0,0:0:0:0:
508,92,240327,1,0,0:0:0:0:
472,192,240503,1,8,0:0:0:0:
308,308,240856,5,0,0:0:0:0:
284,212,241032,1,0,0:0:0:0:
204,152,241209,2,0,P|156:128|104:132,1,100,8|0,0:0|0:0,0:0:0:0:
16,168,241562,1,0,0:0:0:0:
4,68,241738,1,0,0:0:0:0:
20,176,241915,1,8,0:0:0:0:
152,324,242268,5,0,0:0:0:0:
232,264,242444,1,0,0:0:0:0:
232,168,242621,2,0,P|280:148|344:148,2,100,8|0|0,0:0|0:0|0:0,0:0:0:0:
144,220,243150,2,0,P|56:184|56:72,1,200
116,16,243679,1,0,0:0:0:0:
140,120,243856,1,0,0:0:0:0:
124,24,244032,1,8,0:0:0:0:
304,264,244385,6,0,P|344:300|356:364,2,100,0|0|8,0:0|0:0|0:0,0:0:0:0:
204,248,244915,1,0,0:0:0:0:
20,172,245091,1,0,0:0:0:0:
96,240,245268,5,0,0:0:0:0:
136,148,245444,2,0,P|116:100|76:68,1,100,8|0,0:0|0:0,0:0:0:0:
96,240,245797,2,0,L|88:352,2,100,0|0|8,0:0|0:0|0:0,0:0:0:0:
96,240,246503,5,0,0:0:0:0:
192,260,246679,1,0,0:0:0:0:
268,192,246856,2,0,P|316:180|380:184,1,100,8|0,0:0|0:0,0:0:0:0:
490,269,247209,2,0,P|441:281|392:280,1,100
260,184,247562,1,8,0:0:0:0:
252,176,247915,5,4,0:0:0:0:
44,252,248091,1,0,0:0:0:0:
140,112,248268,2,0,P|128:64|100:16,1,100,8|0,0:0|0:0,0:0:0:0:
108,196,248621,1,0,0:0:0:0:
263,306,248797,2,0,B|308:252|308:252|260:272|213:261|180:220,1,200
20,148,249327,5,0,0:0:0:0:
260,184,249503,1,0,0:0:0:0:
24,156,249679,1,8,0:0:0:0:
108,336,250032,5,8,0:0:0:0:
64,308,250121,1,0,0:0:0:0:
52,252,250209,1,8,0:0:0:0:
76,208,250297,1,0,0:0:0:0:
120,184,250385,6,0,L|136:80,1,100,8|0,0:0|0:0,0:0:0:0:
168,284,250738,1,4,0:0:0:0:
360,332,250915,6,0,P|372:272|336:216,2,100,0|8|0,0:0|0:0|0:0,0:0:0:0:
268,372,251444,1,0,0:0:0:0:
464,324,251621,1,0,0:0:0:0:
272,380,251797,1,8,0:0:0:0:
108,128,252150,5,0,0:0:0:0:
196,84,252327,2,0,P|244:64|320:64,1,100,0|8,0:0|0:0,0:0:0:0:
436,108,252679,1,0,0:0:0:0:
196,84,252856,2,0,P|244:103|297:157,1,100
348,270,253208,1,8,0:0:0:0:
348,270,253562,6,0,L|249:254,1,100,4|0,0:0|0:0,0:0:0:0:
116,116,253915,1,0,0:0:0:0:
148,252,254091,1,8,0:0:0:0:
64,200,254268,1,0,0:0:0:0:
356,280,254444,2,0,B|368:208|312:176|312:176|392:160,1,200
148,252,254974,5,0,0:0:0:0:
248,264,255150,1,0,0:0:0:0:
64,200,255327,1,8,0:0:0:0:
64,200,255679,5,0,0:0:0:0:
164,48,255856,1,0,0:0:0:0:
96,200,256032,1,8,0:0:0:0:
244,108,256209,1,0,0:0:0:0:
136,292,256385,1,4,0:0:0:0:
137,294,256562,6,0,P|143:245|124:200,1,100,0|8,0:0|0:0,0:0:0:0:
16,64,256915,1,0,0:0:0:0:
137,294,257091,1,0,0:0:0:0:
252,200,257268,1,0,0:0:0:0:
280,348,257444,1,8,0:0:0:0:
280,36,257797,5,4,0:0:0:0:
296,244,257974,1,0,0:0:0:0:
431,178,258150,2,0,P|462:140|472:92,1,100,8|0,0:0|0:0,0:0:0:0:
296,244,258503,1,0,0:0:0:0:
148,272,258679,1,0,0:0:0:0:
308,240,258856,1,8,0:0:0:0:
112,284,259209,5,4,0:0:0:0:
72,192,259385,1,0,0:0:0:0:
116,100,259562,2,0,P|160:76|224:80,1,100,8|0,0:0|0:0,0:0:0:0:
308,240,259915,1,0,0:0:0:0:
116,100,260091,2,0,P|200:84|288:152,1,200,0|0,0:0|0:0,0:0:0:0:
264,268,260621,5,0,0:0:0:0:
316,352,260797,1,0,0:0:0:0:
388,220,260974,1,8,0:0:0:0:
140,320,261327,5,8,0:0:0:0:
124,300,261415,1,0,0:0:0:0:
120,276,261503,1,8,0:0:0:0:
124,252,261591,1,0,0:0:0:0:
136,228,261679,6,0,P|152:172|124:124,1,100,14|0,0:0|0:0,0:0:0:0:
336,28,262032,5,8,0:0:0:0:
316,64,262121,1,0,0:0:0:0:
320,104,262209,1,8,0:0:0:0:
340,140,262297,1,0,0:0:0:0:
376,172,262385,6,0,P|392:232|348:308,1,119.999996337891,14|0,0:0|0:0,0:0:0:0:
108,76,262738,5,8,0:0:0:0:
156,88,262827,1,0,0:0:0:0:
184,132,262915,1,8,0:0:0:0:
196,180,263003,1,0,0:0:0:0:
184,228,263091,6,0,P|256:208|340:224,1,150.000005722046,14|0,0:0|0:0,0:0:0:0:
