osu file format v14

[General]
AudioFilename: Cutie Panther.mp3
AudioLeadIn: 0
PreviewTime: 67209
Countdown: 0
SampleSet: Normal
StackLeniency: 0.7
Mode: 2
LetterboxInBreaks: 0
WidescreenStoryboard: 0

[Editor]
Bookmarks: 26267,89797,167444,168503
DistanceSpacing: 2
BeatDivisor: 4
GridSize: 8
TimelineZoom: 2.3

[Metadata]
Title:Cutie Panther
TitleUnicode:Cutie Panther
Artist:BiBi
ArtistUnicode:BiBi
Creator:CLSW
Version:Salad
Source:ラブライブ! School idol project
Tags:ayase eli 絢瀬絵里 nanjo yoshino 南條愛乃 nishikino maki 西木野真姫 Pile hori eriko 堀絵梨子 yazawa nico 矢澤にこ tokui sora 徳井青空 μ's u's Summer Do Not End Natsu owaranai de lovelive! muse
BeatmapID:572709
BeatmapSetID:249055

[Difficulty]
HPDrainRate:4
CircleSize:3
OverallDifficulty:6
ApproachRate:6
SliderMultiplier:1.44
SliderTickRate:2

[Events]
//Background and Video events
0,0,"30.jpg",0,0
//Break Periods
2,92821,100041
2,170268,180512
2,211409,212982
//Storyboard Layer 0 (Background)
//Storyboard Layer 1 (Fail)
//Storyboard Layer 2 (Pass)
//Storyboard Layer 3 (Foreground)
//Storyboard Sound Samples

[TimingPoints]
3680,352.941176470588,4,1,1,30,1,0
6503,-100,4,1,1,37,0,0
9327,-100,4,1,1,45,0,0
12150,-100,4,1,1,60,0,0
14621,-100,4,1,1,70,0,0
14974,-100,4,1,99,45,0,0
15150,-100,4,1,1,80,0,0
48944,-100,4,1,1,60,0,0
49209,-100,4,1,1,80,0,0
49650,-100,4,1,1,60,0,0
49915,-100,4,1,1,80,0,0
50268,-100,4,1,1,60,0,0
51679,-100,4,1,1,80,0,0
51768,-100,4,1,1,60,0,0
52032,-100,4,1,1,80,0,0
52474,-100,4,1,1,60,0,0
52738,-100,4,1,1,80,0,0
53091,-100,4,1,1,60,0,0
59797,-66.6666666666667,4,1,1,60,0,0
60150,-100,4,1,1,70,0,0
65797,-100,4,1,1,50,0,0
66503,-100,4,2,1,70,0,0
66856,-100,4,2,1,80,0,0
67209,-100,4,1,99,45,0,1
67385,-100,4,1,1,80,0,1
69768,-100,4,2,1,80,0,1
70032,-100,4,1,1,80,0,1
81062,-100,4,2,1,80,0,1
81327,-100,4,1,1,80,0,1
89797,-100,4,1,99,45,0,0
89885,-100,4,1,1,70,0,0
101091,-100,4,1,1,40,0,0
109562,-100,4,1,1,60,0,0
112032,-100,4,1,1,80,0,0
123768,-100,4,1,1,60,0,0
124032,-100,4,1,1,80,0,0
124474,-100,4,1,1,60,0,0
124738,-100,4,1,1,80,0,0
125091,-100,4,1,1,60,0,0
126503,-100,4,1,1,80,0,0
126591,-100,4,1,1,60,0,0
126856,-100,4,1,1,80,0,0
127297,-100,4,1,1,60,0,0
127562,-100,4,1,1,80,0,0
127915,-100,4,1,1,60,0,0
134974,-100,4,1,1,40,0,0
136385,-100,4,1,1,55,0,0
137797,-100,4,1,1,70,0,0
139562,-100,4,2,1,70,0,0
140621,-100,4,1,1,50,0,0
141327,-100,4,2,1,70,0,0
141679,-100,4,2,1,80,0,0
142032,-100,4,1,99,45,0,1
142209,-100,4,1,1,80,0,1
150503,-100,4,1,1,90,0,1
150856,-100,4,1,1,80,0,1
155885,-100,4,2,1,80,0,1
156150,-100,4,1,1,80,0,1
164621,-100,4,2,1,40,0,0
181562,-100,4,1,1,70,0,0
191444,-100,4,1,1,80,0,0
192944,-100,4,1,1,60,0,0
193209,-100,4,1,1,80,0,0
193650,-100,4,1,1,60,0,0
193915,-100,4,1,1,80,0,0
194268,-100,4,1,1,60,0,0
195679,-100,4,1,1,80,0,0
195768,-100,4,1,1,60,0,0
196032,-100,4,1,1,80,0,0
196474,-100,4,1,1,60,0,0
196738,-100,4,1,1,80,0,0
197091,-100,4,1,1,60,0,0
203797,-100,4,1,1,80,0,0
204150,-100,4,1,1,50,0,0
210503,-100,4,2,1,50,0,0
211209,-100,4,1,99,45,0,1
211268,-100,4,1,1,80,0,0
215974,-100,4,2,1,80,0,0
216327,-100,4,1,1,20,0,0
216415,-100,4,1,1,50,0,0
216503,-100,4,1,98,60,0,0
216856,-100,4,1,99,45,0,1
217121,-100,4,1,1,80,0,1
219679,-100,4,1,1,90,0,1
220032,-100,4,1,1,80,0,1
233797,-100,4,1,1,50,0,0
239444,-100,4,1,99,45,0,0
239532,-100,4,1,1,50,0,0
250738,-100,4,1,99,45,0,0
250827,-100,4,1,1,70,0,0
261679,-66.6666666666667,4,1,1,80,0,0
262385,-50,4,1,1,90,0,0
263091,-100,4,1,1,90,0,0

[Colours]
Combo1 : 107,199,230
Combo2 : 213,58,74
Combo3 : 223,140,210
Combo4 : 127,219,250
Combo5 : 233,78,94
Combo6 : 243,160,230

[HitObjects]
112,256,3680,5,0,0:0:0:0:
96,208,4385,1,0,0:0:0:0:
416,208,5091,5,0,0:0:0:0:
256,144,5797,1,0,0:0:0:0:
96,64,6503,5,2,0:0:0:0:
256,64,6856,1,8,0:0:0:0:
416,64,7209,1,0,0:0:0:0:
256,64,7562,1,8,0:0:0:0:
96,128,7915,6,0,L|160:272,1,144,2|8,0:0|0:0,0:0:0:0:
416,144,8621,2,0,L|352:288,1,144,0|8,0:0|0:0,0:0:0:0:
96,192,9327,6,0,L|256:192,3,144,2|8|0|8,0:0|0:0|0:0|0:0,0:0:0:0:
64,240,10738,6,0,L|32:96,1,144,2|8,0:0|0:0,0:0:0:0:
240,208,11444,2,0,L|272:64,1,144,0|8,0:0|0:0,0:0:0:0:
480,64,12150,6,0,L|352:160,1,144,2|8,0:0|0:0,0:0:0:0:
144,144,12856,2,0,L|28:57,1,144,0|8,0:0|1:0,0:0:0:0:
256,64,13562,5,2,0:0:0:0:
320,64,13915,1,8,0:0:0:0:
384,64,14268,1,8,0:0:0:0:
256,64,14621,1,8,0:0:0:0:
448,128,14974,6,0,L|384:288,1,144,8|8,0:0|0:0,0:0:0:0:
240,192,15679,2,0,L|176:352,1,144,0|8,0:0|0:0,0:0:0:0:
64,128,16385,6,0,L|128:288,1,144,0|8,0:0|0:0,0:0:0:0:
272,192,17091,2,0,L|336:352,1,144,0|8,0:0|0:0,0:0:0:0:
176,272,17797,5,0,0:0:0:0:
336,240,18150,1,8,0:0:0:0:
176,208,18503,1,0,0:0:0:0:
256,208,18856,1,8,0:0:0:0:
336,160,19209,6,0,L|176:160,1,144,0|8,0:0|0:0,0:0:0:0:
384,144,19915,1,0,0:0:0:0:
256,128,20268,1,8,0:0:0:0:
128,160,20621,6,0,L|176:304,1,144,0|8,0:0|0:0,0:0:0:0:
384,160,21327,2,0,L|336:304,1,144,0|8,0:0|0:0,0:0:0:0:
128,192,22032,5,0,0:0:0:0:
384,208,22385,1,8,0:0:0:0:
128,192,22738,2,0,L|80:336,1,144,0|8,0:0|0:0,0:0:0:0:
256,304,23444,5,0,0:0:0:0:
432,320,23797,1,8,0:0:0:0:
256,304,24150,1,0,0:0:0:0:
80,320,24503,1,8,0:0:0:0:
320,240,24856,6,0,L|160:160,1,144,0|8,0:0|0:0,0:0:0:0:
432,176,25562,2,0,L|464:256,2,72,0|0|8,0:0|0:0|0:0,0:0:0:0:
224,160,26268,5,4,0:2:0:0:
352,160,26621,1,8,0:0:0:0:
144,160,26974,2,0,L|128:304,1,144,0|8,0:0|0:0,0:0:0:0:
256,160,27679,6,0,L|272:304,1,144,0|8,0:0|0:0,0:0:0:0:
144,288,28385,1,0,0:0:0:0:
352,288,28738,1,8,0:0:0:0:
144,160,29091,6,0,L|18:261,3,144,0|8|0|8,0:0|0:0|0:0|0:0,0:0:0:0:
288,144,30503,6,0,L|414:245,1,144,0|8,0:0|0:0,0:0:0:0:
256,336,31209,2,0,L|176:336,2,72,0|0|8,0:0|0:0|0:0,0:0:0:0:
112,288,31915,6,0,P|64:272|48:176,1,144,4|8,0:0|0:0,0:0:0:0:
176,192,32621,1,0,0:0:0:0:
32,192,32974,1,8,0:0:0:0:
256,256,33327,6,0,P|320:256|368:176,1,144,0|8,0:0|0:0,0:0:0:0:
176,192,34033,1,0,0:0:0:0:
352,192,34386,1,8,0:0:0:0:
480,96,34738,6,0,L|320:96,1,144,4|8,0:0|0:0,0:0:0:0:
176,96,35444,2,0,L|32:96,1,144,0|8,0:0|0:0,0:0:0:0:
304,128,36150,6,0,L|448:128,1,144,4|8,0:0|0:0,0:0:0:0:
384,160,36679,1,0,0:0:0:0:
256,176,36856,2,0,L|176:176,2,72,0|0|8,0:0|0:0|0:0,0:0:0:0:
48,160,37562,6,0,P|64:208|272:336,3,288,4|0|4|0,1:2|0:0|1:2|0:0,0:0:0:0:
48,256,40032,1,0,0:0:0:0:
256,240,40385,6,0,L|416:240,1,144,0|8,0:0|0:0,0:0:0:0:
192,192,41091,2,0,L|96:192,2,72,0|0|8,0:0|0:0|0:0,0:0:0:0:
352,128,41797,6,0,L|208:128,1,144,0|8,0:0|0:0,0:0:0:0:
416,96,42503,2,0,L|512:96,2,72,0|0|8,0:0|0:0|0:0,0:0:0:0:
208,256,43209,6,0,P|192:224|352:176,3,288,4|0|4|0,1:2|0:0|1:2|0:0,0:0:0:0:
160,160,45679,1,0,0:0:0:0:
416,160,46032,6,0,P|464:208|416:272,1,144,0|8,0:0|0:0,0:0:0:0:
224,304,46738,2,0,L|304:304,1,72,0|0,0:0|0:0,0:0:0:0:
368,304,47091,1,8,0:0:0:0:
160,304,47444,6,0,P|112:288|64:208,1,144,0|8,0:0|0:0,0:0:0:0:
336,224,48150,2,0,P|384:208|384:112,1,144,8|8,0:0|0:0,0:0:0:0:
160,128,48856,6,0,L|320:128,1,144,4|4,3:0|1:2,0:0:0:0:
16,176,49562,6,0,L|176:176,1,144,4|4,3:0|1:2,0:0:0:0:
352,176,50268,6,0,L|208:176,2,144,0|8|0,0:0|0:0|0:0,0:0:0:0:
96,176,51327,1,8,0:0:0:0:
352,128,51679,6,0,L|192:128,1,144,4|4,3:0|1:2,0:0:0:0:
496,176,52385,6,0,L|336:176,1,144,4|4,3:0|1:2,0:0:0:0:
160,176,53091,6,0,L|304:176,2,144,0|8|0,0:0|0:0|0:0,0:0:0:0:
384,176,54150,2,0,L|288:176,1,72,8|0,0:0|0:0,0:0:0:0:
160,176,54503,6,0,P|160:224|256:256,1,144,4|8,0:0|0:0,0:0:0:0:
48,240,55209,2,0,P|48:288|144:320,1,144,0|8,0:0|0:0,0:0:0:0:
352,176,55915,6,0,P|352:224|256:256,1,144,0|8,0:0|0:0,0:0:0:0:
464,240,56621,2,0,P|464:288|368:320,1,144,0|8,0:0|0:0,0:0:0:0:
192,272,57327,5,0,0:0:0:0:
320,272,57679,1,8,0:0:0:0:
128,320,58032,2,0,L|96:176,1,144,0|8,0:0|0:0,0:0:0:0:
320,224,58738,5,0,0:0:0:0:
192,224,59090,1,8,0:0:0:0:
384,320,59444,2,0,L|416:176,1,144,0|10,0:0|0:0,0:0:0:0:
208,112,60150,6,0,L|64:112,3,144,0|8|0|8,0:0|0:0|0:0|0:0,0:0:0:0:
304,112,61562,6,0,L|448:112,3,144,0|8|0|8,0:0|0:0|0:0|0:0,0:0:0:0:
208,176,62974,6,0,L|64:176,1,144,0|8,0:0|0:0,0:0:0:0:
304,176,63679,2,0,L|448:176,1,144,0|8,0:0|0:0,0:0:0:0:
178,192,64385,6,0,P|158:260|322:180,1,432,4|0,0:0|0:0,0:0:0:0:
256,192,65797,12,2,66856,2:0:0:0:
176,192,67209,6,0,P|96:176|80:112,1,144,12|10,0:0|0:0,0:0:0:0:
336,192,67915,2,0,P|416:208|432:272,1,144,2|8,0:0|0:0,0:0:0:0:
336,272,68444,6,0,L|192:272,2,144,2|2|2,0:0|0:0|0:0,0:0:0:0:
240,272,69327,2,0,P|176:256|144:176,1,144,0|8,0:0|0:0,0:0:0:0:
336,192,70032,6,0,P|416:176|432:112,1,144,2|10,0:0|0:0,0:0:0:0:
176,192,70738,2,0,P|96:208|80:272,1,144,2|8,0:0|0:0,0:0:0:0:
176,272,71268,6,0,L|320:272,2,144,2|2|2,0:0|0:0|0:0,0:0:0:0:
272,272,72150,2,0,P|320:224|272:192,1,144,0|8,0:0|0:0,0:0:0:0:
112,176,72856,6,0,L|352:176,1,216,2|0,0:0|0:0,0:0:0:0:
224,208,73562,2,0,P|144:224|96:288,1,144,2|10,0:0|0:0,0:0:0:0:
320,320,74268,6,0,L|80:320,1,216,2|0,0:0|0:0,0:0:0:0:
224,272,74974,2,0,P|304:288|352:352,1,144,2|10,0:0|0:0,0:0:0:0:
96,272,75679,6,0,P|48:224|112:176,1,144,6|8,0:0|0:0,0:0:0:0:
256,160,76385,2,0,L|112:336,1,216
224,320,77091,6,0,P|320:288|352:176,2,216
480,304,78503,5,6,0:0:0:0:
256,272,78856,1,10,0:0:0:0:
480,208,79209,2,0,L|320:208,1,144,2|8,0:0|0:0,0:0:0:0:
224,208,79738,6,0,L|368:208,2,144,2|2|2,0:0|0:0|0:0,0:0:0:0:
336,160,80621,2,0,L|480:160,1,144,0|8,0:0|0:0,0:0:0:0:
256,176,81327,2,0,L|96:176,1,144,2|10,0:0|0:0,0:0:0:0:
256,112,82032,2,0,L|416:112,1,144,2|8,0:0|0:0,0:0:0:0:
304,96,82562,6,0,L|160:96,2,144,2|2|2,0:0|0:0|0:0,0:0:0:0:
192,96,83444,2,0,P|112:128|112:208,1,144,0|8,0:0|0:0,0:0:0:0:
304,192,84150,6,0,P|448:224|480:288,1,216,2|0,0:0|0:0,0:0:0:0:
368,288,84856,2,0,L|224:288,1,144,2|10,0:0|0:0,0:0:0:0:
416,272,85562,6,0,P|347:192|243:189,1,216,2|0,0:0|0:0,0:0:0:0:
128,208,86268,2,0,L|272:208,1,144,10|10,0:0|0:0,0:0:0:0:
48,240,86974,6,0,L|32:96,1,144,2|10,0:0|0:0,0:0:0:0:
256,256,87679,2,0,L|272:112,1,144,2|10,0:0|0:0,0:0:0:0:
480,80,88385,5,2,0:0:0:0:
256,96,88738,1,10,0:0:0:0:
368,128,89091,1,10,0:0:0:0:
144,128,89444,1,10,0:0:0:0:
432,192,89797,5,8,0:0:0:0:
256,192,89974,12,4,92621,0:0:0:0:
184,193,101091,6,0,L|344:193,1,144,4|8,0:0|0:0,0:0:0:0:
144,192,101797,2,0,L|128:336,1,144,0|8,0:0|0:0,0:0:0:0:
328,193,102503,6,0,L|168:193,1,144,0|8,0:0|0:0,0:0:0:0:
368,192,103209,2,0,L|384:336,1,144,0|8,0:0|0:0,0:0:0:0:
112,192,103915,6,0,L|96:336,1,144,0|8,0:0|0:0,0:0:0:0:
320,240,104621,1,0,0:0:0:0:
192,240,104974,1,8,0:0:0:0:
400,192,105327,6,0,L|416:336,1,144,0|8,0:0|0:0,0:0:0:0:
192,256,106033,1,0,0:0:0:0:
320,256,106386,1,8,0:0:0:0:
96,288,106738,6,0,L|80:144,1,144,0|8,0:0|0:0,0:0:0:0:
256,288,107444,2,0,L|272:144,1,144,0|8,0:0|0:0,0:0:0:0:
448,320,108150,6,0,L|320:224,1,144,0|4,0:0|0:0,0:0:0:0:
176,240,108856,2,0,L|64:128,1,144,0|8,0:0|0:0,0:0:0:0:
256,144,109562,6,0,L|432:144,1,144,4|8,0:0|0:0,0:0:0:0:
256,192,110268,2,0,L|112:192,1,144,4|8,0:0|0:0,0:0:0:0:
352,176,110974,6,0,L|368:336,1,144,4|8,0:0|0:0,0:0:0:0:
304,352,111503,1,0,0:0:0:0:
208,352,111679,2,0,L|128:352,2,72,4|0|8,0:0|0:0|1:0,0:0:0:0:
96,336,112385,6,0,P|64:288|208:160,3,288,4|4|4|0,1:2|0:1|1:2|0:0,0:0:0:0:
32,160,114856,1,8,0:0:0:0:
256,160,115209,6,0,L|416:160,1,144,0|8,0:0|0:0,0:0:0:0:
176,160,115915,2,0,L|96:160,1,72,0|0,0:0|0:0,0:0:0:0:
80,224,116268,1,8,0:0:0:0:
256,160,116621,6,0,L|96:160,1,144,0|8,0:0|0:0,0:0:0:0:
336,160,117327,2,0,L|416:160,1,72,0|0,0:0|0:0,0:0:0:0:
432,224,117680,1,8,0:0:0:0:
112,336,118032,6,0,L|400:336,3,288,4|4|4|0,1:2|0:1|1:2|0:0,0:0:0:0:
160,288,120503,1,8,0:0:0:0:
352,224,120856,6,0,L|192:224,1,144,0|8,0:0|0:0,0:0:0:0:
32,192,121562,1,0,0:0:0:0:
48,272,121738,2,0,L|144:272,1,72,0|8,0:0|0:0,0:0:0:0:
192,192,122268,6,0,L|352:192,1,144,0|8,0:0|0:0,0:0:0:0:
480,160,122974,1,0,0:0:0:0:
464,240,123150,2,0,L|368:240,1,72,0|12,0:0|0:0,0:0:0:0:
256,240,123679,6,0,L|80:240,1,144,4|4,3:0|1:2,0:0:0:0:
320,240,124385,6,0,L|352:96,1,144,4|4,3:0|1:2,0:0:0:0:
128,96,125091,6,0,L|304:96,1,144,0|8,0:0|0:0,0:0:0:0:
48,224,125797,2,0,L|80:80,1,144,0|8,0:0|0:0,0:0:0:0:
256,223,126503,6,0,L|432:223,1,144,4|4,3:0|1:2,0:0:0:0:
192,208,127209,6,0,L|161:349,1,144,4|4,3:0|1:2,0:0:0:0:
368,352,127915,6,0,L|192:352,1,144,0|8,0:0|0:0,0:0:0:0:
432,352,128621,2,0,L|464:211,1,144,0|8,0:0|0:0,0:0:0:0:
336,192,129327,6,0,L|192:192,2,144,4|8|0,0:0|0:0|0:0,0:0:0:0:
144,224,130385,1,8,0:0:0:0:
368,208,130738,6,0,L|384:352,1,144,0|8,0:0|0:0,0:0:0:0:
144,208,131444,2,0,L|128:352,1,144,0|8,0:0|0:0,0:0:0:0:
256,240,132150,6,0,L|400:240,3,144,0|8|0|8,0:0|0:0|0:0|0:0,0:0:0:0:
192,192,133562,6,0,L|176:336,1,144,0|12,0:0|2:1,0:0:0:0:
400,192,134268,2,0,L|416:336,1,144,4|6,0:1|0:1,0:0:0:0:
208,160,134974,6,0,L|64:160,1,144,0|8,0:0|0:0,0:0:0:0:
304,160,135679,2,0,L|400:160,2,72,8|0|0,0:0|0:0|0:0,0:0:0:0:
208,240,136385,6,0,L|368:240,1,144,0|8,0:0|0:0,0:0:0:0:
128,224,137091,2,0,L|48:224,2,72,8|8|8,0:0|0:0|0:0,0:0:0:0:
384,256,137797,5,4,0:0:0:0:
128,256,138150,1,12,0:0:0:0:
400,240,139209,6,0,P|371:163|113:269,1,432,4|0,1:1|0:0,0:0:0:0:
256,192,140621,12,2,141679,2:0:0:0:
400,160,142032,6,0,L|240:160,1,144,14|10,0:0|0:0,0:0:0:0:
464,160,142738,2,0,L|480:320,1,144,2|8,0:0|0:0,0:0:0:0:
368,304,143268,6,0,P|304:288|288:208,2,144,2|2|2,0:0|0:0|0:0,0:0:0:0:
480,256,144150,2,0,P|448:208|368:192,1,144,0|8,0:0|0:0,0:0:0:0:
160,176,144856,6,0,L|320:176,1,144,2|10,0:0|0:0,0:0:0:0:
80,176,145562,2,0,L|64:336,1,144,2|8,0:0|0:0,0:0:0:0:
176,304,146092,6,0,P|240:288|256:208,2,144,2|2|2,0:0|0:0|0:0,0:0:0:0:
64,272,146974,2,0,P|96:224|176:208,1,144,0|8,0:0|0:0,0:0:0:0:
384,192,147679,6,0,L|144:192,1,216,2|0,0:0|0:0,0:0:0:0:
288,160,148385,2,0,L|448:160,1,144,2|10,0:0|0:0,0:0:0:0:
256,144,149091,6,0,L|16:144,1,216,2|0,0:0|0:0,0:0:0:0:
144,176,149797,2,0,L|304:176,1,144,2|10,0:0|0:0,0:0:0:0:
416,176,150503,6,0,P|416:272|384:336,1,144,6|8,0:0|0:0,0:0:0:0:
208,208,151209,2,0,L|112:208,1,72,0|0,0:0|0:0,0:0:0:0:
112,160,151562,1,8,0:0:0:0:
352,160,151915,6,0,P|400:192|368:272,1,144,0|8,0:0|0:0,0:0:0:0:
320,256,152444,2,0,P|267:298|291:361,1,144,0|8,0:0|0:0,0:0:0:0:
368,368,152974,1,0,0:0:0:0:
176,352,153327,6,0,L|32:352,3,144,6|10|2|8,0:0|0:0|0:0|0:0,0:0:0:0:
144,256,154562,6,0,L|304:256,1,144,2|2,0:0|0:0,0:0:0:0:
352,224,155091,2,0,L|256:224,1,72,8|2,0:0|0:0,0:0:0:0:
176,224,155444,1,0,0:0:0:0:
400,208,155797,1,8,0:0:0:0:
176,112,156150,6,0,L|336:112,1,144,2|10,0:0|0:0,0:0:0:0:
464,112,156856,2,0,L|304:112,1,144,2|8,0:0|0:0,0:0:0:0:
208,176,157385,6,0,L|352:176,1,144,2|2,0:0|0:0,0:0:0:0:
240,192,157915,2,0,L|160:192,1,72,8|2,0:0|0:0,0:0:0:0:
240,240,158268,2,0,P|280:193|232:129,1,144,0|8,0:0|0:0,0:0:0:0:
80,176,158974,6,0,L|304:176,1,216,2|0,0:0|0:0,0:0:0:0:
176,208,159679,2,0,L|96:352,1,144,2|10,0:0|0:0,0:0:0:0:
256,256,160385,6,0,L|496:256,1,216,2|0,0:0|0:0,0:0:0:0:
368,128,161091,2,0,L|208:128,1,144,2|10,0:0|0:0,0:0:0:0:
416,192,161797,5,2,0:0:0:0:
256,192,162150,1,10,0:0:0:0:
96,192,162503,2,0,L|16:352,1,144,2|10,0:0|0:0,0:0:0:0:
224,320,163209,5,2,0:0:0:0:
416,320,163562,1,10,0:0:0:0:
480,224,163915,1,10,0:0:0:0:
256,224,164268,1,10,0:0:0:0:
256,192,164621,12,0,167091,0:0:0:0:
304,160,181562,6,0,L|208:160,1,72,2|0,0:0|0:0,0:0:0:0:
144,160,181915,2,0,P|96:192|144:240,2,144,10|0|8,0:0|0:0|0:0,0:0:0:0:
368,160,182974,6,0,L|448:160,1,72,0|0,0:0|0:0,0:0:0:0:
464,224,183327,1,8,0:0:0:0:
224,160,183679,2,0,L|152:160,1,72,2|0,0:0|0:0,0:0:0:0:
128,224,184032,1,10,0:0:0:0:
272,208,184385,6,0,L|352:208,1,72,2|0,0:0|0:0,0:0:0:0:
432,208,184738,2,0,P|480:240|432:288,2,144,10|2|8,0:0|0:0|0:0,0:0:0:0:
224,160,185797,6,0,L|152:160,1,72
120,224,186150,1,8,0:0:0:0:
352,160,186503,6,0,L|424:160,1,72
456,224,186856,1,8,0:0:0:0:
256,96,187209,6,0,L|176:96,1,72,2|0,0:0|0:0,0:0:0:0:
256,144,187562,2,0,P|288:192|224:240,1,144,10|0,0:0|0:0,0:0:0:0:
48,272,188268,1,8,0:0:0:0:
256,272,188621,5,0,0:0:0:0:
320,272,188797,1,0,0:0:0:0:
336,272,188974,1,8,0:0:0:0:
128,288,189327,1,2,0:0:0:0:
64,288,189503,1,0,0:0:0:0:
48,288,189680,1,10,0:0:0:0:
256,112,190032,6,0,L|336:112,1,72,2|0,0:0|0:0,0:0:0:0:
256,160,190385,2,0,P|224:208|288:256,2,144,10|2|8,0:0|0:0|0:0,0:0:0:0:
400,208,191444,6,0,P|448:224|384:256,1,144,2|10,0:0|0:0,0:0:0:0:
336,272,191974,1,2,0:0:0:0:
240,304,192150,2,0,L|336:304,1,72,2|2,0:0|0:0,0:0:0:0:
416,304,192503,1,10,0:0:0:0:
208,128,192856,6,0,L|192:272,1,144,4|4,3:0|1:2,0:0:0:0:
32,304,193562,6,0,L|192:304,1,144,4|4,3:0|1:2,0:0:0:0:
328,208,194268,6,0,L|184:208,2,144,0|8|0,0:0|0:0|0:0,0:0:0:0:
128,208,195327,1,8,0:0:0:0:
304,128,195679,6,0,L|320:272,1,144,4|4,3:0|1:2,0:0:0:0:
480,304,196385,6,0,L|320:304,1,144,4|4,3:0|1:2,0:0:0:0:
184,192,197091,6,0,L|328:192,2,144,0|8|0,0:0|0:0|0:0,0:0:0:0:
416,176,198150,1,8,0:0:0:0:
176,224,198503,6,0,L|320:224,1,144,4|8,0:0|0:0,0:0:0:0:
112,224,199209,2,0,L|96:80,1,144,0|8,0:0|0:0,0:0:0:0:
320,80,199915,6,0,L|176:80,1,144,0|8,0:0|0:0,0:0:0:0:
384,224,200621,2,0,L|400:80,1,144,0|8,0:0|0:0,0:0:0:0:
256,256,201327,6,0,L|112:256,2,144,0|8|0,0:0|0:0|0:0,0:0:0:0:
48,256,202385,1,8,0:0:0:0:
288,112,202738,6,0,L|432:112,1,144,0|12,0:0|0:0,0:0:0:0:
224,112,203445,2,0,L|80:112,1,144,4|14,0:0|0:0,0:0:0:0:
336,224,204150,5,4,0:0:0:0:
480,160,204503,1,8,0:0:0:0:
336,160,204856,1,4,0:0:0:0:
176,160,205209,1,8,0:0:0:0:
32,208,205562,5,4,0:0:0:0:
176,256,205915,1,8,0:0:0:0:
336,256,206268,1,4,0:0:0:0:
480,184,206621,1,8,0:0:0:0:
256,96,206974,6,0,L|80:288,1,216.000008239746,4|12,0:0|0:0,0:0:0:0:
256,256,207679,2,0,L|416:256,1,144,0|12,0:0|0:0,0:0:0:0:
136,240,208385,6,0,P|140:176|375:256,1,432,4|0,0:0|0:0,0:0:0:0:
256,192,209797,12,2,211209,2:1:0:0:
256,160,214032,5,4,0:0:0:0:
256,160,214738,5,4,0:0:0:0:
256,160,215268,5,4,2:1:0:0:
112,160,215621,5,4,2:1:0:0:
400,160,215974,6,0,P|464:224|384:320,1,216,4|8,2:1|1:0,0:0:0:0:
128,192,216856,6,0,L|368:192,1,216,12|2,0:0|0:0,0:0:0:0:
240,160,217562,2,0,L|80:160,1,144,0|10,0:0|0:0,0:0:0:0:
384,144,218268,6,0,L|144:144,1,216,2|2,0:0|0:0,0:0:0:0:
272,160,218974,2,0,L|432:160,1,144,0|10,0:0|0:0,0:0:0:0:
208,176,219680,6,0,P|112:176|48:208,1,144,6|8,0:0|0:0,0:0:0:0:
272,224,220386,2,0,L|368:224,1,72
368,160,220739,1,8,0:0:0:0:
160,160,221092,6,0,P|112:192|144:272,1,144,0|8,0:0|0:0,0:0:0:0:
240,272,221621,2,0,P|304:288|384:304,1,144
320,336,222151,1,8,0:0:0:0:
144,336,222503,5,6,0:0:0:0:
368,336,222856,1,10,0:0:0:0:
112,272,223209,2,0,L|272:272,1,144,2|8,0:0|0:0,0:0:0:0:
352,240,223738,6,0,L|208:240,2,144,2|2|2,0:0|0:0|0:0,0:0:0:0:
256,208,224621,2,0,L|112:208,1,144,0|8,0:0|0:0,0:0:0:0:
256,144,225327,5,2,0:0:0:0:
480,160,225679,1,10,0:0:0:0:
256,112,226032,2,0,L|96:112,1,144,2|8,0:0|0:0,0:0:0:0:
208,96,226562,6,0,L|352:96,2,144,2|2|2,0:0|0:0|0:0,0:0:0:0:
112,96,227444,2,0,P|64:144|128:176,1,144,0|8,0:0|0:0,0:0:0:0:
336,192,228150,6,0,L|96:192,1,216,2|2,0:0|0:0,0:0:0:0:
224,224,228856,2,0,P|304:240|352:304,1,144,0|10,0:0|0:0,0:0:0:0:
128,320,229562,6,0,L|368:320,1,216,2|2,0:0|0:0,0:0:0:0:
240,256,230268,2,0,P|160:272|112:336,1,144,0|10,0:0|0:0,0:0:0:0:
368,288,230974,6,0,L|384:144,1,144,2|10,0:0|0:0,0:0:0:0:
144,288,231679,2,0,L|128:144,1,144,2|10,0:0|0:0,0:0:0:0:
384,112,232385,5,2,0:0:0:0:
256,128,232738,1,10,0:0:0:0:
128,112,233091,1,2,0:0:0:0:
400,160,233444,1,10,0:0:0:0:
256,192,233797,12,0,236268,0:0:0:0:
336,144,236621,6,0,L|176:144,1,144,0|8,0:0|0:0,0:0:0:0:
48,160,237327,2,0,L|32:304,1,144,0|8,0:0|0:0,0:0:0:0:
176,240,238032,6,0,L|336:240,1,144,0|8,0:0|0:0,0:0:0:0:
496,224,238738,2,0,L|352:224,1,144,0|8,0:0|0:0,0:0:0:0:
96,128,239444,6,0,L|160:288,1,144,8|8,0:0|0:0,0:0:0:0:
288,192,240150,2,0,L|352:352,1,144,0|8,0:0|0:0,0:0:0:0:
464,192,240856,6,0,L|400:352,1,144,0|8,0:0|0:0,0:0:0:0:
272,208,241562,2,0,L|208:368,1,144
48,336,242267,5,0,0:0:0:0:
192,240,242620,1,8,0:0:0:0:
336,208,242973,1,0,0:0:0:0:
480,208,243326,1,0,0:0:0:0:
288,160,243679,6,0,L|128:160,1,144,0|8,0:0|0:0,0:0:0:0:
368,112,244385,1,0,0:0:0:0:
144,112,244738,1,8,0:0:0:0:
368,160,245091,6,0,L|320:304,1,144,4|8,0:0|0:0,0:0:0:0:
144,160,245797,2,0,L|192:304,1,144,0|8,0:0|0:0,0:0:0:0:
368,192,246502,5,0,0:0:0:0:
144,208,246855,1,8,0:0:0:0:
368,192,247209,2,0,L|416:336,1,144,0|8,0:0|0:0,0:0:0:0:
256,304,247914,5,4,0:0:0:0:
96,320,248267,1,8,0:0:0:0:
256,304,248620,1,0,0:0:0:0:
416,320,248973,1,0,0:0:0:0:
192,240,249326,6,0,L|352:160,1,144,0|8,0:0|0:0,0:0:0:0:
96,192,250032,2,0,L|64:272,2,72,8|8|8,0:0|0:0|0:0,0:0:0:0:
272,176,250738,6,0,L|384:288,2,144,2|8|0,0:0|0:0|0:0,0:0:0:0:
144,272,251797,1,8,0:0:0:0:
368,224,252150,6,0,L|224:288,2,144,0|8|0,0:0|0:0|0:0,0:0:0:0:
144,224,253209,1,8,0:0:0:0:
336,256,253562,6,0,L|512:256,1,144,4|8,0:0|0:0,0:0:0:0:
256,256,254268,6,0,L|80:256,1,144,4|8,0:0|0:0,0:0:0:0:
336,256,254974,6,0,L|352:112,1,144,0|8,0:0|0:0,0:0:0:0:
128,112,255679,1,0,0:0:0:0:
352,96,256032,1,8,0:0:0:0:
128,176,256385,6,0,L|240:288,2,144,4|8|0,0:0|0:0|0:0,0:0:0:0:
352,176,257444,1,8,0:0:0:0:
128,208,257797,6,0,L|272:272,1,144,0|8,0:0|0:0,0:0:0:0:
464,256,258503,2,0,L|320:320,1,144,0|8,0:0|0:0,0:0:0:0:
128,272,259209,6,0,L|304:272,2,144,4|8|0,0:0|0:0|0:0,0:0:0:0:
352,272,260268,1,8,0:0:0:0:
128,256,260621,6,0,L|112:160,2,72,0|0|8,0:0|0:0|0:0,0:0:0:0:
384,256,261327,6,0,L|400:160,2,72,8|8|14,0:0|0:0|0:0,0:0:0:0:
256,176,262032,6,0,L|256:64,2,108.000004119873,8|8|14,0:0|0:0|0:0,0:0:0:0:
128,256,262738,6,0,L|80:96,2,144,8|8|14,0:0|0:0|0:0,0:0:0:0:
