osu file format v9

[General]
AudioFilename: fanxindadong.mp3
AudioLeadIn: 2500
PreviewTime: 82004
Countdown: 0
SampleSet: Soft
StackLeniency: 0.2
Mode: 0
LetterboxInBreaks: 1

[Editor]
Bookmarks: 41268,82167,112842,153740,184415
DistanceSpacing: 0.5
BeatDivisor: 2
GridSize: 8

[Metadata]
Title:Fan Xin Da Dong
Artist:Bi Hai Qing Tian
Creator:LKs
Version:explosive
Source:
Tags:zi gua dong nan zhi 12T Mystica explosive DarkRingSystem

[Difficulty]
HPDrainRate:5
CircleSize:4
OverallDifficulty:8
ApproachRate:9
SliderMultiplier:1.2
SliderTickRate:1

[Events]
//Background and Video events
0,0,"bg.jpg"
//Break Periods
//Storyboard Layer 0 (Background)
//Storyboard Layer 1 (Fail)
//Storyboard Layer 2 (Pass)
//Storyboard Layer 3 (Foreground)
//Storyboard Sound Samples
//Background Colour Transformations
3,100,163,162,255

[TimingPoints]
366,319.522845883481,4,1,1,60,1,0
82163,-100,4,1,1,61,0,0
82483,-100,4,2,1,61,0,0
86956,-200,4,2,1,61,0,0
87276,-100,4,2,1,61,0,0
87595,-100,4,2,1,61,0,0
88075,-100,4,2,1,61,0,0
88714,-66.6666666666667,4,2,1,61,0,0
89033,-133.333333333333,4,1,1,61,0,0
89033,-133.333333333333,4,1,1,61,0,0
89193,-100,4,1,1,61,0,0
89512,-100,4,2,1,61,0,0
91589,-50,4,2,1,61,0,0
91749,-100,4,2,1,61,0,0
92069,-200,4,2,1,61,0,0
92548,-66.6666666666667,4,2,1,61,0,0
93027,-133.333333333333,4,2,1,61,0,0
93666,-66.6666666666667,4,2,1,61,0,0
97500,-133.333333333333,4,2,1,61,0,0
97980,-100,4,2,1,61,0,0
99737,-100,4,1,1,61,0,0
100057,-133.333333333333,4,2,1,61,0,0
100376,-100,4,2,1,61,0,0
102613,-200,4,2,1,61,0,0
102932,-100,4,2,1,61,0,0
111559,-100,4,2,1,56,0,0
112838,-100,4,2,1,61,0,0

[Colours]
Combo1 : 95,95,252
Combo2 : 140,198,141

[HitObjects]
32,160,82163,5,4
216,88,82483,2,0,B|280:136,1,60,0|0
168,152,82802,2,0,B|104:192,1,60,8|8
224,232,83122,5,0
216,88,83282,1,0
88,176,83441,1,8
96,312,83601,1,8
96,312,83761,2,0,B|160:296,1,60,0|0
153,297,84001,1,0
153,297,84080,1,8
280,312,84240,1,0
400,248,84400,2,0,B|344:216|336:136,1,120,0|8
93,99,85039,1,0
208,112,85199,6,0,B|248:176,1,60,0|2
152,80,85518,2,0,B|80:104,1,60
160,200,85838,1,0
160,200,85998,1,8
288,232,86157,2,0,B|296:272|296:312,1,60
176,344,86477,1,2
176,344,86637,1,2
368,56,86956,6,8,B|360:96|384:120,1,60
464,168,87435,2,0,B|424:240,1,60
352,272,87755,2,8,B|384:216,1,60,8|8
336,112,88075,1,0
336,112,88154,1,0
336,112,88234,1,0
336,112,88394,1,8
224,112,88554,1,8
72,136,88714,6,0,B|56:184|72:240,1,89.9999973177911
160,208,89033,2,8,B|168:176|152:152,1,44.9999986588955,4|4
416,176,89512,1,0
344,80,89672,1,0
224,56,89832,1,2
208,288,90151,6,0,B|288:288,1,60,8|0
144,280,90471,1,2
144,280,90631,2,0,B|88:224,1,60,0|8
88,120,90950,1,0
200,72,91110,2,0,B|224:112|216:144,1,60,2|2
217,128,91430,1,0
328,24,91589,2,0,B|368:80|360:152,1,120,8|8
288,320,92069,6,0,B|352:336|352:320,1,60,0|2
232,288,92708,2,0,B|192:248|208:200,1,89.9999973177911,8|0
168,288,93027,2,0,B|112:296|80:264,1,89.9999973177911,2|8
408,120,93666,2,0,B|384:88|328:72,1,89.9999973177911,2|0
256,16,93986,2,0,B|288:56|288:120,1,89.9999973177911,8|0
160,72,94305,2,0,B|120:104|112:152,1,89.9999973177911,2|2
56,224,94625,2,0,B|96:192|160:192,1,89.9999973177911,8|0
256,280,94944,5,12
312,112,95264,1,8
432,232,95424,1,0
256,280,95584,1,8
392,88,95903,1,8
232,136,96063,1,0
344,256,96222,1,8
152,160,96382,1,0
256,280,96542,1,8
312,112,96702,1,0
432,232,96861,2,0,B|368:184|304:184|256:184,1,179.999994635582,8|0
120,320,97500,6,0,B|104:280|120:224,1,89.9999973177911,2|8
48,136,97980,1,0
152,88,98139,1,2
232,176,98299,1,2
328,104,98459,1,8
424,184,98619,1,0
408,304,98779,1,2
392,304,98858,1,0
376,304,98938,1,0
264,264,99098,5,8
248,256,99178,1,0
232,248,99258,1,0
120,200,99418,5,0
112,184,99497,1,0
104,168,99577,1,2
32,280,99737,1,4
200,112,99897,1,0
360,160,100057,6,0,B|392:136|416:88,1,90,0|8
296,88,100536,1,0
360,160,100696,1,0
296,88,100855,2,0,B|264:128,2,30,0|0|8
296,88,101175,1,0
176,96,101335,6,0,B|136:72,2,30
136,280,101654,2,0,B|168:296,2,30,8|0|0
352,320,101974,2,8,B|320:296,4,30,8|0|8|0|8
352,320,102453,1,0
448,160,102613,6,0,B|416:144|408:120,1,45,12|0
352,104,102932,2,0,B|344:144|328:168,1,60,2|0
288,240,103252,1,0
224,304,103412,1,8
104,296,103571,2,0,B|144:256|152:224,1,60,2|0
168,168,103891,1,0
176,128,103971,1,0
184,88,104051,1,2
280,16,104210,6,0,B|328:40|352:48,1,60,2|0
248,136,104530,1,0
208,152,104610,1,0
168,168,104690,1,2
128,184,104770,1,0
88,200,104849,1,2
32,304,105009,1,0
168,312,105169,5,14
296,312,105329,1,0
424,272,105489,1,0
280,240,105648,1,0
408,200,105808,1,8
264,168,105968,1,0
392,128,106128,1,0
248,96,106287,1,0
144,40,106447,6,0,B|104:96,1,60,8|0
72,200,106767,2,0,B|88:256,1,60
184,336,107086,1,8
184,336,107406,1,4
328,144,107725,5,8
416,64,107885,1,0
416,64,107965,1,0
416,64,108045,2,0,B|464:136,1,60
448,232,108364,1,8
240,352,108684,1,8
120,328,108844,6,0,B|56:304,1,60,0|2
104,112,109163,2,0,B|104:184,1,60,0|0
280,112,109483,2,8,B|344:136,1,60,2|8
296,328,109802,2,8,B|296:256,1,60,8|2
295,268,110122,1,0
256,200,110281,5,12
352,160,110441,1,0
256,112,110601,1,0
168,160,110761,1,0
336,80,110920,5,8
176,80,111080,1,0
176,240,111240,1,0
344,240,111400,1,0
256,344,111559,5,10
256,328,111639,1,2
256,312,111719,1,2
256,296,111799,1,2
256,280,111879,1,10
256,264,111959,1,2
256,248,112039,1,2
256,232,112119,1,0
256,216,112198,2,0,B|240:184|272:152|256:80,1,120,2|0
