osu file format v13

[General]
AudioFilename: 01 Crazy In Love.mp3
AudioLeadIn: 0
PreviewTime: 48730
Countdown: 0
SampleSet: Normal
StackLeniency: 0.7
Mode: 0
LetterboxInBreaks: 1
WidescreenStoryboard: 0

[Editor]
Bookmarks: 14429,24478,29238,39210,48579,58552,77439,87714,96932,106753,139165,154804,164701,178150,189105
DistanceSpacing: 1
BeatDivisor: 4
GridSize: 8
TimelineZoom: 1

[Metadata]
Title:Crazy in Love
TitleUnicode:
Artist:Beyonce feat. Jay-Z
ArtistUnicode:
Creator:kingcobra52
Version:CrazEEeee
Source:
Tags:jay z eeeee
BeatmapID:46401
BeatmapSetID:11999

[Difficulty]
HPDrainRate:7
CircleSize:5
OverallDifficulty:6
ApproachRate:6
SliderMultiplier:1.4
SliderTickRate:1

[Events]
//Background and Video events
0,0,"7305beyonce.jpg",0,0
Video,0,"Beyonce - Crazy In Love ft. JAY Z.avi"
//Break Periods
2,29667,33253
2,68349,71935
2,121538,139327
2,145714,147789
2,150550,152322
2,155385,158970
2,160220,163806
2,179561,184960
//Storyboard Layer 0 (Background)
//Storyboard Layer 1 (Fail)
//Storyboard Layer 2 (Pass)
//Storyboard Layer 3 (Foreground)
//Storyboard Sound Samples

[TimingPoints]
456,302.206104563312,4,1,1,70,1,0
48634,-100,4,1,1,80,0,0
48805,-100,4,1,1,80,0,1
68147,-100,4,1,1,70,0,0
97158,-100,4,1,1,70,0,1
121335,-100,4,1,1,70,0,0
164853,-100,4,1,1,70,0,1
179344,-100,4,1,1,70,0,0
189029,-100,4,1,1,70,0,1
208370,-100,4,1,1,70,0,0

[Colours]
Combo1 : 198,0,99
Combo2 : 255,34,145
Combo3 : 0,96,191
Combo4 : 255,255,255

[HitObjects]
200,48,14961,5,4,0:0:0:0:
336,48,15264,2,0,B|480:48,1,140
336,120,15868,2,0,B|480:120,1,140
336,192,16472,2,0,B|432:192,1,70
336,264,16926,2,0,B|432:264,2,70
336,336,17379,5,0,0:0:0:0:
200,336,17681,2,0,B|56:336,1,140
200,264,18286,2,0,B|56:264,1,140
200,192,18890,2,0,B|104:192,1,70
200,120,19343,2,0,B|104:120,2,70
200,48,19797,5,0,0:0:0:0:
320,112,20099,1,0,0:0:0:0:
320,112,20401,1,0,0:0:0:0:
200,192,20703,1,0,0:0:0:0:
200,192,21006,1,0,0:0:0:0:
320,264,21308,1,0,0:0:0:0:
320,264,21459,1,0,0:0:0:0:
200,336,21761,2,0,B|120:336,2,70
200,336,22214,5,0,0:0:0:0:
320,264,22517,1,0,0:0:0:0:
320,264,22819,1,0,0:0:0:0:
200,192,23121,1,0,0:0:0:0:
200,192,23423,1,0,0:0:0:0:
320,112,23725,1,0,0:0:0:0:
320,112,23876,1,0,0:0:0:0:
200,48,24179,2,0,B|120:48,2,70
200,120,24632,5,4,0:0:0:0:
56,272,24934,1,0,0:0:0:0:
256,344,25236,1,4,0:0:0:0:
456,272,25539,1,0,0:0:0:0:
256,200,25841,1,4,0:0:0:0:
256,200,25992,1,0,0:0:0:0:
56,272,26294,1,0,0:0:0:0:
256,200,26596,1,4,0:0:0:0:
256,200,26747,1,0,0:0:0:0:
432,80,27050,5,4,0:0:0:0:
256,200,27352,1,0,0:0:0:0:
80,80,27654,1,4,0:0:0:0:
256,200,27956,1,0,0:0:0:0:
80,312,28258,1,4,0:0:0:0:
80,312,28410,1,0,0:0:0:0:
256,200,28712,1,0,0:0:0:0:
432,312,29014,1,4,0:0:0:0:
432,312,29165,1,0,0:0:0:0:
256,64,29467,5,4,0:0:0:0:
40,184,34303,5,2,0:0:0:0:
144,88,34605,2,0,B|232:88,1,70
280,88,34907,1,0,0:0:0:0:
280,224,35209,1,0,0:0:0:0:
352,224,35360,1,0,0:0:0:0:
424,224,35511,2,0,B|496:224,1,70
496,296,35814,1,0,0:0:0:0:
352,296,36116,1,0,0:0:0:0:
280,296,36267,1,0,0:0:0:0:
208,296,36418,1,0,0:0:0:0:
456,184,36720,5,2,0:0:0:0:
352,88,37022,2,0,B|264:88,1,70
216,88,37325,1,0,0:0:0:0:
216,224,37627,1,0,0:0:0:0:
144,224,37778,1,0,0:0:0:0:
72,224,37929,2,0,B|0:224,1,70
0,296,38231,1,0,0:0:0:0:
144,296,38533,1,0,0:0:0:0:
216,296,38685,1,0,0:0:0:0:
288,296,38836,1,0,0:0:0:0:
464,192,39138,1,2,0:0:0:0:
360,88,39440,6,0,B|408:24,2,70
360,88,39893,2,0,B|416:152,2,70
360,88,40347,2,0,B|256:88,1,70
224,88,40649,1,0,0:0:0:0:
152,88,40800,1,0,0:0:0:0:
80,88,40951,2,0,B|48:128|48:128|104:160|104:160|16:312,1,280
152,88,41858,6,0,B|104:24,2,70
152,88,42311,2,0,B|96:152,2,70
152,88,42764,2,0,B|256:88,1,70
288,88,43067,1,0,0:0:0:0:
360,88,43218,1,0,0:0:0:0:
432,88,43369,2,0,B|464:128|464:128|408:160|408:160|496:312,1,280,0|2,0:0|0:0,0:0:0:0:
168,312,44578,5,0,0:0:0:0:
88,192,44880,1,0,0:0:0:0:
88,192,45031,1,0,0:0:0:0:
160,192,45182,2,0,B|232:192,1,70
296,192,45484,2,0,B|440:192,1,140,0|0,0:0|0:0,0:0:0:0:
440,264,45938,1,0,0:0:0:0:
440,264,46089,2,0,B|144:264,1,280,0|2,0:0|0:0,0:0:0:0:
88,264,46844,5,0,0:0:0:0:
80,128,47146,1,0,0:0:0:0:
120,72,47297,1,0,0:0:0:0:
160,128,47449,1,0,0:0:0:0:
200,72,47600,1,0,0:0:0:0:
240,128,47751,1,0,0:0:0:0:
280,72,47902,2,0,B|432:72,1,140
472,120,48355,1,0,0:0:0:0:
424,176,48506,2,0,B|284:176,1,140,0|4,0:0|0:0,0:0:0:0:
80,320,49111,5,0,0:0:0:0:
80,320,49262,1,0,0:0:0:0:
80,320,49413,1,0,0:0:0:0:
80,320,49564,1,0,0:0:0:0:
80,320,49715,1,0,0:0:0:0:
80,320,49866,2,0,B|144:256|88:176,1,140
48,240,50320,2,0,B|112:288|184:208,1,140
256,336,50924,5,0,0:0:0:0:
256,336,51075,1,0,0:0:0:0:
256,336,51226,1,4,0:0:0:0:
432,320,51528,5,0,0:0:0:0:
432,320,51679,1,0,0:0:0:0:
432,320,51831,1,0,0:0:0:0:
432,320,51982,1,0,0:0:0:0:
432,320,52133,1,0,0:0:0:0:
432,320,52284,2,0,B|368:256|424:176,1,140
464,240,52737,2,0,B|400:288|328:208,1,140
256,336,53342,5,0,0:0:0:0:
256,336,53493,1,0,0:0:0:0:
256,336,53644,2,4,B|256:160,1,140,4|0,0:0|0:0,0:0:0:0:
256,128,54097,1,0,0:0:0:0:
184,128,54248,2,0,B|88:128,2,70
256,128,54701,1,0,0:0:0:0:
328,128,54853,2,0,B|408:128,2,70
472,128,55457,1,4,0:0:0:0:
256,48,55759,5,0,0:0:0:0:
256,48,55910,1,0,0:0:0:0:
256,48,56061,2,4,B|256:224,1,140,4|0,0:0|0:0,0:0:0:0:
256,256,56515,5,0,0:0:0:0:
328,256,56666,2,0,B|424:256,2,70
256,256,57119,1,0,0:0:0:0:
184,256,57270,2,0,B|104:256,2,70
40,256,57875,1,4,0:0:0:0:
256,352,58177,5,0,0:0:0:0:
256,352,58328,1,0,0:0:0:0:
256,352,58479,2,4,B|256:176,1,140,4|0,0:0|0:0,0:0:0:0:
256,144,58932,1,0,0:0:0:0:
208,96,59083,2,0,B|112:96,2,70
256,144,59537,1,0,0:0:0:0:
312,96,59688,2,0,B|392:96,2,70
256,144,60141,1,0,0:0:0:0:
256,224,60292,1,4,0:0:0:0:
256,192,60443,12,4,63012,0:0:0:0:
256,304,63314,5,4,0:0:0:0:
312,264,63465,1,0,0:0:0:0:
368,224,63617,2,0,B|480:128,1,140
464,64,64070,1,0,0:0:0:0:
464,64,64221,1,0,0:0:0:0:
464,64,64372,1,0,0:0:0:0:
400,48,64523,2,0,B|293:139,1,140
256,80,64977,1,0,0:0:0:0:
256,80,65128,1,0,0:0:0:0:
256,80,65279,1,0,0:0:0:0:
184,80,65430,5,0,0:0:0:0:
184,80,65581,1,0,0:0:0:0:
184,80,65732,1,4,0:0:0:0:
112,80,65883,1,0,0:0:0:0:
40,80,66034,2,0,B|40:248,1,140
112,224,66488,1,0,0:0:0:0:
112,296,66639,1,0,0:0:0:0:
112,224,66790,1,0,0:0:0:0:
184,224,66941,5,0,0:0:0:0:
256,224,67092,2,0,B|424:224,2,140
256,152,67847,2,0,B|408:152,1,140,0|4,0:0|0:0,0:0:0:0:
208,48,72985,5,0,0:0:0:0:
328,112,73287,1,0,0:0:0:0:
328,112,73589,1,0,0:0:0:0:
208,192,73892,1,0,0:0:0:0:
208,192,74194,1,0,0:0:0:0:
328,264,74496,1,0,0:0:0:0:
328,264,74647,1,0,0:0:0:0:
208,336,74949,2,0,B|128:336,2,70
280,336,75403,5,0,0:0:0:0:
160,264,75705,1,0,0:0:0:0:
160,264,76007,1,0,0:0:0:0:
280,192,76309,1,0,0:0:0:0:
280,192,76611,1,0,0:0:0:0:
160,112,76914,1,0,0:0:0:0:
160,112,77065,1,0,0:0:0:0:
280,48,77367,2,0,B|360:48,2,70
280,120,77820,5,2,0:0:0:0:
160,192,78122,1,0,0:0:0:0:
88,192,78274,1,0,0:0:0:0:
88,192,78425,1,0,0:0:0:0:
224,240,78727,1,0,0:0:0:0:
296,240,78878,1,0,0:0:0:0:
296,240,79029,1,0,0:0:0:0:
160,288,79331,1,0,0:0:0:0:
296,288,79633,1,0,0:0:0:0:
368,288,79785,1,0,0:0:0:0:
440,288,79936,2,0,B|440:200,2,70
440,80,80540,6,2,B|504:32,4,70
224,80,81447,1,0,0:0:0:0:
224,80,81598,1,0,0:0:0:0:
152,80,81749,2,0,B|80:80,1,70
152,152,82051,1,0,0:0:0:0:
152,152,82202,1,0,0:0:0:0:
152,152,82353,1,0,0:0:0:0:
360,152,82656,1,2,0:0:0:0:
256,328,82958,5,0,0:0:0:0:
256,328,83109,1,0,0:0:0:0:
184,328,83260,1,0,0:0:0:0:
184,328,83411,1,0,0:0:0:0:
112,328,83562,1,0,0:0:0:0:
112,328,83713,1,0,0:0:0:0:
40,328,83864,1,0,0:0:0:0:
40,328,84015,1,0,0:0:0:0:
40,256,84167,1,0,0:0:0:0:
40,256,84318,1,0,0:0:0:0:
112,256,84469,2,2,B|112:104,2,140
256,328,85375,5,0,0:0:0:0:
256,328,85527,1,0,0:0:0:0:
328,328,85678,1,0,0:0:0:0:
328,328,85829,1,0,0:0:0:0:
400,328,85980,1,0,0:0:0:0:
400,328,86131,1,0,0:0:0:0:
472,328,86282,1,0,0:0:0:0:
472,328,86433,1,0,0:0:0:0:
472,256,86584,1,0,0:0:0:0:
472,256,86735,1,0,0:0:0:0:
400,256,86886,2,2,B|400:104,2,140
256,256,87793,6,0,B|256:160,1,70
256,120,88095,1,0,0:0:0:0:
120,120,88397,2,0,B|40:120,8,70
256,72,89909,5,2,0:0:0:0:
392,112,90211,1,0,0:0:0:0:
392,112,90362,1,0,0:0:0:0:
392,112,90513,1,0,0:0:0:0:
392,248,90815,1,0,0:0:0:0:
392,248,90966,1,0,0:0:0:0:
392,248,91117,1,0,0:0:0:0:
256,288,91420,2,2,B|152:288,6,70
464,288,92779,1,0,0:0:0:0:
464,288,92931,1,0,0:0:0:0:
376,184,93233,5,0,0:0:0:0:
376,184,93384,1,0,0:0:0:0:
376,184,93535,2,0,B|320:128|272:216|248:112,1,140
136,184,94139,1,0,0:0:0:0:
136,184,94290,1,0,0:0:0:0:
136,184,94442,2,0,B|192:128|240:216|264:112,1,140
256,280,95046,5,0,0:0:0:0:
256,280,95197,2,0,B|256:104,1,140,0|0,0:0|0:0,0:0:0:0:
256,140,95650,1,0,0:0:0:0:
256,140,95802,1,0,0:0:0:0:
256,140,95953,2,0,B|152:139,2,70
256,140,96557,1,0,0:0:0:0:
256,140,96708,1,0,0:0:0:0:
256,140,96859,2,0,B|399:140,1,140,0|4,0:0|0:0,0:0:0:0:
80,64,97464,5,0,0:0:0:0:
80,64,97615,1,0,0:0:0:0:
80,64,97766,1,0,0:0:0:0:
80,64,97917,1,0,0:0:0:0:
80,64,98068,1,0,0:0:0:0:
80,64,98219,2,0,B|144:128|88:208,1,140
48,144,98672,2,0,B|112:96|184:176,1,140
256,48,99277,5,0,0:0:0:0:
256,48,99428,1,0,0:0:0:0:
256,48,99579,1,4,0:0:0:0:
432,64,99881,5,0,0:0:0:0:
432,64,100032,1,0,0:0:0:0:
432,64,100184,1,0,0:0:0:0:
432,64,100335,1,0,0:0:0:0:
432,64,100486,1,0,0:0:0:0:
432,64,100637,2,0,B|368:128|424:208,1,140
464,144,101090,2,0,B|400:96|328:176,1,140
256,48,101695,5,0,0:0:0:0:
256,48,101846,1,0,0:0:0:0:
256,48,101997,2,4,B|256:224,1,140,4|0,0:0|0:0,0:0:0:0:
256,256,102450,1,0,0:0:0:0:
184,256,102601,2,0,B|88:256,2,70
256,256,103054,1,0,0:0:0:0:
328,256,103206,2,0,B|408:256,2,70
472,256,103810,1,4,0:0:0:0:
256,336,104112,5,0,0:0:0:0:
256,336,104263,1,0,0:0:0:0:
256,336,104414,2,4,B|256:160,1,140,4|0,0:0|0:0,0:0:0:0:
256,128,104868,1,0,0:0:0:0:
328,128,105019,2,0,B|424:128,2,70
256,128,105472,1,0,0:0:0:0:
184,128,105623,2,0,B|104:128,2,70
40,128,106228,1,4,0:0:0:0:
256,32,106530,5,0,0:0:0:0:
256,32,106681,1,0,0:0:0:0:
256,32,106832,2,4,B|256:208,1,140,4|0,0:0|0:0,0:0:0:0:
256,240,107285,1,0,0:0:0:0:
208,288,107436,2,0,B|112:288,2,70
256,240,107890,1,0,0:0:0:0:
312,288,108041,2,0,B|392:288,2,70
256,240,108494,1,0,0:0:0:0:
256,168,108645,1,4,0:0:0:0:
256,192,108796,12,4,111365,0:0:0:0:
256,304,111667,5,4,0:0:0:0:
200,264,111818,1,0,0:0:0:0:
144,224,111970,2,0,B|32:128,1,140
48,64,112423,1,0,0:0:0:0:
48,64,112574,1,0,0:0:0:0:
48,64,112725,1,0,0:0:0:0:
112,48,112876,2,0,B|219:139,1,140
256,80,113329,1,0,0:0:0:0:
256,80,113481,1,0,0:0:0:0:
256,80,113632,1,0,0:0:0:0:
328,80,113783,5,0,0:0:0:0:
328,80,113934,1,0,0:0:0:0:
328,80,114085,1,4,0:0:0:0:
400,80,114236,1,0,0:0:0:0:
472,80,114387,2,0,B|472:248,1,140
400,224,114841,1,0,0:0:0:0:
400,296,114992,1,0,0:0:0:0:
400,224,115143,1,0,0:0:0:0:
328,224,115294,5,0,0:0:0:0:
256,224,115445,2,0,B|88:224,2,140
256,152,116200,2,0,B|104:152,1,140,0|4,0:0|0:0,0:0:0:0:
48,152,116654,5,0,0:0:0:0:
48,224,116805,2,0,B|197:223,1,140
256,224,117258,1,0,0:0:0:0:
256,224,117409,1,0,0:0:0:0:
256,224,117560,1,0,0:0:0:0:
328,224,117711,2,0,B|435:315,1,140
480,256,118165,1,0,0:0:0:0:
480,256,118316,1,0,0:0:0:0:
480,256,118467,1,0,0:0:0:0:
480,184,118618,5,0,0:0:0:0:
480,184,118769,1,0,0:0:0:0:
480,184,118920,1,4,0:0:0:0:
432,136,119071,1,0,0:0:0:0:
360,128,119222,2,0,B|208:96,1,140
152,88,119676,1,0,0:0:0:0:
168,16,119827,1,0,0:0:0:0:
152,88,119978,1,0,0:0:0:0:
136,160,120129,5,0,0:0:0:0:
152,88,120280,2,0,B|300:116,2,140
80,72,121036,2,0,B|32:232,1,140,0|4,0:0|0:0,0:0:0:0:
496,192,140377,6,4,B|352:192,2,140
256,24,141284,2,4,B|256:168,2,140
16,192,142190,2,4,B|160:192,2,140
256,360,143097,2,4,B|256:216,2,140
496,192,144003,6,4,B|352:192,2,140
16,192,144910,2,4,B|160:192,2,140
256,192,148839,12,4,150350,0:0:0:0:
256,192,153372,12,4,155185,0:0:0:0:
176,96,160020,5,4,0:0:0:0:
464,64,164856,5,4,0:0:0:0:
256,64,165158,1,0,0:0:0:0:
48,64,165460,1,0,0:0:0:0:
256,64,165762,1,0,0:0:0:0:
256,272,166064,1,0,0:0:0:0:
464,272,166367,1,0,0:0:0:0:
256,272,166669,1,0,0:0:0:0:
48,272,166971,5,0,0:0:0:0:
256,272,167273,2,0,B|256:32,1,210,4|0,0:0|0:0,0:0:0:0:
464,112,168180,1,0,0:0:0:0:
256,112,168482,2,0,B|256:352,1,210
48,320,169389,5,0,0:0:0:0:
48,320,169691,1,4,0:0:0:0:
256,320,169993,1,0,0:0:0:0:
464,320,170295,1,0,0:0:0:0:
256,320,170598,1,0,0:0:0:0:
256,112,170900,1,0,0:0:0:0:
48,112,171202,1,0,0:0:0:0:
256,112,171504,1,0,0:0:0:0:
464,112,171806,5,0,0:0:0:0:
256,112,172109,2,0,B|256:352,1,210,4|0,0:0|0:0,0:0:0:0:
48,272,172864,1,0,0:0:0:0:
48,272,173015,1,0,0:0:0:0:
256,272,173317,2,0,B|256:32,1,210,4|0,0:0|0:0,0:0:0:0:
256,192,173846,12,4,174526,0:0:0:0:
256,192,174828,5,0,0:0:0:0:
120,192,175131,5,0,0:0:0:0:
392,192,175433,1,0,0:0:0:0:
104,168,175735,1,0,0:0:0:0:
408,168,176037,1,0,0:0:0:0:
120,136,176339,1,0,0:0:0:0:
408,136,176642,1,0,0:0:0:0:
104,104,176944,5,4,0:0:0:0:
256,344,177397,1,0,0:0:0:0:
408,104,177850,1,0,0:0:0:0:
396,244,178153,5,0,0:0:0:0:
396,244,178304,2,0,B|228:244,1,140
116,244,178908,1,0,0:0:0:0:
116,244,179059,2,8,B|268:244,1,140,0|4,0:0|0:0,0:0:0:0:
256,192,186010,12,4,189032,0:0:0:0:
96,192,189334,5,0,0:0:0:0:
96,192,189485,1,0,0:0:0:0:
96,192,189637,1,0,0:0:0:0:
96,192,189788,1,0,0:0:0:0:
96,192,189939,1,0,0:0:0:0:
96,192,190090,2,0,B|160:256|104:336,1,140
64,272,190543,2,0,B|128:224|200:304,1,140
256,168,191148,5,0,0:0:0:0:
256,168,191299,1,0,0:0:0:0:
256,168,191450,1,4,0:0:0:0:
416,192,191752,5,0,0:0:0:0:
416,192,191903,1,0,0:0:0:0:
416,192,192054,1,0,0:0:0:0:
416,192,192205,1,0,0:0:0:0:
416,192,192356,1,0,0:0:0:0:
416,192,192507,2,0,B|352:256|408:336,1,140
448,272,192961,2,0,B|384:224|312:304,1,140
256,48,193565,5,0,0:0:0:0:
256,48,193716,1,0,0:0:0:0:
256,48,193867,2,4,B|256:224,1,140,4|0,0:0|0:0,0:0:0:0:
256,256,194321,1,0,0:0:0:0:
184,256,194472,1,0,0:0:0:0:
184,256,194623,1,0,0:0:0:0:
184,256,194774,1,0,0:0:0:0:
256,256,194925,1,0,0:0:0:0:
328,256,195076,1,0,0:0:0:0:
328,256,195227,1,0,0:0:0:0:
328,256,195378,1,0,0:0:0:0:
472,256,195681,1,4,0:0:0:0:
256,336,195983,5,0,0:0:0:0:
256,336,196134,1,0,0:0:0:0:
256,336,196285,2,4,B|256:160,1,140,4|0,0:0|0:0,0:0:0:0:
256,128,196738,1,0,0:0:0:0:
328,128,196889,1,0,0:0:0:0:
328,128,197041,1,0,0:0:0:0:
328,128,197192,1,0,0:0:0:0:
256,128,197343,1,0,0:0:0:0:
184,128,197494,1,0,0:0:0:0:
184,128,197645,1,0,0:0:0:0:
184,128,197796,1,0,0:0:0:0:
48,128,198098,1,4,0:0:0:0:
256,32,198400,5,0,0:0:0:0:
256,32,198552,1,0,0:0:0:0:
256,32,198703,2,4,B|256:208,1,140,4|0,0:0|0:0,0:0:0:0:
256,240,199156,1,0,0:0:0:0:
208,288,199307,1,0,0:0:0:0:
208,288,199458,1,0,0:0:0:0:
208,288,199609,1,0,0:0:0:0:
256,240,199760,1,0,0:0:0:0:
312,288,199912,1,0,0:0:0:0:
312,288,200063,1,0,0:0:0:0:
312,288,200214,1,0,0:0:0:0:
256,240,200365,1,0,0:0:0:0:
256,168,200516,1,0,0:0:0:0:
256,192,200667,12,4,203236,0:0:0:0:
256,304,203538,5,4,0:0:0:0:
312,264,203689,1,0,0:0:0:0:
368,224,203840,2,0,B|480:128,1,140
464,64,204294,1,0,0:0:0:0:
464,64,204445,1,0,0:0:0:0:
464,64,204596,1,0,0:0:0:0:
400,48,204747,2,0,B|293:139,1,140
256,80,205200,1,0,0:0:0:0:
256,80,205351,1,0,0:0:0:0:
256,80,205502,1,0,0:0:0:0:
184,80,205653,5,0,0:0:0:0:
112,80,205805,1,0,0:0:0:0:
184,80,205956,1,4,0:0:0:0:
112,80,206107,1,0,0:0:0:0:
40,80,206258,2,0,B|40:248,1,140
112,224,206711,1,0,0:0:0:0:
112,296,206862,1,0,0:0:0:0:
112,224,207013,1,0,0:0:0:0:
184,224,207164,5,0,0:0:0:0:
256,224,207316,2,0,B|424:224,2,140
256,152,208071,2,0,B|408:152,1,140,0|4,0:0|0:0,0:0:0:0:
